  0
SECTION
  2
HEADER
  9
$ACADVER
  1
AC1009
  9
$INSBASE
 10
0.0
 20
0.0
 30
0.0
  9
$EXTMIN
 10
-0.7058929444392561
 20
37.540982692415128
 30
0.0
  9
$EXTMAX
 10
4019.2941070555598
 20
2782.5409826924151
 30
0.0
  9
$LIMMIN
 10
0.0
 20
0.0
  9
$LIMMAX
 10
4200.0
 20
2970.0
  9
$ORTHOMODE
 70
     0
  9
$REGENMODE
 70
     1
  9
$FILLMODE
 70
     1
  9
$QTEXTMODE
 70
     0
  9
$MIRRTEXT
 70
     0
  9
$DRAGMODE
 70
     2
  9
$LTSCALE
 40
100.0
  9
$OSMODE
 70
    37
  9
$ATTMODE
 70
     1
  9
$TEXTSIZE
 40
30.0
  9
$TRACEWID
 40
1.0
  9
$TEXTSTYLE
  7
EXT08
  9
$CLAYER
  8
0
  9
$CELTYPE
  6
BYLAYER
  9
$CECOLOR
 62
   256
  9
$DIMSCALE
 40
10.0
  9
$DIMASZ
 40
2.0
  9
$DIMEXO
 40
1.0
  9
$DIMDLI
 40
6.0
  9
$DIMRND
 40
0.0
  9
$DIMDLE
 40
0.0
  9
$DIMEXE
 40
1.0
  9
$DIMTP
 40
0.0
  9
$DIMTM
 40
0.0
  9
$DIMTXT
 40
3.0
  9
$DIMCEN
 40
0.09
  9
$DIMTSZ
 40
0.0
  9
$DIMTOL
 70
     0
  9
$DIMLIM
 70
     0
  9
$DIMTIH
 70
     0
  9
$DIMTOH
 70
     0
  9
$DIMSE1
 70
     0
  9
$DIMSE2
 70
     0
  9
$DIMTAD
 70
     1
  9
$DIMZIN
 70
     8
  9
$DIMBLK
  1

  9
$DIMASO
 70
     1
  9
$DIMSHO
 70
     1
  9
$DIMPOST
  1

  9
$DIMAPOST
  1

  9
$DIMALT
 70
     0
  9
$DIMALTD
 70
     2
  9
$DIMALTF
 40
25.399999999999999
  9
$DIMLFAC
 40
1.0
  9
$DIMTOFL
 70
     1
  9
$DIMTVP
 40
0.0
  9
$DIMTIX
 70
     0
  9
$DIMSOXD
 70
     0
  9
$DIMSAH
 70
     0
  9
$DIMBLK1
  1

  9
$DIMBLK2
  1

  9
$DIMSTYLE
  2
SJC
  9
$DIMCLRD
 70
     0
  9
$DIMCLRE
 70
     0
  9
$DIMCLRT
 70
     0
  9
$DIMTFAC
 40
1.0
  9
$DIMGAP
 40
1.1999999999999991
  9
$LUNITS
 70
     2
  9
$LUPREC
 70
     2
  9
$SKETCHINC
 40
1.0
  9
$FILLETRAD
 40
1.0
  9
$AUNITS
 70
     0
  9
$AUPREC
 70
     0
  9
$MENU
  1
.
  9
$ELEVATION
 40
0.0
  9
$PELEVATION
 40
0.0
  9
$THICKNESS
 40
0.0
  9
$LIMCHECK
 70
     0
  9
$BLIPMODE
 70
     0
  9
$CHAMFERA
 40
0.0
  9
$CHAMFERB
 40
0.0
  9
$SKPOLY
 70
     0
  9
$TDCREATE
 40
2453122.4465482058
  9
$TDUPDATE
 40
2456388.8381781601
  9
$TDINDWG
 40
1.3259127199
  9
$TDUSRTIMER
 40
1.3259125463000001
  9
$USRTIMER
 70
     1
  9
$ANGBASE
 50
0.0
  9
$ANGDIR
 70
     0
  9
$PDMODE
 70
    33
  9
$PDSIZE
 40
5.0
  9
$PLINEWID
 40
0.0
  9
$COORDS
 70
     1
  9
$SPLFRAME
 70
     0
  9
$SPLINETYPE
 70
     6
  9
$SPLINESEGS
 70
     8
  9
$ATTDIA
 70
     0
  9
$ATTREQ
 70
     1
  9
$HANDLING
 70
     1
  9
$HANDSEED
  5
1D62C
  9
$SURFTAB1
 70
     6
  9
$SURFTAB2
 70
     6
  9
$SURFTYPE
 70
     6
  9
$SURFU
 70
     6
  9
$SURFV
 70
     6
  9
$UCSNAME
  2

  9
$UCSORG
 10
0.0
 20
0.0
 30
0.0
  9
$UCSXDIR
 10
1.0
 20
0.0
 30
0.0
  9
$UCSYDIR
 10
0.0
 20
1.0
 30
0.0
  9
$PUCSNAME
  2

  9
$PUCSORG
 10
0.0
 20
0.0
 30
0.0
  9
$PUCSXDIR
 10
1.0
 20
0.0
 30
0.0
  9
$PUCSYDIR
 10
0.0
 20
1.0
 30
0.0
  9
$USERI1
 70
     3
  9
$USERI2
 70
    10
  9
$USERI3
 70
     0
  9
$USERI4
 70
     0
  9
$USERI5
 70
     0
  9
$USERR1
 40
0.0
  9
$USERR2
 40
0.0
  9
$USERR3
 40
0.0
  9
$USERR4
 40
0.0
  9
$USERR5
 40
0.0
  9
$WORLDVIEW
 70
     1
  9
$SHADEDGE
 70
     3
  9
$SHADEDIF
 70
    70
  9
$TILEMODE
 70
     1
  9
$MAXACTVP
 70
    48
  9
$PLIMCHECK
 70
     0
  9
$PEXTMIN
 10
25.699999999999989
 20
19.5
 30
0.0
  9
$PEXTMAX
 10
231.30000000000001
 20
175.5
 30
0.0
  9
$PLIMMIN
 10
-20.0
 20
-7.5
  9
$PLIMMAX
 10
277.0
 20
202.5
  9
$UNITMODE
 70
     0
  9
$VISRETAIN
 70
     1
  9
$PLINEGEN
 70
     0
  9
$PSLTSCALE
 70
     1
  0
ENDSEC
  0
SECTION
  2
TABLES
  0
TABLE
  2
VPORT
 70
     2
  0
VPORT
  2
*ACTIVE
 70
     0
 10
0.0
 20
0.0
 11
1.0
 21
1.0
 12
2967.3042972303601
 22
1339.9509170979179
 13
0.0
 23
0.0
 14
10.0
 24
10.0
 15
10.0
 25
10.0
 16
0.0
 26
0.0
 36
1.0
 17
0.0
 27
0.0
 37
0.0
 40
3193.6184134387308
 41
1.9010526315789471
 42
50.0
 43
0.0
 44
0.0
 50
0.0
 51
0.0
 71
     0
 72
   100
 73
     1
 74
     3
 75
     0
 76
     0
 77
     0
 78
     0
  0
ENDTAB
  0
TABLE
  2
LTYPE
 70
     4
  0
LTYPE
  2
CONTINUOUS
 70
     0
  3
Solid line
 72
    65
 73
     0
 40
0.0
  0
LTYPE
  2
CENTER
 70
     0
  3
____ _ ____ _ ____ _ ____ _ ____ _ ____ _ ____ 
 72
    65
 73
     4
 40
2.0
 49
1.25
 49
-0.25
 49
0.25
 49
-0.25
  0
LTYPE
  2
HIDDEN
 70
     0
  3
__ __ __ __ __ __ __ __ __ __ __ __ __ __ __ __
 72
    65
 73
     2
 40
0.375
 49
0.25
 49
-0.125
  0
LTYPE
  2
PHANTOM
 70
     0
  3
______  __  __  ______  __  __  ______  __  __ 
 72
    65
 73
     6
 40
2.5
 49
1.25
 49
-0.25
 49
0.25
 49
-0.25
 49
0.25
 49
-0.25
  0
ENDTAB
  0
TABLE
  2
LAYER
 70
    15
  0
LAYER
  2
0
 70
     0
 62
     7
  6
CONTINUOUS
  0
LAYER
  2
ZWAKU
 70
     1
 62
    -7
  6
CONTINUOUS
  0
LAYER
  2
CENTER
 70
     0
 62
     3
  6
CENTER
  0
LAYER
  2
HASEN
 70
     0
 62
     7
  6
HIDDEN
  0
LAYER
  2
KASOU
 70
     0
 62
     2
  6
PHANTOM
  0
LAYER
  2
MOJI
 70
     0
 62
     6
  6
CONTINUOUS
  0
LAYER
  2
WAKU
 70
     0
 62
     5
  6
CONTINUOUS
  0
LAYER
  2
HOJO
 70
     0
 62
    -8
  6
CONTINUOUS
  0
LAYER
  2
SUNPOU
 70
     0
 62
     4
  6
CONTINUOUS
  0
LAYER
  2
SJC
 70
     0
 62
     1
  6
CONTINUOUS
  0
LAYER
  2
INFORMATION
 70
     1
 62
     7
  6
CONTINUOUS
  0
LAYER
  2
SJC2
 70
     0
 62
     7
  6
CONTINUOUS
  0
LAYER
  2
MOJI2
 70
     0
 62
     1
  6
CONTINUOUS
  0
LAYER
  2
HATCH
 70
     0
 62
     2
  6
CONTINUOUS
  0
LAYER
  2
DEFPOINTS
 70
     0
 62
     7
  6
CONTINUOUS
  0
ENDTAB
  0
TABLE
  2
STYLE
 70
     3
  0
STYLE
  2
STANDARD
 70
     0
 40
0.0
 41
1.0
 50
0.0
 71
     0
 42
3.0
  3
txt
  4

  0
STYLE
  2
EXT08
 70
     0
 40
0.0
 41
0.8
 50
0.0
 71
     0
 42
30.0
  3
ROMANS.shx
  4
EXTFONT.shx
  0
STYLE
  2
MOJI1
 70
     0
 40
0.0
 41
0.8
 50
0.0
 71
     0
 42
3.0
  3
ROMANS
  4
EXTFONT
  0
ENDTAB
  0
TABLE
  2
VIEW
 70
     0
  0
ENDTAB
  0
TABLE
  2
UCS
 70
     0
  0
ENDTAB
  0
TABLE
  2
APPID
 70
     2
  0
APPID
  2
ACAD
 70
     0
  0
APPID
  2
ACAD_PSEXT
 70
     0
  0
ENDTAB
  0
TABLE
  2
DIMSTYLE
 70
     2
  0
DIMSTYLE
  2
STANDARD
 70
     0
  3

  4

  5

  6

  7

 40
1.0
 41
0.18
 42
0.0625
 43
0.38
 44
0.18
 45
0.0
 46
0.0
 47
0.0
 48
0.0
140
0.18
141
0.09
142
0.0
143
25.399999999999999
144
1.0
145
0.0
146
1.0
147
0.09
 71
     0
 72
     0
 73
     1
 74
     1
 75
     0
 76
     0
 77
     0
 78
     0
170
     0
171
     2
172
     0
173
     0
174
     0
175
     0
176
     0
177
     0
178
     0
  0
DIMSTYLE
  2
SJC
 70
     0
  3

  4

  5

  6

  7

 40
1.0
 41
0.18
 42
0.0625
 43
0.38
 44
0.18
 45
0.0
 46
0.0
 47
0.0
 48
0.0
140
0.18
141
0.09
142
0.0
143
25.399999999999999
144
1.0
145
0.0
146
1.0
147
0.09
 71
     0
 72
     0
 73
     1
 74
     1
 75
     0
 76
     0
 77
     0
 78
     0
170
     0
171
     2
172
     0
173
     0
174
     0
175
     0
176
     0
177
     0
178
     0
  0
ENDTAB
  0
ENDSEC
  0
SECTION
  2
BLOCKS
  0
BLOCK
  8
0
  2
$MODEL_SPACE
 70
     0
 10
0.0
 20
0.0
 30
0.0
  3
$MODEL_SPACE
  1

  0
ENDBLK
  5
21
  8
0
  0
BLOCK
 67
     1
  8
0
  2
$PAPER_SPACE
 70
     0
 10
0.0
 20
0.0
 30
0.0
  3
$PAPER_SPACE
  1

  0
ENDBLK
  5
1D
 67
     1
  8
0
  0
BLOCK
  8
0
  2
SYSTEMA3
 70
     0
 10
0.0
 20
0.0
 30
0.0
  3
SYSTEMA3
  1

  0
POLYLINE
  5
3B
  8
ZWAKU
 66
     1
 10
0.0
 20
0.0
 30
0.0
 70
     1
  0
VERTEX
  5
1D030
  8
ZWAKU
 10
0.0
 20
0.0
 30
0.0
  0
VERTEX
  5
1D031
  8
ZWAKU
 10
0.0
 20
274.5
 30
0.0
  0
VERTEX
  5
1D032
  8
ZWAKU
 10
402.0
 20
274.5
 30
0.0
  0
VERTEX
  5
1D033
  8
ZWAKU
 10
402.0
 20
0.0
 30
0.0
  0
SEQEND
  5
1D034
  8
ZWAKU
  0
ENDBLK
  5
3D
  8
0
  0
BLOCK
  8
0
  2
CALCOMP_TECHJET720A3
 70
     0
 10
0.0
 20
0.0
 30
0.0
  3
CALCOMP_TECHJET720A3
  1

  0
POLYLINE
  5
5B
  8
ZWAKU
 62
     2
 66
     1
 10
0.0
 20
0.0
 30
0.0
 70
     1
  0
VERTEX
  5
1D035
  8
ZWAKU
 62
     2
 10
0.0
 20
0.0
 30
0.0
  0
VERTEX
  5
1D036
  8
ZWAKU
 62
     2
 10
0.0
 20
267.0
 30
0.0
  0
VERTEX
  5
1D037
  8
ZWAKU
 62
     2
 10
370.0
 20
267.0
 30
0.0
  0
VERTEX
  5
1D038
  8
ZWAKU
 62
     2
 10
370.0
 20
0.0
 30
0.0
  0
SEQEND
  5
1D039
  8
ZWAKU
 62
     2
  0
ENDBLK
  5
5D
  8
0
  0
BLOCK
  8
0
  2
GL
 70
     0
 10
0.0
 20
0.0
 30
0.0
  3
GL
  1

  0
LINE
  5
17EC2
  8
SUNPOU
 10
2.8284271247462121
 20
0.0
 30
0.0
 11
1.4142135623728791
 21
-1.414213562373106
 31
0.0
  0
LINE
  5
17EC3
  8
SUNPOU
 10
4.9497474683057581
 20
0.0
 30
0.0
 11
2.474873734152879
 21
-2.474873734152879
 31
0.0
  0
LINE
  5
17EC4
  8
SUNPOU
 10
-2.121320343559546
 20
-2.121320343559546
 30
0.0
 11
-0.707106781186667
 21
-3.535533905932652
 31
0.0
  0
LINE
  5
17EC5
  8
SUNPOU
 10
-1.0606601717799999
 20
-1.060660171779773
 30
0.0
 11
1.4142135623728791
 21
-3.535533905932652
 31
0.0
  0
TEXT
  5
17EC6
  8
SUNPOU
 10
-3.2571428571428571
 20
0.9172380209058701
 30
0.0
 40
3.0
  1
G.L.
 41
0.8
  7
MOJI1
 72
     4
 11
0.0
 21
2.4172380209058701
 31
0.0
  0
LINE
  5
17EC7
  8
SUNPOU
 10
7.0710678118653041
 20
0.0
 30
0.0
 11
3.535533905932879
 21
-3.535533905932652
 31
0.0
  0
LINE
  5
17EC8
  8
SUNPOU
 10
0.0
 20
0.0
 30
0.0
 11
3.5355339059324251
 21
-3.535533905932652
 31
0.0
  0
LINE
  5
17EC9
  8
SUNPOU
 10
0.0
 20
0.0
 30
0.0
 11
-3.5355339059324251
 21
-3.535533905932652
 31
0.0
  0
ENDBLK
  5
17ECA
  8
0
  0
BLOCK
  8
0
  2
*D4
 70
     1
 10
0.0
 20
0.0
 30
0.0
  3
*D4
  1

  0
LINE
  5
1D06C
  8
SUNPOU
 62
     0
 10
450.11334604726449
 20
651.20039179671403
 30
0.0
 11
377.68044119141211
 21
651.20039179671403
 31
0.0
  0
LINE
  5
1D06D
  8
SUNPOU
 62
     0
 10
609.64738174553963
 20
2451.200391796714
 30
0.0
 11
377.68044119141251
 21
2451.200391796714
 31
0.0
  0
LINE
  5
1D06E
  8
SUNPOU
 62
     0
 10
387.68044119141211
 20
671.20039179671403
 30
0.0
 11
387.6804411914124
 21
2431.200391796714
 31
0.0
  0
SOLID
  5
1D06F
  8
SUNPOU
 62
     0
 10
384.3471078580788
 20
671.20039179671403
 30
0.0
 11
391.01377452474537
 21
671.20039179671403
 31
0.0
 12
387.68044119141211
 22
651.20039179671403
 32
0.0
 13
387.68044119141211
 23
651.20039179671403
 33
0.0
  0
SOLID
  5
1D070
  8
SUNPOU
 62
     0
 10
384.34710785807908
 20
2431.200391796714
 30
0.0
 11
391.01377452474583
 21
2431.200391796714
 31
0.0
 12
387.68044119141251
 22
2451.200391796714
 32
0.0
 13
387.68044119141251
 23
2451.200391796714
 33
0.0
  0
TEXT
  8
SUNPOU
  40
30
  5
1D207
  62
0
  72
0
  71
0
 10
300.680
 20
1498.10
 30
0.000000
  1
1800
  7
EXT08
  0
POINT
  5
1D072
  8
DEFPOINTS
 62
     0
 10
460.11334604726437
 20
651.20039179671403
 30
0.0
  0
POINT
  5
1D073
  8
DEFPOINTS
 62
     0
 10
619.64738174553963
 20
2451.200391796714
 30
0.0
  0
POINT
  5
1D074
  8
DEFPOINTS
 62
     0
 10
387.68044119141251
 20
2451.200391796714
 30
0.0
  0
ENDBLK
  5
195ED
  8
0
  0
BLOCK
  8
0
  2
*D5
 70
     1
 10
0.0
 20
0.0
 30
0.0
  3
*D5
  1

  0
LINE
  5
1D075
  8
SUNPOU
 62
     0
 10
607.64738174553963
 20
2290.8679777078628
 30
0.0
 11
607.64738174553963
 21
2396.206345200017
 31
0.0
  0
LINE
  5
1D076
  8
SUNPOU
 62
     0
 10
767.64738174554316
 20
2290.8679777078628
 30
0.0
 11
767.64738174554316
 21
2396.206345200017
 31
0.0
  0
LINE
  5
1D077
  8
SUNPOU
 62
     0
 10
627.64738174553963
 20
2386.206345200017
 30
0.0
 11
747.64738174554316
 21
2386.206345200017
 31
0.0
  0
SOLID
  5
1D078
  8
SUNPOU
 62
     0
 10
627.64738174553963
 20
2389.5396785333501
 30
0.0
 11
627.64738174553963
 21
2382.8730118666831
 31
0.0
 12
607.64738174553963
 22
2386.206345200017
 32
0.0
 13
607.64738174553963
 23
2386.206345200017
 33
0.0
  0
SOLID
  5
1D079
  8
SUNPOU
 62
     0
 10
747.64738174554316
 20
2389.5396785333501
 30
0.0
 11
747.64738174554316
 21
2382.8730118666831
 31
0.0
 12
767.64738174554316
 22
2386.206345200017
 32
0.0
 13
767.64738174554316
 23
2386.206345200017
 33
0.0
  0
TEXT
  8
SUNPOU
  40
30
  5
1D208
  62
0
  72
0
  71
0
 10
627.647
 20
2360.11
 30
0.000000
  1
160
  7
EXT08
  0
POINT
  5
1D07B
  8
DEFPOINTS
 62
     0
 10
607.64738174553963
 20
2280.8679777078628
 30
0.0
  0
POINT
  5
1D07C
  8
DEFPOINTS
 62
     0
 10
767.64738174554316
 20
2280.8679777078628
 30
0.0
  0
POINT
  5
1D07D
  8
DEFPOINTS
 62
     0
 10
767.64738174554316
 20
2386.206345200017
 30
0.0
  0
ENDBLK
  5
19605
  8
0
  0
BLOCK
  8
0
  2
*D6
 70
     1
 10
0.0
 20
0.0
 30
0.0
  3
*D6
  1

  0
LINE
  5
1D07E
  8
SUNPOU
 62
     0
 10
450.11334604726449
 20
651.20039179671403
 30
0.0
 11
223.93867437074721
 21
651.20039179671414
 31
0.0
  0
LINE
  5
1D07F
  8
SUNPOU
 62
     0
 10
477.64738174554049
 20
251.200391796714
 30
0.0
 11
223.93867437074709
 21
251.20039179671409
 31
0.0
  0
LINE
  5
1D080
  8
SUNPOU
 62
     0
 10
233.93867437074709
 20
631.20039179671414
 30
0.0
 11
233.93867437074709
 21
271.20039179671409
 31
0.0
  0
SOLID
  5
1D081
  8
SUNPOU
 62
     0
 10
230.60534103741381
 20
631.20039179671414
 30
0.0
 11
237.27200770408049
 21
631.20039179671414
 31
0.0
 12
233.93867437074709
 22
651.20039179671414
 32
0.0
 13
233.93867437074709
 23
651.20039179671414
 33
0.0
  0
SOLID
  5
1D082
  8
SUNPOU
 62
     0
 10
230.60534103741369
 20
271.20039179671409
 30
0.0
 11
237.27200770408041
 21
271.20039179671409
 31
0.0
 12
233.93867437074709
 22
251.20039179671409
 32
0.0
 13
233.93867437074709
 23
251.20039179671409
 33
0.0
  0
TEXT
  8
SUNPOU
  40
30
  5
1D209
  62
0
  72
0
  71
0
 10
146.939
 20
398.100
 30
0.000000
  1
400
  7
EXT08
  0
POINT
  5
1D084
  8
DEFPOINTS
 62
     0
 10
460.11334604726437
 20
651.20039179671403
 30
0.0
  0
POINT
  5
1D085
  8
DEFPOINTS
 62
     0
 10
487.64738174554049
 20
251.200391796714
 30
0.0
  0
POINT
  5
1D086
  8
DEFPOINTS
 62
     0
 10
233.93867437074709
 20
251.20039179671409
 30
0.0
  0
ENDBLK
  5
1962B
  8
0
  0
BLOCK
  8
0
  2
*D7
 70
     1
 10
0.0
 20
0.0
 30
0.0
  3
*D7
  1

  0
LINE
  5
1D087
  8
SUNPOU
 62
     0
 10
633.89738174553872
 20
2491.2003917967131
 30
0.0
 11
523.71736719745945
 21
2491.2003917967131
 31
0.0
  0
LINE
  5
1D088
  8
SUNPOU
 62
     0
 10
633.89738174554009
 20
2451.200391796714
 30
0.0
 11
523.71736719745945
 21
2451.200391796714
 31
0.0
  0
LINE
  5
1D089
  8
SUNPOU
 62
     0
 10
533.71736719745945
 20
2511.2003917967131
 30
0.0
 11
533.71736719745945
 21
2531.2003917967131
 31
0.0
  0
LINE
  5
1D08A
  8
SUNPOU
 62
     0
 10
533.71736719745945
 20
2431.200391796714
 30
0.0
 11
533.71736719745945
 21
2411.200391796714
 31
0.0
  0
TEXT
  8
SUNPOU
  40
30
  5
1D20A
  62
0
  72
0
  71
0
 10
446.740
 20
2483.99
 30
0.000000
  1
40
  7
EXT08
  0
LINE
  5
1D08C
  8
SUNPOU
 62
     0
 10
533.71736719745945
 20
2491.2003917967131
 30
0.0
 11
533.71736719745945
 21
2451.200391796714
 31
0.0
  0
SOLID
  5
1D08D
  8
SUNPOU
 62
     0
 10
530.38403386412608
 20
2511.2003917967131
 30
0.0
 11
537.05070053079294
 21
2511.2003917967131
 31
0.0
 12
533.71736719745945
 22
2491.2003917967131
 32
0.0
 13
533.71736719745945
 23
2491.2003917967131
 33
0.0
  0
SOLID
  5
1D08E
  8
SUNPOU
 62
     0
 10
530.38403386412608
 20
2431.200391796714
 30
0.0
 11
537.05070053079294
 21
2431.200391796714
 31
0.0
 12
533.71736719745945
 22
2451.200391796714
 32
0.0
 13
533.71736719745945
 23
2451.200391796714
 33
0.0
  0
POINT
  5
1D08F
  8
DEFPOINTS
 62
     0
 10
643.89738174553872
 20
2491.2003917967131
 30
0.0
  0
POINT
  5
1D090
  8
DEFPOINTS
 62
     0
 10
643.89738174553997
 20
2451.200391796714
 30
0.0
  0
POINT
  5
1D091
  8
DEFPOINTS
 62
     0
 10
533.71736719745945
 20
2451.200391796714
 30
0.0
  0
ENDBLK
  5
19677
  8
0
  0
BLOCK
  8
0
  2
*D8
 70
     1
 10
0.0
 20
0.0
 30
0.0
  3
*D8
  1

  0
LINE
  5
1D092
  8
SUNPOU
 62
     0
 10
537.64738174554054
 20
241.200391796714
 30
0.0
 11
537.64738174554054
 21
94.037223932777124
 31
0.0
  0
LINE
  5
1D093
  8
SUNPOU
 62
     0
 10
837.64738174554054
 20
241.200391796714
 30
0.0
 11
837.64738174554054
 21
94.037223932777124
 31
0.0
  0
LINE
  5
1D094
  8
SUNPOU
 62
     0
 10
557.64738174554054
 20
104.0372239327771
 30
0.0
 11
817.64738174554066
 21
104.0372239327771
 31
0.0
  0
SOLID
  5
1D095
  8
SUNPOU
 62
     0
 10
557.64738174554054
 20
107.3705572661104
 30
0.0
 11
557.64738174554054
 21
100.7038905994438
 31
0.0
 12
537.64738174554054
 22
104.0372239327771
 32
0.0
 13
537.64738174554054
 23
104.0372239327771
 33
0.0
  0
SOLID
  5
1D096
  8
SUNPOU
 62
     0
 10
817.64738174554066
 20
107.3705572661104
 30
0.0
 11
817.64738174554066
 21
100.7038905994438
 31
0.0
 12
837.64738174554054
 22
104.0372239327771
 32
0.0
 13
837.64738174554054
 23
104.0372239327771
 33
0.0
  0
TEXT
  8
SUNPOU
  40
30
  5
1D20B
  62
0
  72
0
  71
0
 10
627.647
 20
77.9372
 30
0.000000
  1
□300
  7
EXT08
  0
POINT
  5
1D098
  8
DEFPOINTS
 62
     0
 10
537.64738174554054
 20
251.200391796714
 30
0.0
  0
POINT
  5
1D099
  8
DEFPOINTS
 62
     0
 10
837.64738174554054
 20
251.200391796714
 30
0.0
  0
POINT
  5
1D09A
  8
DEFPOINTS
 62
     0
 10
837.64738174554054
 20
104.0372239327771
 30
0.0
  0
ENDBLK
  5
19683
  8
0
  0
BLOCK
  8
0
  2
*D9
 70
     1
 10
0.0
 20
0.0
 30
0.0
  3
*D9
  1

  0
LINE
  5
1D0AD
  8
SUNPOU
 62
     0
 10
1969.829355828233
 20
1522.507178536805
 30
0.0
 11
1969.829355828233
 21
1709.019615007488
 31
0.0
  0
LINE
  5
1D0AE
  8
SUNPOU
 62
     0
 10
2289.8293558282398
 20
1522.507178536805
 30
0.0
 11
2289.8293558282398
 21
1709.019615007488
 31
0.0
  0
LINE
  5
1D0AF
  8
SUNPOU
 62
     0
 10
1989.829355828233
 20
1699.019615007488
 30
0.0
 11
2269.8293558282412
 21
1699.019615007488
 31
0.0
  0
SOLID
  5
1D0B0
  8
SUNPOU
 62
     0
 10
1989.829355828233
 20
1702.3529483408211
 30
0.0
 11
1989.829355828233
 21
1695.686281674155
 31
0.0
 12
1969.829355828233
 22
1699.019615007488
 32
0.0
 13
1969.829355828233
 23
1699.019615007488
 33
0.0
  0
SOLID
  5
1D0B1
  8
SUNPOU
 62
     0
 10
2269.8293558282412
 20
1702.3529483408211
 30
0.0
 11
2269.8293558282412
 21
1695.686281674155
 31
0.0
 12
2289.8293558282398
 22
1699.019615007488
 32
0.0
 13
2289.8293558282398
 23
1699.019615007488
 33
0.0
  0
TEXT
  8
SUNPOU
  40
30
  5
1D20C
  62
0
  72
0
  71
0
 10
2069.83
 20
1672.92
 30
0.000000
  1
160
  7
EXT08
  0
POINT
  5
1D0B3
  8
DEFPOINTS
 62
     0
 10
1969.829355828233
 20
1512.507178536805
 30
0.0
  0
POINT
  5
1D0B4
  8
DEFPOINTS
 62
     0
 10
2289.8293558282398
 20
1512.507178536805
 30
0.0
  0
POINT
  5
1D0B5
  8
DEFPOINTS
 62
     0
 10
2289.8293558282398
 20
1699.019615007488
 30
0.0
  0
ENDBLK
  5
196A7
  8
0
  0
BLOCK
  8
0
  2
*D10
 70
     1
 10
0.0
 20
0.0
 30
0.0
  3
*D10
  1

  0
LINE
  5
1D0B6
  8
SUNPOU
 62
     0
 10
1969.8293558282351
 20
1432.00717853681
 30
0.0
 11
1969.8293558282351
 21
1475.6788519081981
 31
0.0
  0
LINE
  5
1D0B7
  8
SUNPOU
 62
     0
 10
1979.829355828236
 20
1432.00717853681
 30
0.0
 11
1979.829355828236
 21
1475.6788519081981
 31
0.0
  0
LINE
  5
1D0B8
  8
SUNPOU
 62
     0
 10
1949.8293558282351
 20
1465.678851908197
 30
0.0
 11
1929.8293558282351
 21
1465.678851908197
 31
0.0
  0
LINE
  5
1D0B9
  8
SUNPOU
 62
     0
 10
1999.829355828236
 20
1465.678851908197
 30
0.0
 11
2019.829355828236
 21
1465.678851908197
 31
0.0
  0
TEXT
  8
SUNPOU
  40
30
  5
1D20D
  62
0
  72
0
  71
0
 10
1889.31
 20
1439.46
 30
0.000000
  1
5
  7
EXT08
  0
LINE
  5
1D0BB
  8
SUNPOU
 62
     0
 10
1969.8293558282351
 20
1465.678851908197
 30
0.0
 11
1979.829355828236
 21
1465.678851908197
 31
0.0
  0
SOLID
  5
1D0BC
  8
SUNPOU
 62
     0
 10
1949.8293558282351
 20
1469.0121852415309
 30
0.0
 11
1949.8293558282351
 21
1462.3455185748639
 31
0.0
 12
1969.8293558282351
 22
1465.678851908197
 32
0.0
 13
1969.8293558282351
 23
1465.678851908197
 33
0.0
  0
SOLID
  5
1D0BD
  8
SUNPOU
 62
     0
 10
1999.829355828236
 20
1469.0121852415309
 30
0.0
 11
1999.829355828236
 21
1462.3455185748639
 31
0.0
 12
1979.829355828236
 22
1465.678851908197
 32
0.0
 13
1979.829355828236
 23
1465.678851908197
 33
0.0
  0
POINT
  5
1D0BE
  8
DEFPOINTS
 62
     0
 10
1969.8293558282351
 20
1422.00717853681
 30
0.0
  0
POINT
  5
1D0BF
  8
DEFPOINTS
 62
     0
 10
1979.829355828236
 20
1422.00717853681
 30
0.0
  0
POINT
  5
1D0C0
  8
DEFPOINTS
 62
     0
 10
1979.829355828236
 20
1465.678851908197
 30
0.0
  0
ENDBLK
  5
196C7
  8
0
  0
BLOCK
  8
0
  2
*D11
 70
     1
 10
0.0
 20
0.0
 30
0.0
  3
*D11
  1

  0
LINE
  5
1D0C1
  8
SUNPOU
 62
     0
 10
2788.9786626568889
 20
1542.5071785368109
 30
0.0
 11
2788.9786626568889
 21
1655.1350931014349
 31
0.0
  0
LINE
  5
1D0C2
  8
SUNPOU
 62
     0
 10
2776.9786626568889
 20
1542.507178536805
 30
0.0
 11
2776.9786626568889
 21
1655.1350931014349
 31
0.0
  0
LINE
  5
1D0C3
  8
SUNPOU
 62
     0
 10
2808.9786626568898
 20
1645.1350931014349
 30
0.0
 11
2828.9786626568898
 21
1645.1350931014349
 31
0.0
  0
LINE
  5
1D0C4
  8
SUNPOU
 62
     0
 10
2756.9786626568889
 20
1645.1350931014349
 30
0.0
 11
2736.9786626568898
 21
1645.1350931014349
 31
0.0
  0
TEXT
  8
SUNPOU
  40
30
  5
1D20E
  62
0
  72
0
  71
0
 10
2691.73
 20
1622.03
 30
0.000000
  1
6
  7
EXT08
  0
LINE
  5
1D0C6
  8
SUNPOU
 62
     0
 10
2788.9786626568889
 20
1645.1350931014349
 30
0.0
 11
2776.9786626568889
 21
1645.1350931014349
 31
0.0
  0
SOLID
  5
1D0C7
  8
SUNPOU
 62
     0
 10
2808.9786626568898
 20
1648.4684264347679
 30
0.0
 11
2808.9786626568898
 21
1641.8017597681021
 31
0.0
 12
2788.9786626568889
 22
1645.1350931014349
 32
0.0
 13
2788.9786626568889
 23
1645.1350931014349
 33
0.0
  0
SOLID
  5
1D0C8
  8
SUNPOU
 62
     0
 10
2756.9786626568889
 20
1648.4684264347679
 30
0.0
 11
2756.9786626568889
 21
1641.8017597681021
 31
0.0
 12
2776.9786626568889
 22
1645.1350931014349
 32
0.0
 13
2776.9786626568889
 23
1645.1350931014349
 33
0.0
  0
POINT
  5
1D0C9
  8
DEFPOINTS
 62
     0
 10
2788.9786626568889
 20
1532.5071785368109
 30
0.0
  0
POINT
  5
1D0CA
  8
DEFPOINTS
 62
     0
 10
2776.9786626568889
 20
1532.507178536805
 30
0.0
  0
POINT
  5
1D0CB
  8
DEFPOINTS
 62
     0
 10
2776.9786626568889
 20
1645.1350931014349
 30
0.0
  0
ENDBLK
  5
196EA
  8
0
  0
BLOCK
  8
0
  2
*D12
 70
     1
 10
0.0
 20
0.0
 30
0.0
  3
*D12
  1

  0
LINE
  5
1D0E4
  8
SUNPOU
 62
     0
 10
1373.113214879631
 20
2501.2003917967181
 30
0.0
 11
1373.113214879631
 21
2552.188545291785
 31
0.0
  0
LINE
  5
1D0E5
  8
SUNPOU
 62
     0
 10
1460.61321487963
 20
2501.2003917967209
 30
0.0
 11
1460.61321487963
 21
2552.188545291785
 31
0.0
  0
LINE
  5
1D0E6
  8
SUNPOU
 62
     0
 10
1393.1132148796321
 20
2542.188545291785
 30
0.0
 11
1440.61321487963
 21
2542.188545291785
 31
0.0
  0
TEXT
  8
SUNPOU
  40
30
  5
1D20F
  62
0
  72
0
  71
0
 10
1356.86
 20
2518.77
 30
0.000000
  1
φ89
  7
EXT08
  0
SOLID
  5
1D0E8
  8
SUNPOU
 62
     0
 10
1393.1132148796321
 20
2545.521878625118
 30
0.0
 11
1393.1132148796321
 21
2538.8552119584519
 31
0.0
 12
1373.113214879631
 22
2542.188545291785
 32
0.0
 13
1373.113214879631
 23
2542.188545291785
 33
0.0
  0
SOLID
  5
1D0E9
  8
SUNPOU
 62
     0
 10
1440.61321487963
 20
2545.521878625118
 30
0.0
 11
1440.61321487963
 21
2538.8552119584519
 31
0.0
 12
1460.61321487963
 22
2542.188545291785
 32
0.0
 13
1460.61321487963
 23
2542.188545291785
 33
0.0
  0
POINT
  5
1D0EA
  8
DEFPOINTS
 62
     0
 10
1373.113214879631
 20
2491.200391796719
 30
0.0
  0
POINT
  5
1D0EB
  8
DEFPOINTS
 62
     0
 10
1460.61321487963
 20
2491.2003917967199
 30
0.0
  0
POINT
  5
1D0EC
  8
DEFPOINTS
 62
     0
 10
1460.61321487963
 20
2542.188545291785
 30
0.0
  0
ENDBLK
  5
19E0E
  8
0
  0
BLOCK
  8
0
  2
*D13
 70
     1
 10
0.0
 20
0.0
 30
0.0
  3
*D13
  1

  0
LINE
  5
1D0FD
  8
SUNPOU
 62
     0
 10
450.1133460472646
 20
651.20039179671403
 30
0.0
 11
223.93867437074701
 21
651.20039179671414
 31
0.0
  0
LINE
  5
1D0FE
  8
SUNPOU
 62
     0
 10
677.64738174554066
 20
2511.2003917967081
 30
0.0
 11
223.93867437074741
 21
2511.2003917967081
 31
0.0
  0
LINE
  5
1D0FF
  8
SUNPOU
 62
     0
 10
233.93867437074701
 20
671.20039179671414
 30
0.0
 11
233.93867437074741
 21
2491.2003917967081
 31
0.0
  0
SOLID
  5
1D100
  8
SUNPOU
 62
     0
 10
230.60534103741369
 20
671.20039179671414
 30
0.0
 11
237.27200770408041
 21
671.20039179671414
 31
0.0
 12
233.93867437074701
 22
651.20039179671414
 32
0.0
 13
233.93867437074701
 23
651.20039179671414
 33
0.0
  0
SOLID
  5
1D101
  8
SUNPOU
 62
     0
 10
230.60534103741409
 20
2491.2003917967081
 30
0.0
 11
237.27200770408081
 21
2491.2003917967081
 31
0.0
 12
233.93867437074741
 22
2511.2003917967081
 32
0.0
 13
233.93867437074741
 23
2511.2003917967081
 33
0.0
  0
TEXT
  8
SUNPOU
  40
30
  5
1D210
  62
0
  72
0
  71
0
 10
146.939
 20
1528.10
 30
0.000000
  1
1860
  7
EXT08
  0
POINT
  5
1D103
  8
DEFPOINTS
 62
     0
 10
460.11334604726471
 20
651.20039179671403
 30
0.0
  0
POINT
  5
1D104
  8
DEFPOINTS
 62
     0
 10
687.64738174554077
 20
2511.2003917967081
 30
0.0
  0
POINT
  5
1D105
  8
DEFPOINTS
 62
     0
 10
233.93867437074741
 20
2511.2003917967081
 30
0.0
  0
ENDBLK
  5
1A7EF
  8
0
  0
BLOCK
  8
0
  2
*D14
 70
     1
 10
0.0
 20
0.0
 30
0.0
  3
*D14
  1

  0
LINE
  5
1D106
  8
SUNPOU
 62
     0
 10
477.64738174554071
 20
151.200391796714
 30
0.0
 11
223.93867437074709
 21
151.20039179671409
 31
0.0
  0
LINE
  5
1D107
  8
SUNPOU
 62
     0
 10
477.64738174554071
 20
251.200391796714
 30
0.0
 11
223.93867437074709
 21
251.20039179671409
 31
0.0
  0
LINE
  5
1D108
  8
SUNPOU
 62
     0
 10
233.93867437074701
 20
171.20039179671409
 30
0.0
 11
233.93867437074709
 21
231.20039179671409
 31
0.0
  0
SOLID
  5
1D109
  8
SUNPOU
 62
     0
 10
230.60534103741369
 20
171.20039179671409
 30
0.0
 11
237.27200770408041
 21
171.20039179671409
 31
0.0
 12
233.93867437074701
 22
151.20039179671409
 32
0.0
 13
233.93867437074701
 23
151.20039179671409
 33
0.0
  0
SOLID
  5
1D10A
  8
SUNPOU
 62
     0
 10
230.60534103741369
 20
231.20039179671409
 30
0.0
 11
237.27200770408041
 21
231.20039179671409
 31
0.0
 12
233.93867437074709
 22
251.20039179671409
 32
0.0
 13
233.93867437074709
 23
251.20039179671409
 33
0.0
  0
TEXT
  8
SUNPOU
  40
30
  5
1D211
  62
0
  72
0
  71
0
 10
146.939
 20
148.100
 30
0.000000
  1
100
  7
EXT08
  0
POINT
  5
1D10C
  8
DEFPOINTS
 62
     0
 10
487.64738174554083
 20
151.200391796714
 30
0.0
  0
POINT
  5
1D10D
  8
DEFPOINTS
 62
     0
 10
487.64738174554083
 20
251.200391796714
 30
0.0
  0
POINT
  5
1D10E
  8
DEFPOINTS
 62
     0
 10
233.93867437074709
 20
251.20039179671409
 30
0.0
  0
ENDBLK
  5
1AC0A
  8
0
  0
BLOCK
  8
0
  2
*D15
 70
     1
 10
0.0
 20
0.0
 30
0.0
  3
*D15
  1

  0
LINE
  5
1D10F
  8
SUNPOU
 62
     0
 10
487.64738174554083
 20
141.200391796714
 30
0.0
 11
487.64738174554083
 21
41.961615669252751
 31
0.0
  0
LINE
  5
1D110
  8
SUNPOU
 62
     0
 10
887.64738174554066
 20
141.200391796714
 30
0.0
 11
887.64738174554066
 21
41.961615669252751
 31
0.0
  0
LINE
  5
1D111
  8
SUNPOU
 62
     0
 10
507.64738174554071
 20
51.961615669252751
 30
0.0
 11
867.64738174554066
 21
51.961615669252751
 31
0.0
  0
SOLID
  5
1D112
  8
SUNPOU
 62
     0
 10
507.64738174554071
 20
55.29494900258608
 30
0.0
 11
507.64738174554071
 21
48.628282335919408
 31
0.0
 12
487.64738174554083
 22
51.961615669252751
 32
0.0
 13
487.64738174554083
 23
51.961615669252751
 33
0.0
  0
SOLID
  5
1D113
  8
SUNPOU
 62
     0
 10
867.64738174554066
 20
55.29494900258608
 30
0.0
 11
867.64738174554066
 21
48.628282335919408
 31
0.0
 12
887.64738174554066
 22
51.961615669252751
 32
0.0
 13
887.64738174554066
 23
51.961615669252751
 33
0.0
  0
TEXT
  8
SUNPOU
  40
30
  5
1D212
  62
0
  72
0
  71
0
 10
627.647
 20
25.8616
 30
0.000000
  1
□400
  7
EXT08
  0
POINT
  5
1D115
  8
DEFPOINTS
 62
     0
 10
487.64738174554083
 20
151.200391796714
 30
0.0
  0
POINT
  5
1D116
  8
DEFPOINTS
 62
     0
 10
887.64738174554066
 20
151.200391796714
 30
0.0
  0
POINT
  5
1D117
  8
DEFPOINTS
 62
     0
 10
887.64738174554066
 20
51.961615669252751
 30
0.0
  0
ENDBLK
  5
1AC17
  8
0
  0
BLOCK
  8
0
  2
*D16
 70
     1
 10
0.0
 20
0.0
 30
0.0
  3
*D16
  1

  0
LINE
  5
1D118
  8
SUNPOU
 62
     0
 10
1983.829355828223
 20
761.50717853680578
 30
0.0
 11
1880.500388950459
 21
761.50717853680578
 31
0.0
  0
LINE
  5
1D119
  8
SUNPOU
 62
     0
 10
1983.829355828223
 20
296.50717853680578
 30
0.0
 11
1880.500388950459
 21
296.50717853680578
 31
0.0
  0
LINE
  5
1D11A
  8
SUNPOU
 62
     0
 10
1890.500388950459
 20
741.50717853680567
 30
0.0
 11
1890.500388950458
 21
316.50717853680578
 31
0.0
  0
SOLID
  5
1D11B
  8
SUNPOU
 62
     0
 10
1887.1670556171259
 20
741.50717853680567
 30
0.0
 11
1893.833722283792
 21
741.50717853680567
 31
0.0
 12
1890.500388950459
 22
761.50717853680578
 32
0.0
 13
1890.500388950459
 23
761.50717853680578
 33
0.0
  0
SOLID
  5
1D11C
  8
SUNPOU
 62
     0
 10
1887.1670556171259
 20
316.50717853680578
 30
0.0
 11
1893.833722283792
 21
316.50717853680578
 31
0.0
 12
1890.500388950458
 22
296.50717853680578
 32
0.0
 13
1890.500388950458
 23
296.50717853680578
 33
0.0
  0
TEXT
  8
SUNPOU
  40
30
  5
1D213
  62
0
  72
0
  71
0
 10
1803.50
 20
475.907
 30
0.000000
  1
510
  7
EXT08
  0
POINT
  5
1D11E
  8
DEFPOINTS
 62
     0
 10
1993.829355828223
 20
761.50717853680578
 30
0.0
  0
POINT
  5
1D11F
  8
DEFPOINTS
 62
     0
 10
1993.829355828223
 20
296.50717853680578
 30
0.0
  0
POINT
  5
1D120
  8
DEFPOINTS
 62
     0
 10
1890.500388950458
 20
296.50717853680578
 30
0.0
  0
ENDBLK
  5
1AFB1
  8
0
  0
BLOCK
  8
0
  2
*D17
 70
     1
 10
0.0
 20
0.0
 30
0.0
  3
*D17
  1

  0
LINE
  5
1D121
  8
SUNPOU
 62
     0
 10
1983.829355828233
 20
1536.507178536805
 30
0.0
 11
1811.5970653175341
 21
1536.507178536805
 31
0.0
  0
LINE
  5
1D122
  8
SUNPOU
 62
     0
 10
1983.8293558282351
 20
296.50717853680408
 30
0.0
 11
1811.597065317533
 21
296.50717853680408
 31
0.0
  0
LINE
  5
1D123
  8
SUNPOU
 62
     0
 10
1821.5970653175341
 20
1516.507178536805
 30
0.0
 11
1821.5970653175341
 21
316.50717853680408
 31
0.0
  0
SOLID
  5
1D124
  8
SUNPOU
 62
     0
 10
1818.2637319841999
 20
1516.507178536805
 30
0.0
 11
1824.9303986508669
 21
1516.507178536805
 31
0.0
 12
1821.5970653175341
 22
1536.507178536805
 32
0.0
 13
1821.5970653175341
 23
1536.507178536805
 33
0.0
  0
SOLID
  5
1D125
  8
SUNPOU
 62
     0
 10
1818.2637319841999
 20
316.50717853680408
 30
0.0
 11
1824.9303986508669
 21
316.50717853680408
 31
0.0
 12
1821.5970653175341
 22
296.50717853680408
 32
0.0
 13
1821.5970653175341
 23
296.50717853680408
 33
0.0
  0
TEXT
  8
SUNPOU
  40
30
  5
1D214
  62
0
  72
0
  71
0
 10
1734.60
 20
863.407
 30
0.000000
  1
1330
  7
EXT08
  0
POINT
  5
1D127
  8
DEFPOINTS
 62
     0
 10
1993.829355828233
 20
1536.507178536805
 30
0.0
  0
POINT
  5
1D128
  8
DEFPOINTS
 62
     0
 10
1993.8293558282351
 20
296.50717853680408
 30
0.0
  0
POINT
  5
1D129
  8
DEFPOINTS
 62
     0
 10
1821.5970653175341
 20
296.50717853680408
 30
0.0
  0
ENDBLK
  5
1B06E
  8
0
  0
BLOCK
  8
0
  2
*D18
 70
     1
 10
0.0
 20
0.0
 30
0.0
  3
*D18
  1

  0
LINE
  5
1D12A
  8
SUNPOU
 62
     0
 10
609.6473817455435
 20
1121.200391796714
 30
0.0
 11
449.88477086041502
 21
1121.200391796714
 31
0.0
  0
LINE
  5
1D12B
  8
SUNPOU
 62
     0
 10
609.64738174553975
 20
2451.200391796714
 30
0.0
 11
449.88477086041519
 21
2451.200391796714
 31
0.0
  0
LINE
  5
1D12C
  8
SUNPOU
 62
     0
 10
459.8847708604149
 20
1141.200391796714
 30
0.0
 11
459.88477086041519
 21
2431.200391796714
 31
0.0
  0
SOLID
  5
1D12D
  8
SUNPOU
 62
     0
 10
456.55143752708159
 20
1141.200391796714
 30
0.0
 11
463.21810419374822
 21
1141.200391796714
 31
0.0
 12
459.8847708604149
 22
1121.200391796714
 32
0.0
 13
459.8847708604149
 23
1121.200391796714
 33
0.0
  0
SOLID
  5
1D12E
  8
SUNPOU
 62
     0
 10
456.55143752708187
 20
2431.200391796714
 30
0.0
 11
463.2181041937485
 21
2431.200391796714
 31
0.0
 12
459.8847708604153
 22
2451.200391796714
 32
0.0
 13
459.8847708604153
 23
2451.200391796714
 33
0.0
  0
TEXT
  8
SUNPOU
  40
30
  5
1D215
  62
0
  72
0
  71
0
 10
372.885
 20
1733.10
 30
0.000000
  1
1330
  7
EXT08
  0
POINT
  5
1D130
  8
DEFPOINTS
 62
     0
 10
619.6473817455435
 20
1121.200391796714
 30
0.0
  0
POINT
  5
1D131
  8
DEFPOINTS
 62
     0
 10
619.64738174553975
 20
2451.200391796714
 30
0.0
  0
POINT
  5
1D132
  8
DEFPOINTS
 62
     0
 10
459.8847708604153
 20
2451.200391796714
 30
0.0
  0
ENDBLK
  5
1B1D2
  8
0
  0
BLOCK
  8
0
  2
*D19
 70
     1
 10
0.0
 20
0.0
 30
0.0
  3
*D19
  1

  0
LINE
  5
1D133
  8
SUNPOU
 62
     0
 10
1983.8293558282089
 20
1536.507178536807
 30
0.0
 11
1880.5003889504439
 21
1536.507178536807
 31
0.0
  0
LINE
  5
1D134
  8
SUNPOU
 62
     0
 10
1983.8293558282089
 20
1071.507178536807
 30
0.0
 11
1880.5003889504439
 21
1071.507178536807
 31
0.0
  0
LINE
  5
1D135
  8
SUNPOU
 62
     0
 10
1890.5003889504439
 20
1516.507178536807
 30
0.0
 11
1890.5003889504439
 21
1091.507178536807
 31
0.0
  0
SOLID
  5
1D136
  8
SUNPOU
 62
     0
 10
1887.1670556171109
 20
1516.507178536807
 30
0.0
 11
1893.8337222837779
 21
1516.507178536807
 31
0.0
 12
1890.5003889504451
 22
1536.507178536807
 32
0.0
 13
1890.5003889504451
 23
1536.507178536807
 33
0.0
  0
SOLID
  5
1D137
  8
SUNPOU
 62
     0
 10
1887.1670556171109
 20
1091.507178536807
 30
0.0
 11
1893.8337222837779
 21
1091.507178536807
 31
0.0
 12
1890.5003889504439
 22
1071.507178536807
 32
0.0
 13
1890.5003889504439
 23
1071.507178536807
 33
0.0
  0
TEXT
  8
SUNPOU
  40
30
  5
1D216
  62
0
  72
0
  71
0
 10
1803.50
 20
1250.91
 30
0.000000
  1
510
  7
EXT08
  0
POINT
  5
1D139
  8
DEFPOINTS
 62
     0
 10
1993.8293558282089
 20
1536.507178536807
 30
0.0
  0
POINT
  5
1D13A
  8
DEFPOINTS
 62
     0
 10
1993.8293558282089
 20
1071.507178536807
 30
0.0
  0
POINT
  5
1D13B
  8
DEFPOINTS
 62
     0
 10
1890.5003889504439
 20
1071.507178536807
 30
0.0
  0
ENDBLK
  5
1B377
  8
0
  0
BLOCK
  8
0
  2
*D20
 70
     1
 10
0.0
 20
0.0
 30
0.0
  3
*D20
  1

  0
LINE
  5
1D13C
  8
SUNPOU
 62
     0
 10
1983.8293558282089
 20
1071.507178536807
 30
0.0
 11
1880.5003889504439
 21
1071.507178536807
 31
0.0
  0
LINE
  5
1D13D
  8
SUNPOU
 62
     0
 10
1983.8293558282151
 20
761.50717853680544
 30
0.0
 11
1880.5003889504439
 21
761.50717853680544
 31
0.0
  0
LINE
  5
1D13E
  8
SUNPOU
 62
     0
 10
1890.5003889504439
 20
1051.507178536807
 30
0.0
 11
1890.5003889504439
 21
781.50717853680544
 31
0.0
  0
SOLID
  5
1D13F
  8
SUNPOU
 62
     0
 10
1887.1670556171109
 20
1051.507178536807
 30
0.0
 11
1893.8337222837779
 21
1051.507178536807
 31
0.0
 12
1890.5003889504439
 22
1071.507178536807
 32
0.0
 13
1890.5003889504439
 23
1071.507178536807
 33
0.0
  0
SOLID
  5
1D140
  8
SUNPOU
 62
     0
 10
1887.1670556171109
 20
781.50717853680544
 30
0.0
 11
1893.8337222837779
 21
781.50717853680544
 31
0.0
 12
1890.5003889504439
 22
761.50717853680544
 32
0.0
 13
1890.5003889504439
 23
761.50717853680544
 33
0.0
  0
TEXT
  8
SUNPOU
  40
30
  5
1D217
  62
0
  72
0
  71
0
 10
1803.50
 20
863.407
 30
0.000000
  1
310
  7
EXT08
  0
POINT
  5
1D142
  8
DEFPOINTS
 62
     0
 10
1993.8293558282089
 20
1071.507178536807
 30
0.0
  0
POINT
  5
1D143
  8
DEFPOINTS
 62
     0
 10
1993.8293558282151
 20
761.50717853680544
 30
0.0
  0
POINT
  5
1D144
  8
DEFPOINTS
 62
     0
 10
1890.5003889504439
 20
761.50717853680544
 30
0.0
  0
ENDBLK
  5
1B383
  8
0
  0
BLOCK
  8
0
  2
*D21
 70
     1
 10
0.0
 20
0.0
 30
0.0
  3
*D21
  1

  0
LINE
  5
1D1C3
  8
SUNPOU
 62
     0
 10
1464.3632148796351
 20
1951.200391796714
 30
0.0
 11
1738.2066515586889
 21
1951.200391796714
 31
0.0
  0
LINE
  5
1D1C4
  8
SUNPOU
 62
     0
 10
1626.8632148796351
 20
251.200391796714
 30
0.0
 11
1738.206651558688
 21
251.200391796714
 31
0.0
  0
LINE
  5
1D1C5
  8
SUNPOU
 62
     0
 10
1728.2066515586889
 20
1931.200391796714
 30
0.0
 11
1728.206651558688
 21
271.20039179671397
 31
0.0
  0
SOLID
  5
1D1C6
  8
SUNPOU
 62
     0
 10
1724.873318225355
 20
1931.200391796714
 30
0.0
 11
1731.5399848920219
 21
1931.200391796714
 31
0.0
 12
1728.2066515586889
 22
1951.200391796714
 32
0.0
 13
1728.2066515586889
 23
1951.200391796714
 33
0.0
  0
SOLID
  5
1D1C7
  8
SUNPOU
 62
     0
 10
1724.873318225355
 20
271.20039179671397
 30
0.0
 11
1731.5399848920219
 21
271.20039179671397
 31
0.0
 12
1728.206651558688
 22
251.200391796714
 32
0.0
 13
1728.206651558688
 23
251.200391796714
 33
0.0
  0
TEXT
  8
SUNPOU
  40
30
  5
1D218
  62
0
  72
0
  71
0
 10
1641.21
 20
1048.10
 30
0.000000
  1
1700
  7
EXT08
  0
POINT
  5
1D1C9
  8
DEFPOINTS
 62
     0
 10
1454.3632148796351
 20
1951.200391796714
 30
0.0
  0
POINT
  5
1D1CA
  8
DEFPOINTS
 62
     0
 10
1616.8632148796351
 20
251.200391796714
 30
0.0
  0
POINT
  5
1D1CB
  8
DEFPOINTS
 62
     0
 10
1728.206651558688
 20
251.200391796714
 30
0.0
  0
ENDBLK
  5
1BCD4
  8
0
  0
BLOCK
  8
0
  2
*D22
 70
     1
 10
0.0
 20
0.0
 30
0.0
  3
*D22
  1

  0
LINE
  5
1D1D4
  8
SUNPOU
 62
     0
 10
609.64738174553975
 20
2451.200391796714
 30
0.0
 11
523.71736719745979
 21
2451.200391796714
 31
0.0
  0
LINE
  5
1D1D5
  8
SUNPOU
 62
     0
 10
609.64738174554157
 20
1941.200391796714
 30
0.0
 11
523.71736719745968
 21
1941.200391796714
 31
0.0
  0
LINE
  5
1D1D6
  8
SUNPOU
 62
     0
 10
533.71736719745968
 20
2431.200391796714
 30
0.0
 11
533.71736719745957
 21
1961.200391796714
 31
0.0
  0
SOLID
  5
1D1D7
  8
SUNPOU
 62
     0
 10
530.38403386412642
 20
2431.200391796714
 30
0.0
 11
537.05070053079305
 21
2431.200391796714
 31
0.0
 12
533.71736719745968
 22
2451.200391796714
 32
0.0
 13
533.71736719745968
 23
2451.200391796714
 33
0.0
  0
SOLID
  5
1D1D8
  8
SUNPOU
 62
     0
 10
530.38403386412631
 20
1961.200391796714
 30
0.0
 11
537.05070053079305
 21
1961.200391796714
 31
0.0
 12
533.71736719745957
 22
1941.200391796714
 32
0.0
 13
533.71736719745957
 23
1941.200391796714
 33
0.0
  0
TEXT
  8
SUNPOU
  40
30
  5
1D219
  62
0
  72
0
  71
0
 10
446.717
 20
2143.10
 30
0.000000
  1
510
  7
EXT08
  0
POINT
  5
1D1DA
  8
DEFPOINTS
 62
     0
 10
619.64738174553975
 20
2451.200391796714
 30
0.0
  0
POINT
  5
1D1DB
  8
DEFPOINTS
 62
     0
 10
619.64738174554168
 20
1941.200391796714
 30
0.0
  0
POINT
  5
1D1DC
  8
DEFPOINTS
 62
     0
 10
533.71736719745957
 20
1941.200391796714
 30
0.0
  0
ENDBLK
  5
1C7EF
  8
0
  0
BLOCK
  8
0
  2
*D23
 70
     1
 10
0.0
 20
0.0
 30
0.0
  3
*D23
  1

  0
LINE
  5
1D1DD
  8
SUNPOU
 62
     0
 10
609.64738174553975
 20
1941.200391796714
 30
0.0
 11
523.71736719745979
 21
1941.200391796714
 31
0.0
  0
LINE
  5
1D1DE
  8
SUNPOU
 62
     0
 10
609.64738174554157
 20
1631.200391796714
 30
0.0
 11
523.71736719745968
 21
1631.200391796714
 31
0.0
  0
LINE
  5
1D1DF
  8
SUNPOU
 62
     0
 10
533.71736719745968
 20
1921.200391796714
 30
0.0
 11
533.71736719745957
 21
1651.200391796714
 31
0.0
  0
SOLID
  5
1D1E0
  8
SUNPOU
 62
     0
 10
530.38403386412642
 20
1921.200391796714
 30
0.0
 11
537.05070053079305
 21
1921.200391796714
 31
0.0
 12
533.71736719745968
 22
1941.200391796714
 32
0.0
 13
533.71736719745968
 23
1941.200391796714
 33
0.0
  0
SOLID
  5
1D1E1
  8
SUNPOU
 62
     0
 10
530.38403386412631
 20
1651.200391796714
 30
0.0
 11
537.05070053079305
 21
1651.200391796714
 31
0.0
 12
533.71736719745957
 22
1631.200391796714
 32
0.0
 13
533.71736719745957
 23
1631.200391796714
 33
0.0
  0
TEXT
  8
SUNPOU
  40
30
  5
1D21A
  62
0
  72
0
  71
0
 10
446.717
 20
1733.10
 30
0.000000
  1
310
  7
EXT08
  0
POINT
  5
1D1E3
  8
DEFPOINTS
 62
     0
 10
619.64738174553975
 20
1941.200391796714
 30
0.0
  0
POINT
  5
1D1E4
  8
DEFPOINTS
 62
     0
 10
619.64738174554168
 20
1631.200391796714
 30
0.0
  0
POINT
  5
1D1E5
  8
DEFPOINTS
 62
     0
 10
533.71736719745957
 20
1631.200391796714
 30
0.0
  0
ENDBLK
  5
1C7FB
  8
0
  0
BLOCK
  8
0
  2
*D24
 70
     1
 10
0.0
 20
0.0
 30
0.0
  3
*D24
  1

  0
LINE
  5
1D1F6
  8
SUNPOU
 62
     0
 10
609.64738174554145
 20
1631.200391796714
 30
0.0
 11
523.71736719746139
 21
1631.200391796714
 31
0.0
  0
LINE
  5
1D1F7
  8
SUNPOU
 62
     0
 10
609.64738174554316
 20
1121.200391796714
 30
0.0
 11
523.71736719746127
 21
1121.200391796714
 31
0.0
  0
LINE
  5
1D1F8
  8
SUNPOU
 62
     0
 10
533.71736719746127
 20
1611.200391796714
 30
0.0
 11
533.71736719746116
 21
1141.200391796714
 31
0.0
  0
SOLID
  5
1D1F9
  8
SUNPOU
 62
     0
 10
530.38403386412801
 20
1611.200391796714
 30
0.0
 11
537.05070053079476
 21
1611.200391796714
 31
0.0
 12
533.71736719746127
 22
1631.200391796714
 32
0.0
 13
533.71736719746127
 23
1631.200391796714
 33
0.0
  0
SOLID
  5
1D1FA
  8
SUNPOU
 62
     0
 10
530.38403386412779
 20
1141.200391796714
 30
0.0
 11
537.05070053079464
 21
1141.200391796714
 31
0.0
 12
533.71736719746116
 22
1121.200391796714
 32
0.0
 13
533.71736719746116
 23
1121.200391796714
 33
0.0
  0
TEXT
  8
SUNPOU
  40
30
  5
1D21B
  62
0
  72
0
  71
0
 10
446.717
 20
1323.10
 30
0.000000
  1
510
  7
EXT08
  0
POINT
  5
1D1FC
  8
DEFPOINTS
 62
     0
 10
619.64738174554145
 20
1631.200391796714
 30
0.0
  0
POINT
  5
1D1FD
  8
DEFPOINTS
 62
     0
 10
619.64738174554327
 20
1121.200391796714
 30
0.0
  0
POINT
  5
1D1FE
  8
DEFPOINTS
 62
     0
 10
533.71736719746116
 20
1121.200391796714
 30
0.0
  0
ENDBLK
  5
1C860
  8
0
  0
BLOCK
  8
0
  2
*U25
 70
     1
 10
0.0
 20
0.0
 30
0.0
  3
*U25
  1

  0
SOLID
  5
1D065
  8
SUNPOU
 10
1448.5425803044591
 20
2517.7925085521001
 30
0.0
 11
1429.8085583508339
 21
2510.0370245212848
 31
0.0
 12
1445.014638351026
 22
2523.4491922110701
 32
0.0
 13
1445.014638351026
 23
2523.4491922110701
 33
0.0
  0
POLYLINE
  5
1D066
  8
SUNPOU
 66
     1
 10
0.0
 20
0.0
 30
0.0
  0
VERTEX
  5
1D067
  8
SUNPOU
 10
1446.778609327743
 20
2520.6208503815851
 30
0.0
  0
VERTEX
  5
1D068
  8
SUNPOU
 10
1528.517222797858
 20
2571.5993213483011
 30
0.0
  0
SEQEND
  5
1D069
  8
SUNPOU
  0
ENDBLK
  5
1D06B
  8
0
  0
BLOCK
  8
0
  2
*U26
 70
     1
 10
0.0
 20
0.0
 30
0.0
  3
*U26
  1

  0
SOLID
  5
1D09C
  8
SUNPOU
 10
2160.029281255765
 20
2093.401335608175
 30
0.0
 11
2147.722948157978
 21
2077.2872027802059
 31
0.0
 12
2154.137868819786
 22
2096.5215445681079
 32
0.0
 13
2154.137868819786
 23
2096.5215445681079
 33
0.0
  0
POLYLINE
  5
1D09D
  8
SUNPOU
 66
     1
 10
0.0
 20
0.0
 30
0.0
  0
VERTEX
  5
1D09E
  8
SUNPOU
 10
2157.0835750377751
 20
2094.9614400881419
 30
0.0
  0
VERTEX
  5
1D09F
  8
SUNPOU
 10
2185.3769961024441
 20
2148.3835713803919
 30
0.0
  0
VERTEX
  5
1D0A0
  8
SUNPOU
 10
2391.0662789568469
 20
2148.3835713803919
 30
0.0
  0
SEQEND
  5
1D0A1
  8
SUNPOU
  0
ENDBLK
  5
1D0A3
  8
0
  0
BLOCK
  8
0
  2
*U27
 70
     1
 10
0.0
 20
0.0
 30
0.0
  3
*U27
  1

  0
SOLID
  5
1D0A5
  8
SUNPOU
 10
2045.407054553993
 20
2031.8842896966801
 30
0.0
 11
2049.6431739937002
 21
2012.0558655736279
 31
0.0
 12
2039.205193727041
 22
2029.4386064122859
 32
0.0
 13
2039.205193727041
 23
2029.4386064122859
 33
0.0
  0
POLYLINE
  5
1D0A6
  8
SUNPOU
 66
     1
 10
0.0
 20
0.0
 30
0.0
  0
VERTEX
  5
1D0A7
  8
SUNPOU
 10
2042.3061241405171
 20
2030.6614480544829
 30
0.0
  0
VERTEX
  5
1D0A8
  8
SUNPOU
 10
2007.920243499155
 20
2117.8585301585672
 30
0.0
  0
VERTEX
  5
1D0A9
  8
SUNPOU
 10
1860.2007199658569
 20
2117.8585301585672
 30
0.0
  0
SEQEND
  5
1D0AA
  8
SUNPOU
  0
ENDBLK
  5
1D0AC
  8
0
  0
BLOCK
  8
0
  2
*U28
 70
     1
 10
0.0
 20
0.0
 30
0.0
  3
*U28
  1

  0
SOLID
  5
1D0CD
  8
SUNPOU
 10
703.64269115791626
 20
942.38829137049959
 30
0.0
 11
687.64738174554054
 21
929.92790662870812
 31
0.0
 12
698.73687397612571
 22
946.90242497765996
 32
0.0
 13
698.73687397612571
 23
946.90242497765996
 33
0.0
  0
POLYLINE
  5
1D0CE
  8
SUNPOU
 66
     1
 10
0.0
 20
0.0
 30
0.0
  0
VERTEX
  5
1D0CF
  8
SUNPOU
 10
701.18978256702087
 20
944.64535817407989
 30
0.0
  0
VERTEX
  5
1D0D0
  8
SUNPOU
 10
753.49609912364997
 20
1001.490203455723
 30
0.0
  0
SEQEND
  5
1D0D1
  8
SUNPOU
  0
ENDBLK
  5
1D0D3
  8
0
  0
BLOCK
  8
0
  2
*U29
 70
     1
 10
0.0
 20
0.0
 30
0.0
  3
*U29
  1

  0
SOLID
  5
1D0D5
  8
SUNPOU
 10
1479.2767206686699
 20
2458.8733840540281
 30
0.0
 11
1460.4551252960571
 21
2466.413852125756
 31
0.0
 12
1480.704894347467
 22
2465.3852781246992
 32
0.0
 13
1480.704894347467
 23
2465.3852781246992
 33
0.0
  0
POLYLINE
  5
1D0D6
  8
SUNPOU
 66
     1
 10
0.0
 20
0.0
 30
0.0
  0
VERTEX
  5
1D0D7
  8
SUNPOU
 10
1479.9908075080691
 20
2462.1293310893629
 30
0.0
  0
VERTEX
  5
1D0D8
  8
SUNPOU
 10
1559.163789743081
 20
2444.7652941328638
 30
0.0
  0
SEQEND
  5
1D0D9
  8
SUNPOU
  0
ENDBLK
  5
1D0DB
  8
0
  0
BLOCK
  8
0
  2
*U30
 70
     1
 10
0.0
 20
0.0
 30
0.0
  3
*U30
  1

  0
SOLID
  5
1D0DD
  8
SUNPOU
 10
703.6426911579166
 20
695.96764570438506
 30
0.0
 11
687.64738174554077
 21
683.50726096259348
 31
0.0
 12
698.73687397612593
 22
700.48177931154544
 32
0.0
 13
698.73687397612593
 23
700.48177931154544
 33
0.0
  0
POLYLINE
  5
1D0DE
  8
SUNPOU
 66
     1
 10
0.0
 20
0.0
 30
0.0
  0
VERTEX
  5
1D0DF
  8
SUNPOU
 10
701.18978256702121
 20
698.22471250796525
 30
0.0
  0
VERTEX
  5
1D0E0
  8
SUNPOU
 10
753.49609912365031
 20
755.06955778960901
 30
0.0
  0
SEQEND
  5
1D0E1
  8
SUNPOU
  0
ENDBLK
  5
1D0E3
  8
0
  0
BLOCK
  8
0
  2
*U31
 70
     1
 10
0.0
 20
0.0
 30
0.0
  3
*U31
  1

  0
SOLID
  5
1D0EE
  8
SUNPOU
 10
681.15187428380386
 20
524.90766890528926
 30
0.0
 11
687.64738174554077
 21
505.70039179671312
 31
0.0
 12
675.27359562490017
 22
521.76278664155973
 32
0.0
 13
675.27359562490017
 23
521.76278664155973
 33
0.0
  0
POLYLINE
  5
1D0EF
  8
SUNPOU
 66
     1
 10
0.0
 20
0.0
 30
0.0
  0
VERTEX
  5
1D0F0
  8
SUNPOU
 10
678.21273495435207
 20
523.33522777342444
 30
0.0
  0
VERTEX
  5
1D0F1
  8
SUNPOU
 10
556.89700559416815
 20
750.09337103110283
 30
0.0
  0
SEQEND
  5
1D0F2
  8
SUNPOU
  0
ENDBLK
  5
1D0F4
  8
0
  0
BLOCK
  8
0
  2
*U32
 70
     1
 10
0.0
 20
0.0
 30
0.0
  3
*U32
  1

  0
SOLID
  5
1D0F6
  8
SUNPOU
 10
2901.3918680063548
 20
1502.80310388612
 30
0.0
 11
2881.879462544654
 21
1497.291557441675
 31
0.0
 12
2898.549614810227
 22
1508.833530173999
 32
0.0
 13
2898.549614810227
 23
1508.833530173999
 33
0.0
  0
POLYLINE
  5
1D0F7
  8
SUNPOU
 66
     1
 10
0.0
 20
0.0
 30
0.0
  0
VERTEX
  5
1D0F8
  8
SUNPOU
 10
2899.9707414082909
 20
1505.8183170300599
 30
0.0
  0
VERTEX
  5
1D0F9
  8
SUNPOU
 10
3019.415015896534
 20
1562.1146474579371
 30
0.0
  0
SEQEND
  5
1D0FA
  8
SUNPOU
  0
ENDBLK
  5
1D0FC
  8
0
  0
BLOCK
  8
0
  2
*X33
 70
     1
 10
0.0
 20
0.0
 30
0.0
  3
*X33
  1

  0
LINE
  5
1D146
  8
0
 62
     0
 10
2969.478662656893
 20
1610.4519590883749
 30
0.0
 11
2963.4234432084618
 21
1616.507178536807
 31
0.0
  0
LINE
  5
1D147
  8
0
 62
     0
 10
2969.478662656893
 20
1592.4914468462371
 30
0.0
 11
2945.4629309663228
 21
1616.507178536807
 31
0.0
  0
LINE
  5
1D148
  8
0
 62
     0
 10
2969.478662656893
 20
1574.5309346040981
 30
0.0
 11
2927.5024187241852
 21
1616.507178536807
 31
0.0
  0
LINE
  5
1D149
  8
0
 62
     0
 10
2969.478662656893
 20
1556.57042236196
 30
0.0
 11
2909.5419064820462
 21
1616.507178536807
 31
0.0
  0
LINE
  5
1D14A
  8
0
 62
     0
 10
2969.478662656893
 20
1538.609910119822
 30
0.0
 11
2891.5813942399081
 21
1616.507178536807
 31
0.0
  0
LINE
  5
1D14B
  8
0
 62
     0
 10
2953.620881997771
 20
1536.507178536805
 30
0.0
 11
2873.6208819977692
 21
1616.507178536807
 31
0.0
  0
LINE
  5
1D14C
  8
0
 62
     0
 10
2935.6603697556329
 20
1536.507178536805
 30
0.0
 11
2855.6603697556311
 21
1616.507178536807
 31
0.0
  0
LINE
  5
1D14D
  8
0
 62
     0
 10
2917.6998575134949
 20
1536.507178536805
 30
0.0
 11
2837.699857513493
 21
1616.507178536807
 31
0.0
  0
LINE
  5
1D14E
  8
0
 62
     0
 10
2899.7393452713568
 20
1536.507178536805
 30
0.0
 11
2819.739345271355
 21
1616.507178536807
 31
0.0
  0
LINE
  5
1D14F
  8
0
 62
     0
 10
2881.7788330292178
 20
1536.507178536805
 30
0.0
 11
2801.778833029216
 21
1616.507178536807
 31
0.0
  0
LINE
  5
1D150
  8
0
 62
     0
 10
2863.8183207870802
 20
1536.507178536805
 30
0.0
 11
2794.4786626568912
 21
1605.8468366669931
 31
0.0
  0
LINE
  5
1D151
  8
0
 62
     0
 10
2845.8578085449421
 20
1536.507178536805
 30
0.0
 11
2794.4786626568921
 21
1587.886324424855
 31
0.0
  0
LINE
  5
1D152
  8
0
 62
     0
 10
2827.8972963028032
 20
1536.507178536805
 30
0.0
 11
2794.4786626568921
 21
1569.9258121827161
 31
0.0
  0
LINE
  5
1D153
  8
0
 62
     0
 10
2809.9367840606651
 20
1536.507178536805
 30
0.0
 11
2794.4786626568921
 21
1551.9652999405771
 31
0.0
  0
LINE
  5
1D154
  8
0
 62
     0
 10
2955.3876456657322
 20
1536.507178536805
 30
0.0
 11
2969.478662656893
 21
1550.598195527966
 31
0.0
  0
LINE
  5
1D155
  8
0
 62
     0
 10
2937.4271334235941
 20
1536.507178536805
 30
0.0
 11
2969.478662656893
 21
1568.558707770105
 31
0.0
  0
LINE
  5
1D156
  8
0
 62
     0
 10
2919.466621181456
 20
1536.507178536805
 30
0.0
 11
2969.478662656893
 21
1586.5192200122431
 31
0.0
  0
LINE
  5
1D157
  8
0
 62
     0
 10
2901.5061089393171
 20
1536.507178536805
 30
0.0
 11
2969.478662656893
 21
1604.4797322543809
 31
0.0
  0
LINE
  5
1D158
  8
0
 62
     0
 10
2883.5455966971781
 20
1536.507178536805
 30
0.0
 11
2963.5455966971799
 21
1616.507178536807
 31
0.0
  0
LINE
  5
1D159
  8
0
 62
     0
 10
2865.58508445504
 20
1536.507178536805
 30
0.0
 11
2945.5850844550419
 21
1616.507178536807
 31
0.0
  0
LINE
  5
1D15A
  8
0
 62
     0
 10
2847.624572212902
 20
1536.507178536805
 30
0.0
 11
2927.6245722129038
 21
1616.507178536807
 31
0.0
  0
LINE
  5
1D15B
  8
0
 62
     0
 10
2829.6640599707639
 20
1536.507178536805
 30
0.0
 11
2909.6640599707662
 21
1616.507178536807
 31
0.0
  0
LINE
  5
1D15C
  8
0
 62
     0
 10
2811.7035477286258
 20
1536.507178536805
 30
0.0
 11
2891.7035477286281
 21
1616.507178536807
 31
0.0
  0
LINE
  5
1D15D
  8
0
 62
     0
 10
2794.478662656893
 20
1537.2428057072109
 30
0.0
 11
2873.7430354864891
 21
1616.507178536807
 31
0.0
  0
LINE
  5
1D15E
  8
0
 62
     0
 10
2794.478662656893
 20
1555.203317949349
 30
0.0
 11
2855.7825232443502
 21
1616.507178536807
 31
0.0
  0
LINE
  5
1D15F
  8
0
 62
     0
 10
2794.4786626568921
 20
1573.163830191487
 30
0.0
 11
2837.822011002213
 21
1616.507178536807
 31
0.0
  0
LINE
  5
1D160
  8
0
 62
     0
 10
2794.4786626568921
 20
1591.1243424336251
 30
0.0
 11
2819.861498760074
 21
1616.507178536807
 31
0.0
  0
LINE
  5
1D161
  8
0
 62
     0
 10
2794.4786626568912
 20
1609.0848546757629
 30
0.0
 11
2801.9009865179351
 21
1616.507178536807
 31
0.0
  0
ENDBLK
  5
1D163
  8
0
  0
BLOCK
  8
0
  2
*X34
 70
     1
 10
0.0
 20
0.0
 30
0.0
  3
*X34
  1

  0
LINE
  5
1D165
  8
0
 62
     0
 10
2217.3293558282348
 20
1610.4519590883749
 30
0.0
 11
2211.2741363798032
 21
1616.507178536807
 31
0.0
  0
LINE
  5
1D166
  8
0
 62
     0
 10
2217.3293558282348
 20
1592.4914468462371
 30
0.0
 11
2193.3136241376642
 21
1616.507178536807
 31
0.0
  0
LINE
  5
1D167
  8
0
 62
     0
 10
2217.3293558282348
 20
1574.5309346040981
 30
0.0
 11
2175.3531118955261
 21
1616.507178536807
 31
0.0
  0
LINE
  5
1D168
  8
0
 62
     0
 10
2217.3293558282348
 20
1556.57042236196
 30
0.0
 11
2157.3925996533881
 21
1616.507178536807
 31
0.0
  0
LINE
  5
1D169
  8
0
 62
     0
 10
2217.3293558282348
 20
1538.609910119822
 30
0.0
 11
2139.43208741125
 21
1616.507178536807
 31
0.0
  0
LINE
  5
1D16A
  8
0
 62
     0
 10
2201.4715751691128
 20
1536.507178536805
 30
0.0
 11
2121.471575169111
 21
1616.507178536807
 31
0.0
  0
LINE
  5
1D16B
  8
0
 62
     0
 10
2183.5110629269748
 20
1536.507178536805
 30
0.0
 11
2103.511062926973
 21
1616.507178536807
 31
0.0
  0
LINE
  5
1D16C
  8
0
 62
     0
 10
2165.5505506848372
 20
1536.507178536805
 30
0.0
 11
2085.5505506848349
 21
1616.507178536807
 31
0.0
  0
LINE
  5
1D16D
  8
0
 62
     0
 10
2147.5900384426982
 20
1536.507178536805
 30
0.0
 11
2067.5900384426968
 21
1616.507178536807
 31
0.0
  0
LINE
  5
1D16E
  8
0
 62
     0
 10
2129.6295262005601
 20
1536.507178536805
 30
0.0
 11
2049.6295262005578
 21
1616.507178536807
 31
0.0
  0
LINE
  5
1D16F
  8
0
 62
     0
 10
2111.6690139584221
 20
1536.507178536805
 30
0.0
 11
2042.329355828233
 21
1605.8468366669931
 31
0.0
  0
LINE
  5
1D170
  8
0
 62
     0
 10
2093.7085017162831
 20
1536.507178536805
 30
0.0
 11
2042.3293558282339
 21
1587.886324424855
 31
0.0
  0
LINE
  5
1D171
  8
0
 62
     0
 10
2075.747989474145
 20
1536.507178536805
 30
0.0
 11
2042.3293558282339
 21
1569.9258121827161
 31
0.0
  0
LINE
  5
1D172
  8
0
 62
     0
 10
2057.7874772320069
 20
1536.507178536805
 30
0.0
 11
2042.3293558282339
 21
1551.9652999405771
 31
0.0
  0
LINE
  5
1D173
  8
0
 62
     0
 10
2203.238338837074
 20
1536.507178536805
 30
0.0
 11
2217.3293558282348
 21
1550.598195527966
 31
0.0
  0
LINE
  5
1D174
  8
0
 62
     0
 10
2185.277826594935
 20
1536.507178536805
 30
0.0
 11
2217.3293558282348
 21
1568.558707770105
 31
0.0
  0
LINE
  5
1D175
  8
0
 62
     0
 10
2167.317314352797
 20
1536.507178536805
 30
0.0
 11
2217.3293558282348
 21
1586.5192200122431
 31
0.0
  0
LINE
  5
1D176
  8
0
 62
     0
 10
2149.3568021106589
 20
1536.507178536805
 30
0.0
 11
2217.3293558282348
 21
1604.4797322543809
 31
0.0
  0
LINE
  5
1D177
  8
0
 62
     0
 10
2131.3962898685199
 20
1536.507178536805
 30
0.0
 11
2211.3962898685222
 21
1616.507178536807
 31
0.0
  0
LINE
  5
1D178
  8
0
 62
     0
 10
2113.4357776263819
 20
1536.507178536805
 30
0.0
 11
2193.4357776263842
 21
1616.507178536807
 31
0.0
  0
LINE
  5
1D179
  8
0
 62
     0
 10
2095.4752653842438
 20
1536.507178536805
 30
0.0
 11
2175.4752653842461
 21
1616.507178536807
 31
0.0
  0
LINE
  5
1D17A
  8
0
 62
     0
 10
2077.5147531421062
 20
1536.507178536805
 30
0.0
 11
2157.514753142108
 21
1616.507178536807
 31
0.0
  0
LINE
  5
1D17B
  8
0
 62
     0
 10
2059.5542408999672
 20
1536.507178536805
 30
0.0
 11
2139.554240899969
 21
1616.507178536807
 31
0.0
  0
LINE
  5
1D17C
  8
0
 62
     0
 10
2042.3293558282351
 20
1537.2428057072109
 30
0.0
 11
2121.593728657831
 21
1616.507178536807
 31
0.0
  0
LINE
  5
1D17D
  8
0
 62
     0
 10
2042.3293558282339
 20
1555.203317949349
 30
0.0
 11
2103.633216415692
 21
1616.507178536807
 31
0.0
  0
LINE
  5
1D17E
  8
0
 62
     0
 10
2042.3293558282339
 20
1573.163830191487
 30
0.0
 11
2085.6727041735548
 21
1616.507178536807
 31
0.0
  0
LINE
  5
1D17F
  8
0
 62
     0
 10
2042.3293558282339
 20
1591.1243424336251
 30
0.0
 11
2067.7121919314159
 21
1616.507178536807
 31
0.0
  0
LINE
  5
1D180
  8
0
 62
     0
 10
2042.329355828233
 20
1609.0848546757629
 30
0.0
 11
2049.7516796892769
 21
1616.507178536807
 31
0.0
  0
ENDBLK
  5
1D182
  8
0
  0
BLOCK
  8
0
  2
*X35
 70
     1
 10
0.0
 20
0.0
 30
0.0
  3
*X35
  1

  0
LINE
  5
1D184
  8
0
 62
     0
 10
1460.6132148796339
 20
2490.699478390793
 30
0.0
 11
1460.112301473712
 21
2491.2003917967149
 31
0.0
  0
LINE
  5
1D185
  8
0
 62
     0
 10
1460.6132148796339
 20
2481.719222269724
 30
0.0
 11
1451.132045352643
 21
2491.2003917967149
 31
0.0
  0
LINE
  5
1D186
  8
0
 62
     0
 10
1460.6132148796339
 20
2472.7389661486541
 30
0.0
 11
1442.151789231574
 21
2491.2003917967149
 31
0.0
  0
LINE
  5
1D187
  8
0
 62
     0
 10
1460.6132148796351
 20
2463.758710027585
 30
0.0
 11
1433.1715331105049
 21
2491.2003917967149
 31
0.0
  0
LINE
  5
1D188
  8
0
 62
     0
 10
1460.6132148796351
 20
2454.778453906516
 30
0.0
 11
1424.1912769894359
 21
2491.2003917967149
 31
0.0
  0
LINE
  5
1D189
  8
0
 62
     0
 10
1455.2110208683671
 20
2451.200391796714
 30
0.0
 11
1415.2110208683659
 21
2491.2003917967149
 31
0.0
  0
LINE
  5
1D18A
  8
0
 62
     0
 10
1446.2307647472981
 20
2451.200391796714
 30
0.0
 11
1406.2307647472981
 21
2491.2003917967149
 31
0.0
  0
LINE
  5
1D18B
  8
0
 62
     0
 10
1437.250508626229
 20
2451.200391796714
 30
0.0
 11
1397.2505086262281
 21
2491.2003917967149
 31
0.0
  0
LINE
  5
1D18C
  8
0
 62
     0
 10
1428.27025250516
 20
2451.200391796714
 30
0.0
 11
1388.2702525051591
 21
2491.2003917967149
 31
0.0
  0
LINE
  5
1D18D
  8
0
 62
     0
 10
1419.289996384091
 20
2451.200391796714
 30
0.0
 11
1379.28999638409
 21
2491.2003917967149
 31
0.0
  0
LINE
  5
1D18E
  8
0
 62
     0
 10
1410.3097402630219
 20
2451.200391796714
 30
0.0
 11
1373.1132148796339
 21
2488.3969171801018
 31
0.0
  0
LINE
  5
1D18F
  8
0
 62
     0
 10
1401.3294841419529
 20
2451.200391796714
 30
0.0
 11
1373.1132148796339
 21
2479.4166610590319
 31
0.0
  0
LINE
  5
1D190
  8
0
 62
     0
 10
1392.3492280208841
 20
2451.200391796714
 30
0.0
 11
1373.1132148796339
 21
2470.4364049379628
 31
0.0
  0
LINE
  5
1D191
  8
0
 62
     0
 10
1383.3689718998139
 20
2451.200391796714
 30
0.0
 11
1373.1132148796339
 21
2461.4561488168938
 31
0.0
  0
LINE
  5
1D192
  8
0
 62
     0
 10
1374.3887157787451
 20
2451.200391796714
 30
0.0
 11
1373.1132148796351
 21
2452.4758926958252
 31
0.0
  0
LINE
  5
1D193
  8
0
 62
     0
 10
1454.391962358038
 20
2451.200391796714
 30
0.0
 11
1460.6132148796351
 21
2457.4216443183109
 31
0.0
  0
LINE
  5
1D194
  8
0
 62
     0
 10
1445.4117062369689
 20
2451.200391796714
 30
0.0
 11
1460.6132148796351
 21
2466.401900439379
 31
0.0
  0
LINE
  5
1D195
  8
0
 62
     0
 10
1436.4314501158999
 20
2451.200391796714
 30
0.0
 11
1460.6132148796351
 21
2475.3821565604489
 31
0.0
  0
LINE
  5
1D196
  8
0
 62
     0
 10
1427.45119399483
 20
2451.200391796714
 30
0.0
 11
1460.6132148796351
 21
2484.362412681518
 31
0.0
  0
LINE
  5
1D197
  8
0
 62
     0
 10
1418.4709378737621
 20
2451.200391796714
 30
0.0
 11
1458.4709378737621
 21
2491.2003917967149
 31
0.0
  0
LINE
  5
1D198
  8
0
 62
     0
 10
1409.4906817526919
 20
2451.200391796714
 30
0.0
 11
1449.490681752693
 21
2491.2003917967149
 31
0.0
  0
LINE
  5
1D199
  8
0
 62
     0
 10
1400.5104256316231
 20
2451.200391796714
 30
0.0
 11
1440.510425631624
 21
2491.2003917967149
 31
0.0
  0
LINE
  5
1D19A
  8
0
 62
     0
 10
1391.5301695105541
 20
2451.200391796714
 30
0.0
 11
1431.530169510555
 21
2491.2003917967149
 31
0.0
  0
LINE
  5
1D19B
  8
0
 62
     0
 10
1382.549913389485
 20
2451.200391796714
 30
0.0
 11
1422.5499133894859
 21
2491.2003917967149
 31
0.0
  0
LINE
  5
1D19C
  8
0
 62
     0
 10
1373.569657268416
 20
2451.200391796714
 30
0.0
 11
1413.5696572684169
 21
2491.2003917967149
 31
0.0
  0
LINE
  5
1D19D
  8
0
 62
     0
 10
1373.1132148796351
 20
2459.7242055290021
 30
0.0
 11
1404.5894011473481
 21
2491.2003917967149
 31
0.0
  0
LINE
  5
1D19E
  8
0
 62
     0
 10
1373.1132148796339
 20
2468.7044616500712
 30
0.0
 11
1395.6091450262779
 21
2491.2003917967149
 31
0.0
  0
LINE
  5
1D19F
  8
0
 62
     0
 10
1373.1132148796351
 20
2477.6847177711402
 30
0.0
 11
1386.62888890521
 21
2491.2003917967149
 31
0.0
  0
LINE
  5
1D1A0
  8
0
 62
     0
 10
1373.1132148796351
 20
2486.6649738922092
 30
0.0
 11
1377.6486327841401
 21
2491.2003917967149
 31
0.0
  0
ENDBLK
  5
1D1A2
  8
0
  0
BLOCK
  8
0
  2
*X36
 70
     1
 10
0.0
 20
0.0
 30
0.0
  3
*X36
  1

  0
LINE
  5
1D1A4
  8
0
 62
     0
 10
731.39738174554009
 20
2490.699478390793
 30
0.0
 11
730.89646833961808
 21
2491.2003917967149
 31
0.0
  0
LINE
  5
1D1A5
  8
0
 62
     0
 10
731.39738174554054
 20
2481.719222269724
 30
0.0
 11
721.91621221854905
 21
2491.2003917967149
 31
0.0
  0
LINE
  5
1D1A6
  8
0
 62
     0
 10
731.39738174554032
 20
2472.7389661486541
 30
0.0
 11
712.93595609747979
 21
2491.2003917967149
 31
0.0
  0
LINE
  5
1D1A7
  8
0
 62
     0
 10
731.39738174554054
 20
2463.758710027585
 30
0.0
 11
703.95569997641076
 21
2491.2003917967149
 31
0.0
  0
LINE
  5
1D1A8
  8
0
 62
     0
 10
731.39738174554066
 20
2454.778453906516
 30
0.0
 11
694.97544385534161
 21
2491.2003917967149
 31
0.0
  0
LINE
  5
1D1A9
  8
0
 62
     0
 10
725.99518773427349
 20
2451.200391796714
 30
0.0
 11
685.99518773427258
 21
2491.2003917967149
 31
0.0
  0
LINE
  5
1D1AA
  8
0
 62
     0
 10
717.01493161320423
 20
2451.200391796714
 30
0.0
 11
677.0149316132032
 21
2491.2003917967149
 31
0.0
  0
LINE
  5
1D1AB
  8
0
 62
     0
 10
708.03467549213508
 20
2451.200391796714
 30
0.0
 11
668.03467549213406
 21
2491.2003917967149
 31
0.0
  0
LINE
  5
1D1AC
  8
0
 62
     0
 10
699.05441937106605
 20
2451.200391796714
 30
0.0
 11
659.05441937106502
 21
2491.2003917967149
 31
0.0
  0
LINE
  5
1D1AD
  8
0
 62
     0
 10
690.07416324999667
 20
2451.200391796714
 30
0.0
 11
650.07416324999565
 21
2491.2003917967149
 31
0.0
  0
LINE
  5
1D1AE
  8
0
 62
     0
 10
681.09390712892764
 20
2451.200391796714
 30
0.0
 11
643.89738174553975
 21
2488.3969171801018
 31
0.0
  0
LINE
  5
1D1AF
  8
0
 62
     0
 10
672.11365100785849
 20
2451.200391796714
 30
0.0
 11
643.89738174553975
 21
2479.4166610590319
 31
0.0
  0
LINE
  5
1D1B0
  8
0
 62
     0
 10
663.13339488678946
 20
2451.200391796714
 30
0.0
 11
643.89738174553997
 21
2470.4364049379628
 31
0.0
  0
LINE
  5
1D1B1
  8
0
 62
     0
 10
654.1531387657202
 20
2451.200391796714
 30
0.0
 11
643.89738174553975
 21
2461.4561488168938
 31
0.0
  0
LINE
  5
1D1B2
  8
0
 62
     0
 10
645.17288264465105
 20
2451.200391796714
 30
0.0
 11
643.89738174554009
 21
2452.4758926958252
 31
0.0
  0
LINE
  5
1D1B3
  8
0
 62
     0
 10
725.1761292239438
 20
2451.200391796714
 30
0.0
 11
731.39738174554077
 21
2457.4216443183109
 31
0.0
  0
LINE
  5
1D1B4
  8
0
 62
     0
 10
716.19587310287477
 20
2451.200391796714
 30
0.0
 11
731.39738174554077
 21
2466.401900439379
 31
0.0
  0
LINE
  5
1D1B5
  8
0
 62
     0
 10
707.21561698180574
 20
2451.200391796714
 30
0.0
 11
731.39738174554066
 21
2475.3821565604489
 31
0.0
  0
LINE
  5
1D1B6
  8
0
 62
     0
 10
698.23536086073625
 20
2451.200391796714
 30
0.0
 11
731.39738174554054
 21
2484.362412681518
 31
0.0
  0
LINE
  5
1D1B7
  8
0
 62
     0
 10
689.25510473966733
 20
2451.200391796714
 30
0.0
 11
729.25510473966824
 21
2491.2003917967149
 31
0.0
  0
LINE
  5
1D1B8
  8
0
 62
     0
 10
680.27484861859818
 20
2451.200391796714
 30
0.0
 11
720.27484861859898
 21
2491.2003917967149
 31
0.0
  0
LINE
  5
1D1B9
  8
0
 62
     0
 10
671.29459249752915
 20
2451.200391796714
 30
0.0
 11
711.29459249752995
 21
2491.2003917967149
 31
0.0
  0
LINE
  5
1D1BA
  8
0
 62
     0
 10
662.31433637645966
 20
2451.200391796714
 30
0.0
 11
702.31433637646069
 21
2491.2003917967149
 31
0.0
  0
LINE
  5
1D1BB
  8
0
 62
     0
 10
653.33408025539075
 20
2451.200391796714
 30
0.0
 11
693.33408025539165
 21
2491.2003917967149
 31
0.0
  0
LINE
  5
1D1BC
  8
0
 62
     0
 10
644.35382413432148
 20
2451.200391796714
 30
0.0
 11
684.35382413432251
 21
2491.2003917967149
 31
0.0
  0
LINE
  5
1D1BD
  8
0
 62
     0
 10
643.89738174554009
 20
2459.7242055290021
 30
0.0
 11
675.37356801325348
 21
2491.2003917967149
 31
0.0
  0
LINE
  5
1D1BE
  8
0
 62
     0
 10
643.89738174553997
 20
2468.7044616500712
 30
0.0
 11
666.39331189218433
 21
2491.2003917967149
 31
0.0
  0
LINE
  5
1D1BF
  8
0
 62
     0
 10
643.89738174554032
 20
2477.6847177711402
 30
0.0
 11
657.41305577111495
 21
2491.2003917967149
 31
0.0
  0
LINE
  5
1D1C0
  8
0
 62
     0
 10
643.89738174554009
 20
2486.6649738922092
 30
0.0
 11
648.43279965004592
 21
2491.2003917967149
 31
0.0
  0
ENDBLK
  5
1D1C2
  8
0
  0
BLOCK
  8
0
  2
*U37
 70
     1
 10
0.0
 20
0.0
 30
0.0
  3
*U37
  1

  0
SOLID
  5
1D1CD
  8
SUNPOU
 10
780.21788627555225
 20
2224.8573838146222
 30
0.0
 11
761.70661510671562
 21
2216.5842978834289
 31
0.0
 12
776.53411401847166
 22
2230.413845494721
 32
0.0
 13
776.53411401847166
 23
2230.413845494721
 33
0.0
  0
POLYLINE
  5
1D1CE
  8
SUNPOU
 66
     1
 10
0.0
 20
0.0
 30
0.0
  0
VERTEX
  5
1D1CF
  8
SUNPOU
 10
778.37600014701195
 20
2227.6356146546709
 30
0.0
  0
VERTEX
  5
1D1D0
  8
SUNPOU
 10
871.49854215279356
 20
2289.373147728712
 30
0.0
  0
SEQEND
  5
1D1D1
  8
SUNPOU
  0
ENDBLK
  5
1D1D3
  8
0
  0
BLOCK
  8
0
  2
*U38
 70
     1
 10
0.0
 20
0.0
 30
0.0
  3
*U38
  1

  0
SOLID
  5
1D1E7
  8
SUNPOU
 10
780.21788627555225
 20
1809.7277519336801
 30
0.0
 11
761.70661510671562
 21
1801.4546660024871
 31
0.0
 12
776.53411401847166
 22
1815.284213613779
 32
0.0
 13
776.53411401847166
 23
1815.284213613779
 33
0.0
  0
POLYLINE
  5
1D1E8
  8
SUNPOU
 66
     1
 10
0.0
 20
0.0
 30
0.0
  0
VERTEX
  5
1D1E9
  8
SUNPOU
 10
778.37600014701195
 20
1812.5059827737291
 30
0.0
  0
VERTEX
  5
1D1EA
  8
SUNPOU
 10
871.49854215279356
 20
1874.2435158477699
 30
0.0
  0
SEQEND
  5
1D1EB
  8
SUNPOU
  0
ENDBLK
  5
1D1ED
  8
0
  0
BLOCK
  8
0
  2
*U39
 70
     1
 10
0.0
 20
0.0
 30
0.0
  3
*U39
  1

  0
SOLID
  5
1D1EF
  8
SUNPOU
 10
780.21788627555395
 20
1404.8573838146219
 30
0.0
 11
761.70661510671721
 21
1396.5842978834289
 31
0.0
 12
776.53411401847325
 22
1410.4138454947199
 32
0.0
 13
776.53411401847325
 23
1410.4138454947199
 33
0.0
  0
POLYLINE
  5
1D1F0
  8
SUNPOU
 66
     1
 10
0.0
 20
0.0
 30
0.0
  0
VERTEX
  5
1D1F1
  8
SUNPOU
 10
778.37600014701366
 20
1407.6356146546709
 30
0.0
  0
VERTEX
  5
1D1F2
  8
SUNPOU
 10
871.49854215279515
 20
1469.373147728712
 30
0.0
  0
SEQEND
  5
1D1F3
  8
SUNPOU
  0
ENDBLK
  5
1D1F5
  8
0
  0
BLOCK
  8
0
  2
*U40
 70
     1
 10
0.0
 20
0.0
 30
0.0
  3
*U40
  1

  0
SOLID
  5
1D200
  8
SUNPOU
 10
742.53778594909318
 20
2033.065826662325
 30
0.0
 11
724.02651478025655
 21
2024.792740731132
 31
0.0
 12
738.85401369201247
 22
2038.622288342423
 32
0.0
 13
738.85401369201247
 23
2038.622288342423
 33
0.0
  0
POLYLINE
  5
1D201
  8
SUNPOU
 66
     1
 10
0.0
 20
0.0
 30
0.0
  0
VERTEX
  5
1D202
  8
SUNPOU
 10
740.69589982055288
 20
2035.844057502374
 30
0.0
  0
VERTEX
  5
1D203
  8
SUNPOU
 10
833.81844182633449
 20
2097.5815905764148
 30
0.0
  0
SEQEND
  5
1D204
  8
SUNPOU
  0
ENDBLK
  5
1D206
  8
0
  0
ENDSEC
  0
SECTION
  2
ENTITIES
  0
TEXT
  5
43
  8
INFORMATION
 10
1.0
 20
2.0
 30
0.0
 40
0.8
  1
PLOTTER=SYSTEM
 41
0.8
  7
EXT08
  0
TEXT
  5
44
  8
INFORMATION
 10
1.0
 20
3.0
 30
0.0
 40
0.8
  1
PAPER=A3
 41
0.8
  7
EXT08
  0
TEXT
  5
178E9
  8
INFORMATION
 10
1.0
 20
1.0
 30
0.0
 40
0.8
  1
VERSION=3.0
  0
INSERT
  5
19380
  8
ZWAKU
  2
SYSTEMA3
 10
-0.7058929444392561
 20
37.540982692415128
 30
0.0
 41
10.0
 42
10.0
 43
10.0
  0
INSERT
  5
19381
  8
ZWAKU
  2
CALCOMP_TECHJET720A3
 10
-0.7058929444392561
 20
37.540982692415128
 30
0.0
 41
10.0
 42
10.0
 43
10.0
  0
LINE
  5
19382
  8
MOJI
 10
3663.0844272244772
 20
2465.4653333909719
 30
0.0
 11
2539.8840360922268
 21
2465.4653333909719
 31
0.0
  0
LINE
  5
19383
  8
MOJI
 10
3663.0844272244772
 20
2273.4653334389741
 30
0.0
 11
2539.8840360922268
 21
2273.4653334389741
 31
0.0
  0
LINE
  5
19384
  8
MOJI
 10
3663.0844272244772
 20
2129.4653334749751
 30
0.0
 11
2539.8840360922268
 21
2129.4653334749751
 31
0.0
  0
LINE
  5
19385
  8
MOJI
 10
3663.0844272244772
 20
2033.465333498975
 30
0.0
 11
2539.8840360922268
 21
2033.465333498975
 31
0.0
  0
LINE
  5
19386
  8
MOJI
 10
3663.0844272244772
 20
2081.4653334869749
 30
0.0
 11
2539.8840360922268
 21
2081.4653334869749
 31
0.0
  0
LINE
  5
19387
  8
MOJI
 10
3663.0844272244772
 20
2321.4653334269742
 30
0.0
 11
2539.8840360922268
 21
2321.4653334269728
 31
0.0
  0
LINE
  5
19388
  8
MOJI
 10
3663.0844272244772
 20
2369.4653334149721
 30
0.0
 11
2539.8840360922268
 21
2369.4653334149721
 31
0.0
  0
LINE
  5
19389
  8
MOJI
 10
3663.0844272244772
 20
2417.4653334029722
 30
0.0
 11
2539.8840360922268
 21
2417.4653334029731
 31
0.0
  0
LINE
  5
1938A
  8
MOJI
 10
3663.0844272244772
 20
1985.465333510974
 30
0.0
 11
2539.8840360922268
 21
1985.465333510974
 31
0.0
  0
TEXT
  5
1938B
  8
MOJI
 10
3060.073210921038
 20
2426.4653333969732
 30
0.0
 40
30.0
  1
材　　　質
 41
0.8
  7
EXT08
 72
     4
 11
3128.8732109210382
 21
2441.4653333969732
 31
0.0
  0
TEXT
  5
1938C
  8
MOJI
 10
2622.014451985955
 20
2426.4653333969732
 30
0.0
 40
30.0
  1
品　　名
 41
0.8
  7
EXT08
 72
     4
 11
2675.6144519859549
 21
2441.4653333969732
 31
0.0
  0
TEXT
  5
1938E
  8
MOJI
 10
2829.5431439008812
 20
2426.4653333969732
 30
0.0
 40
30.0
  1
数 量
 41
0.8
  7
EXT08
 72
     4
 11
2862.3431439008809
 21
2441.4653333969732
 31
0.0
  0
LINE
  5
1938F
  8
MOJI
 10
3322.5108894851501
 20
2465.465333390971
 30
0.0
 11
3322.510889485151
 21
1985.465333510974
 31
0.0
  0
LINE
  5
19390
  8
MOJI
 10
2910.3431438888788
 20
2465.465333390971
 30
0.0
 11
2910.3431438888779
 21
1985.465333510974
 31
0.0
  0
LINE
  5
19391
  8
MOJI
 10
2814.343143912879
 20
2465.465333390971
 30
0.0
 11
2814.3431439128781
 21
1985.465333510974
 31
0.0
  0
LINE
  5
19392
  8
MOJI
 10
2539.8840360922268
 20
2465.465333390971
 30
0.0
 11
2539.8840360922268
 21
1985.465333510974
 31
0.0
  0
TEXT
  5
19394
  8
MOJI
 10
2619.7858805573842
 20
2330.865333420973
 30
0.0
 40
30.0
  1
キャップ
 41
0.8
  7
EXT08
 72
     4
 11
2675.6144519859549
 21
2345.465333420972
 31
0.0
  0
TEXT
  5
1939C
  8
MOJI
 10
2556.4144519859551
 20
2186.4653334569762
 30
0.0
 40
30.0
  1
弾性サイン板（小）
 41
0.8
  7
EXT08
 72
     4
 11
2675.6144519859549
 21
2201.4653334569762
 31
0.0
  0
TEXT
  5
1939D
  8
MOJI
 10
2934.3431438828802
 20
2330.465333420972
 30
0.0
 40
30.0
  1
ポリエチレン樹脂
 41
0.8
  7
EXT08
 11
2934.3431438828802
 21
2345.465333420972
 31
0.0
 73
     2
  0
TEXT
  5
1939E
  8
MOJI
 10
2934.3431438828802
 20
2186.4653334569762
 30
0.0
 40
30.0
  1
CRゴム
 41
0.8
  7
EXT08
 11
2934.3431438828802
 21
2201.4653334569762
 31
0.0
 73
     2
  0
TEXT
  5
1939F
  8
MOJI
 10
2852.6288581865952
 20
2186.4653334569762
 30
0.0
 40
30.0
  1
1
 41
0.8
  7
EXT08
 72
     4
 11
2862.3431439008809
 21
2201.4653334569762
 31
0.0
  0
TEXT
  5
193A0
  8
MOJI
 10
2852.6288581865952
 20
2330.465333420972
 30
0.0
 40
30.0
  1
1
 41
0.8
  7
EXT08
 72
     4
 11
2862.3431439008809
 21
2345.465333420972
 31
0.0
  0
LINE
  5
193A1
  8
MOJI
 10
3663.0844272244772
 20
2465.465333390971
 30
0.0
 11
3663.0844272244772
 21
1985.465333510974
 31
0.0
  0
TEXT
  5
193A2
  8
MOJI
 10
3459.9976583548132
 20
2426.4653333969709
 30
0.0
 40
30.0
  1
備 考
 41
0.8
  7
EXT08
 72
     4
 11
3492.7976583548129
 21
2441.4653333969709
 31
0.0
  0
TEXT
  5
193A3
  8
MOJI
 10
3345.711944069099
 20
1994.4653334929751
 30
0.0
 40
30.0
  1
皿ドリルネジM4×35
 41
0.8
  7
EXT08
 72
     4
 11
3492.7976583548129
 21
2009.4653334929751
 31
0.0
  0
TEXT
  5
193A4
  8
MOJI
 10
3459.9976583548132
 20
2378.4653334089721
 30
0.0
 40
30.0
  1
茶 色
 41
0.8
  7
EXT08
 72
     4
 11
3492.7976583548129
 21
2393.4653334089721
 31
0.0
  0
TEXT
  5
193A5
  8
MOJI
 10
2606.8144519859552
 20
2378.4653334089721
 30
0.0
 40
30.0
  1
支　　　柱
 41
0.8
  7
EXT08
 72
     4
 11
2675.6144519859549
 21
2393.4653334089721
 31
0.0
  0
TEXT
  5
193A6
  8
MOJI
 10
2917.6675642437458
 20
2378.4653334089721
 30
0.0
 40
30.0
  1
ポリエチレン樹脂＋ガラス繊維
 41
0.8
  7
EXT08
 11
2917.6675642437458
 21
2393.4653334089721
 31
0.0
 73
     2
  0
TEXT
  5
193A7
  8
MOJI
 10
2852.6288581865952
 20
2378.4653334089721
 30
0.0
 40
30.0
  1
1
 41
0.8
  7
EXT08
 72
     4
 11
2862.3431439008809
 21
2393.4653334089721
 31
0.0
  0
TEXT
  5
193A8
  8
MOJI
 10
2606.8144519859552
 20
2282.4653334329741
 30
0.0
 40
30.0
  1
反　射　材
 41
0.8
  7
EXT08
 72
     4
 11
2675.6144519859549
 21
2297.4653334329741
 31
0.0
  0
TEXT
  5
193A9
  8
MOJI
 10
2934.3431438828802
 20
2282.4653334329741
 30
0.0
 40
30.0
  1
カプセルレンズ型反射シート
 41
0.8
  7
EXT08
 11
2934.3431438828802
 21
2297.4653334329741
 31
0.0
 73
     2
  0
TEXT
  5
193AA
  8
MOJI
 10
2852.6288581865952
 20
2282.4653334329741
 30
0.0
 40
30.0
  1
1
 41
0.8
  7
EXT08
 72
     4
 11
2862.3431439008809
 21
2297.4653334329741
 31
0.0
  0
TEXT
  5
193AB
  8
MOJI
 10
3458.3976583548128
 20
2282.4653334329741
 30
0.0
 40
30.0
  1
白 色
 41
0.8
  7
EXT08
 72
     4
 11
3492.7976583548129
 21
2297.4653334329741
 31
0.0
  0
TEXT
  5
193AC
  8
MOJI
 10
2606.8144519859552
 20
2090.4653334809768
 30
0.0
 40
30.0
  1
芯      材
 41
0.8
  7
EXT08
 72
     4
 11
2675.6144519859549
 21
2105.4653334809782
 31
0.0
  0
TEXT
  5
193AD
  8
MOJI
 10
2934.3431438828802
 20
2090.4653334809768
 30
0.0
 40
30.0
  1
A6063S-T5
 41
0.8
  7
EXT08
 11
2934.3431438828802
 21
2105.4653334809782
 31
0.0
 73
     2
  0
TEXT
  5
193AE
  8
MOJI
 10
2852.6288581865952
 20
2090.4653334809768
 30
0.0
 40
30.0
  1
1
 41
0.8
  7
EXT08
 72
     4
 11
2862.3431439008809
 21
2105.4653334809782
 31
0.0
  0
TEXT
  5
193AF
  8
MOJI
 10
2619.6144519859558
 20
2042.465333492976
 30
0.0
 40
30.0
  1
ネカセ棒
 41
0.8
  7
EXT08
 72
     4
 11
2675.6144519859558
 21
2057.4653334929758
 31
0.0
  0
TEXT
  5
193B0
  8
MOJI
 10
2852.6288581865952
 20
2042.465333492974
 30
0.0
 40
30.0
  1
1
 41
0.8
  7
EXT08
 72
     4
 11
2862.3431439008809
 21
2057.4653334929749
 31
0.0
  0
TEXT
  5
193B1
  8
MOJI
 10
2837.771715329452
 20
1994.4653335049759
 30
0.0
 40
30.0
  1
16
 41
0.8
  7
EXT08
 72
     4
 11
2862.3431439008809
 21
2009.465333504977
 31
0.0
  0
TEXT
  5
193B2
  8
MOJI
 10
3417.5976583548131
 20
2042.4653334929751
 30
0.0
 40
30.0
  1
φ9×150
 41
0.8
  7
EXT08
 72
     4
 11
3492.7976583548138
 21
2057.4653334929758
 31
0.0
  0
TEXT
  5
193B3
  8
MOJI
 10
3459.9976583548132
 20
2330.4653334209738
 30
0.0
 40
30.0
  1
茶 色
 41
0.8
  7
EXT08
 72
     4
 11
3492.7976583548129
 21
2345.4653334209752
 31
0.0
  0
TEXT
  5
193B4
  8
MOJI
 10
2932.8415782590441
 20
1995.1142718855081
 30
0.0
 40
30.0
  1
SUS410
 41
0.8
  7
EXT08
 11
2932.8415782590441
 21
2010.1142718855081
 31
0.0
 73
     2
  0
LINE
  5
193C8
  8
CENTER
 10
687.64738174554077
 20
2531.2003917967081
 30
0.0
 11
687.64738174554077
 21
141.200391796714
 31
0.0
  0
LINE
  5
193C9
  8
SJC2
 10
612.64738174554077
 20
505.70039179671443
 30
0.0
 11
612.64738174554077
 21
496.70039179671448
 31
0.0
  0
LINE
  5
193CA
  8
SJC2
 10
762.64738174554077
 20
505.70039179671397
 30
0.0
 11
762.64738174554077
 21
496.70039179671397
 31
0.0
  0
LINE
  5
193CB
  8
SJC
 10
650.14738174554066
 20
391.20039179671357
 30
0.0
 11
650.14738174554066
 21
251.200391796714
 31
0.0
  0
LINE
  5
193CC
  8
SJC
 10
725.14738174554077
 20
391.20039179671357
 30
0.0
 11
725.14738174554077
 21
251.20039179671409
 31
0.0
  0
LINE
  5
193D1
  8
SJC
 10
731.39738174554077
 20
1121.200391796714
 30
0.0
 11
731.39738174554077
 21
391.20039179671357
 31
0.0
1001
ACAD
1000
ASC_BOUNDS
1002
{
1070
    19
1005
0
1002
}
  0
LINE
  5
193D2
  8
SJC
 10
643.89738174554066
 20
1121.200391796714
 30
0.0
 11
643.89738174554077
 21
391.20039179671357
 31
0.0
1001
ACAD
1000
ASC_BOUNDS
1002
{
1070
    19
1005
0
1002
}
  0
LINE
  5
193D3
  8
SJC
 10
731.39738174554077
 20
651.20039179671403
 30
0.0
 11
976.1518485949581
 21
651.20039179671403
 31
0.0
1001
ACAD
1000
ASC_BOUNDS
1002
{
1070
    19
1005
0
1002
}
  0
LINE
  5
193D5
  8
SJC
 10
487.64738174554083
 20
251.200391796714
 30
0.0
 11
887.64738174554066
 21
251.200391796714
 31
0.0
1001
ACAD
1000
ASC_BOUNDS
1002
{
1070
    19
1005
0
1005
0
1005
0
1002
}
  0
LINE
  5
193D6
  8
SJC
 10
460.11334604726471
 20
651.20039179671403
 30
0.0
 11
643.89738174554077
 21
651.20039179671403
 31
0.0
1001
ACAD
1000
ASC_BOUNDS
1002
{
1070
    19
1005
0
1002
}
  0
LINE
  5
193D7
  8
SJC
 10
643.89738174554077
 20
2491.2003917967149
 30
0.0
 11
731.39738174554032
 21
2491.2003917967149
 31
0.0
  0
LINE
  5
193D8
  8
SJC
 10
887.64738174554066
 20
251.200391796714
 30
0.0
 11
887.64738174554066
 21
151.200391796714
 31
0.0
  0
LINE
  5
193D9
  8
SJC
 10
487.64738174554083
 20
251.200391796714
 30
0.0
 11
487.64738174554083
 21
151.200391796714
 31
0.0
  0
LINE
  5
193DA
  8
SJC
 10
487.64738174554083
 20
151.200391796714
 30
0.0
 11
887.64738174554066
 21
151.200391796714
 31
0.0
  0
ARC
  5
193E1
  8
SJC
 10
687.64738174554077
 20
2453.348829296694
 30
0.0
 40
57.851562500013678
 50
40.865657358811269
 51
139.13434264118931
  0
INSERT
  5
193E2
  8
SJC
  2
GL
 10
892.54864438850927
 20
650.92075317896615
 30
0.0
 41
10.0
 42
10.0
 43
10.0
  0
LINE
  5
193E3
  8
SJC
 10
837.64738174554066
 20
651.20039179671403
 30
0.0
 11
837.64738174554066
 21
251.200391796714
 31
0.0
1001
ACAD
1000
ASC_BOUNDS
1002
{
1070
    19
1005
0
1002
}
  0
LINE
  5
193E4
  8
SJC
 10
537.64738174554077
 20
651.20039179671403
 30
0.0
 11
537.64738174554077
 21
251.200391796714
 31
0.0
1001
ACAD
1000
ASC_BOUNDS
1002
{
1070
    19
1005
0
1002
}
  0
TEXT
  5
193E5
  8
MOJI2
 10
974.81672825024532
 20
102.1435321472127
 30
0.0
 40
40.0
  1
設置図 S=1/10
 41
0.8
  7
EXT08
 72
     1
 11
1137.2548234883409
 21
102.1435321472127
 31
0.0
 73
     1
  0
LINE
  5
193E6
  8
MOJI2
 10
959.57662415408959
 20
87.143532147212696
 30
0.0
 11
1314.9290051064711
 21
87.143532147212696
 31
0.0
  0
LINE
  5
193E7
  8
HATCH
 10
537.64738174554077
 20
646.26056922071075
 30
0.0
 11
542.58720432154314
 21
651.20039179671403
 31
0.0
  0
LINE
  5
193E8
  8
HATCH
 10
537.64738174554077
 20
540.1945520427289
 30
0.0
 11
643.09738174554059
 21
645.64455204272872
 31
0.0
  0
LINE
  5
193E9
  8
HATCH
 10
537.64738174554077
 20
434.1285348647466
 30
0.0
 11
643.89738174554077
 21
540.37853486474705
 31
0.0
  0
LINE
  5
193EA
  8
HATCH
 10
732.19738174554095
 20
628.67853486474723
 30
0.0
 11
754.71923867750775
 21
651.20039179671403
 31
0.0
  0
LINE
  5
193EB
  8
HATCH
 10
537.64738174554077
 20
328.06251768676481
 30
0.0
 11
643.89738174554077
 21
434.31251768676509
 31
0.0
  0
LINE
  5
193EC
  8
HATCH
 10
731.39738174554077
 20
521.81251768676532
 30
0.0
 11
837.64738174554066
 21
628.06251768676418
 31
0.0
  0
LINE
  5
193ED
  8
HATCH
 10
566.85127303347235
 20
251.200391796714
 30
0.0
 11
650.14738174554066
 21
334.49650050878279
 31
0.0
  0
LINE
  5
193EE
  8
HATCH
 10
731.39738174554077
 20
415.7465005087829
 30
0.0
 11
837.64738174554066
 21
521.99650050878245
 31
0.0
  0
LINE
  5
193EF
  8
HATCH
 10
725.14738174554077
 20
303.43048333080071
 30
0.0
 11
837.64738174554066
 21
415.9304833308006
 31
0.0
  0
LINE
  5
193F0
  8
HATCH
 10
778.98330738943605
 20
251.200391796714
 30
0.0
 11
837.64738174554066
 21
309.8644661528183
 31
0.0
  0
LINE
  5
193F1
  8
HATCH
 10
537.64738174554077
 20
628.58289972071088
 30
0.0
 11
560.26487382154301
 21
651.20039179671403
 31
0.0
  0
LINE
  5
193F2
  8
HATCH
 10
537.64738174554077
 20
522.51688254272904
 30
0.0
 11
643.09738174554059
 21
627.96688254272885
 31
0.0
  0
LINE
  5
193F3
  8
HATCH
 10
537.64738174554077
 20
416.45086536474707
 30
0.0
 11
617.89690817750852
 21
496.70039179671448
 31
0.0
  0
LINE
  5
193F4
  8
HATCH
 10
732.19738174554095
 20
611.00086536474691
 30
0.0
 11
772.3969081775075
 21
651.20039179671403
 31
0.0
  0
LINE
  5
193F5
  8
HATCH
 10
537.64738174554077
 20
310.38484818676488
 30
0.0
 11
643.89738174554077
 21
416.63484818676488
 31
0.0
  0
LINE
  5
193F6
  8
HATCH
 10
732.96292535548992
 20
505.70039179671409
 30
0.0
 11
837.64738174554066
 21
610.38484818676443
 31
0.0
  0
LINE
  5
193F7
  8
HATCH
 10
584.52894253347222
 20
251.200391796714
 30
0.0
 11
650.14738174554066
 21
316.81883100878292
 31
0.0
  0
LINE
  5
193F8
  8
HATCH
 10
731.39738174554077
 20
398.06883100878269
 30
0.0
 11
837.64738174554066
 21
504.31883100878258
 31
0.0
  0
LINE
  5
193F9
  8
HATCH
 10
725.14738174554077
 20
285.75281383080079
 30
0.0
 11
837.64738174554066
 21
398.25281383080028
 31
0.0
  0
LINE
  5
193FA
  8
HATCH
 10
796.6609768894358
 20
251.200391796714
 30
0.0
 11
837.64738174554032
 21
292.18679665281797
 31
0.0
  0
LINE
  5
193FB
  8
HATCH
 10
537.64738174554077
 20
610.90523012071105
 30
0.0
 11
577.94254342154363
 21
651.20039179671403
 31
0.0
  0
LINE
  5
193FC
  8
HATCH
 10
537.64738174554077
 20
504.83921294272932
 30
0.0
 11
643.09738174554059
 21
610.28921294272868
 31
0.0
  0
LINE
  5
193FD
  8
HATCH
 10
537.64738174554077
 20
398.77319576474662
 30
0.0
 11
635.57457777750813
 21
496.70039179671431
 31
0.0
  0
LINE
  5
193FE
  8
HATCH
 10
732.19738174554095
 20
593.32319576474674
 30
0.0
 11
790.07457777750767
 21
651.20039179671403
 31
0.0
  0
LINE
  5
193FF
  8
HATCH
 10
537.64738174554077
 20
292.70717858676471
 30
0.0
 11
643.89738174554077
 21
398.95717858676511
 31
0.0
  0
LINE
  5
19400
  8
HATCH
 10
731.39738174554077
 20
486.45717858676488
 30
0.0
 11
741.64059495549952
 21
496.70039179671397
 31
0.0
  0
LINE
  5
19401
  8
HATCH
 10
602.20661213347194
 20
251.200391796714
 30
0.0
 11
650.14738174554077
 21
299.1411614087819
 31
0.0
  0
LINE
  5
19402
  8
HATCH
 10
725.14738174554077
 20
374.14116140878292
 30
0.0
 11
837.64738174554066
 21
486.64116140878241
 31
0.0
  0
LINE
  5
19403
  8
HATCH
 10
725.14738174554077
 20
268.07514423080062
 30
0.0
 11
837.64738174554066
 21
380.57514423080011
 31
0.0
  0
LINE
  5
19404
  8
HATCH
 10
814.33864648943666
 20
251.200391796714
 30
0.0
 11
837.64738174554032
 21
274.5091270528182
 31
0.0
  0
LINE
  5
19405
  8
HATCH
 10
537.64738174554077
 20
593.22756062071119
 30
0.0
 11
595.6202129215435
 21
651.20039179671403
 31
0.0
  0
LINE
  5
19406
  8
HATCH
 10
537.64738174554077
 20
487.16154344272888
 30
0.0
 11
643.09738174554059
 21
592.61154344272882
 31
0.0
  0
LINE
  5
19407
  8
HATCH
 10
537.64738174554077
 20
381.0955262647467
 30
0.0
 11
643.25224727750799
 21
486.70039179671431
 31
0.0
  0
LINE
  5
19408
  8
HATCH
 10
732.19738174554095
 20
575.64552626474676
 30
0.0
 11
807.7522472775081
 21
651.20039179671403
 31
0.0
  0
LINE
  5
19409
  8
HATCH
 10
537.64738174554077
 20
275.02950908676479
 30
0.0
 11
650.14738174554066
 21
387.5295090867649
 31
0.0
  0
LINE
  5
1940A
  8
HATCH
 10
731.39738174554077
 20
468.7795090867649
 30
0.0
 11
759.31826445548973
 21
496.70039179671397
 31
0.0
  0
LINE
  5
1940B
  8
HATCH
 10
619.8842816334718
 20
251.200391796714
 30
0.0
 11
650.14738174554077
 21
281.46349190878288
 31
0.0
  0
LINE
  5
1940C
  8
HATCH
 10
725.14738174554077
 20
356.46349190878311
 30
0.0
 11
837.64738174554066
 21
468.96349190878198
 31
0.0
  0
LINE
  5
1940D
  8
HATCH
 10
725.95029881145365
 20
251.200391796714
 30
0.0
 11
837.64738174554032
 21
362.89747473080018
 31
0.0
  0
LINE
  5
1940E
  8
HATCH
 10
832.01631598943629
 20
251.200391796714
 30
0.0
 11
837.64738174553975
 21
256.83145755281788
 31
0.0
  0
INSERT
  5
19411
  8
0
  2
*U25
 10
0.0
 20
0.0
 30
0.0
1001
ACAD
1000
DSTYLE
1002
{
1070
   140
1040
30.0
1070
   144
1040
0.5
1070
   147
1040
15.0
1070
    42
1040
10.0
1070
    44
1040
10.0
1070
    43
1040
60.0
1070
    41
1040
20.0
1002
}
  0
LINE
  5
19419
  8
SJC
 10
619.64738174553975
 20
2446.2003917967131
 30
0.0
 11
755.6473817455435
 21
2446.200391796714
 31
0.0
  0
CIRCLE
  5
1941A
  8
SJC
 10
687.64738174554077
 20
2623.9480230174108
 30
0.0
 40
43.75
  0
LINE
  5
1941B
  8
SJC
 10
643.89738174553975
 20
2491.2003917967149
 30
0.0
 11
643.89738174553975
 21
2451.200391796714
 31
0.0
  0
LINE
  5
1941C
  8
SJC
 10
731.39738174554032
 20
2491.2003917967149
 30
0.0
 11
731.39738174554032
 21
2451.200391796714
 31
0.0
  0
LINE
  5
1941E
  8
HATCH
 10
643.89738174554077
 20
2491.2003917967149
 30
0.0
 11
731.39738174553975
 21
2491.2003917967149
 31
0.0
  0
LINE
  5
1941F
  8
HATCH
 10
731.39738174553975
 20
2491.2003917967149
 30
0.0
 11
731.39738174554032
 21
2451.200391796714
 31
0.0
  0
LINE
  5
19420
  8
HATCH
 10
731.39738174554032
 20
2451.200391796714
 30
0.0
 11
643.89738174553975
 21
2451.200391796714
 31
0.0
  0
LINE
  5
19421
  8
HATCH
 10
643.89738174553975
 20
2451.200391796714
 30
0.0
 11
643.89738174553895
 21
2491.200391796714
 31
0.0
  0
ARC
  5
19427
  8
SJC
 10
619.64738174553975
 20
2439.200391796714
 30
0.0
 40
12.0
 50
90.0
 51
180.0
  0
ARC
  5
19428
  8
SJC
 10
619.64738174553975
 20
2439.200391796714
 30
0.0
 40
7.0
 50
90.0
 51
180.0
  0
ARC
  5
1942C
  8
SJC
 10
755.6473817455435
 20
2439.200391796714
 30
0.0
 40
12.0
 50
0.0
 51
90.0
  0
ARC
  5
1942D
  8
SJC
 10
755.6473817455435
 20
2439.200391796714
 30
0.0
 40
7.0
 50
0.0
 51
90.0
  0
LINE
  5
19430
  8
SJC
 10
755.6473817455435
 20
2451.200391796714
 30
0.0
 11
619.64738174553975
 21
2451.200391796714
 31
0.0
  0
DIMENSION
  5
19433
  8
SUNPOU
  2
*D4
 10
387.68044119141251
 20
2451.200391796714
 30
0.0
 11
360.680441191412
 21
1551.200391796714
 31
0.0
 70
     0
 13
460.11334604726437
 23
651.20039179671403
 33
0.0
 14
619.64738174553963
 24
2451.200391796714
 34
0.0
 50
90.0
1001
ACAD
1000
DSTYLE
1002
{
1070
   287
1070
     5
1070
    40
1040
10.0
1070
    41
1040
2.0
1070
    42
1040
1.0
1070
    43
1040
6.0
1070
    44
1040
1.0
1070
    73
1070
     0
1070
    74
1070
     0
1070
    77
1070
     1
1070
    78
1070
     8
1070
   140
1040
3.0
1070
   147
1040
1.1999999999999991
1070
   172
1070
     1
1070
   179
1070
     2
1070
   271
1070
     2
1070
   279
1070
     2
1070
   340
1005
55
1002
}
  0
LINE
  5
19435
  8
CENTER
 10
687.64738174554077
 20
2559.9032180351792
 30
0.0
 11
687.64738174554077
 21
2679.6980230174099
 31
0.0
  0
LINE
  5
19436
  8
SJC
 10
686.64738174554066
 20
2571.4480230166678
 30
0.0
 11
686.64738174554066
 21
2580.2094530819418
 31
0.0
  0
LINE
  5
19437
  8
SJC
 10
688.64738174554066
 20
2571.4480230166678
 30
0.0
 11
688.64738174554066
 21
2580.2094530819418
 31
0.0
  0
LINE
  5
19438
  8
CENTER
 10
743.39738174553804
 20
2623.9480230174108
 30
0.0
 11
631.89738174554066
 21
2623.9480230174108
 31
0.0
  0
LINE
  5
19439
  8
SJC
 10
607.64738174554077
 20
2573.4480230166678
 30
0.0
 11
607.64738174554077
 21
2575.4480230166678
 31
0.0
  0
ARC
  5
1943A
  8
SJC
 10
609.64738174553975
 20
2573.4480230166678
 30
0.0
 40
2.0
 50
180.0
 51
270.0
  0
ARC
  5
1943B
  8
SJC
 10
609.64738174554066
 20
2575.4480230166669
 30
0.0
 40
2.0
 50
90.0
 51
180.0
  0
LINE
  5
1943C
  8
SJC
 10
609.89738174554168
 20
2577.4480230166678
 30
0.0
 11
609.64738174554157
 21
2577.4480230166678
 31
0.0
  0
ARC
  5
1943D
  8
SJC
 10
765.64738174553975
 20
2575.4480230166678
 30
0.0
 40
2.0
 50
0.0
 51
90.0
  0
LINE
  5
1943E
  8
SJC
 10
765.64738174554168
 20
2571.44802301667
 30
0.0
 11
609.64738174554066
 21
2571.4480230166678
 31
0.0
  0
ARC
  5
1943F
  8
SJC
 10
765.64738174554066
 20
2573.4480230166691
 30
0.0
 40
2.0
 50
270.0
 51
0.0
  0
LINE
  5
19441
  8
SJC
 10
767.64738174554157
 20
2573.4480230166691
 30
0.0
 11
767.64738174554066
 21
2575.4480230166678
 31
0.0
  0
LINE
  5
19442
  8
SJC
 10
636.89738174553975
 20
2631.9480230174058
 30
0.0
 11
636.89738174554259
 21
2580.4480230166678
 31
0.0
  0
LINE
  5
19443
  8
SJC
 10
738.39738174553804
 20
2631.9480230174072
 30
0.0
 11
738.39738174553895
 21
2580.4480230166678
 31
0.0
  0
ARC
  5
19444
  8
SJC
 10
741.39738174553895
 20
2580.4480230166678
 30
0.0
 40
3.0
 50
180.0
 51
270.0
  0
LINE
  5
19445
  8
SJC
 10
741.39738174553895
 20
2577.4480230166678
 30
0.0
 11
765.64738174554066
 21
2577.4480230166678
 31
0.0
  0
LINE
  5
19446
  8
SJC
 10
643.89738174553975
 20
2633.9480230174072
 30
0.0
 11
643.89738174553975
 21
2623.9480230174108
 31
0.0
  0
LINE
  5
19447
  8
SJC
 10
731.39738174553895
 20
2633.9480230174072
 30
0.0
 11
731.39738174553895
 21
2623.9480230174108
 31
0.0
  0
LINE
  5
19450
  8
SJC
 10
736.39738174553804
 20
2633.9480230174072
 30
0.0
 11
731.39738174553895
 21
2633.9480230174072
 31
0.0
  0
ARC
  5
19451
  8
SJC
 10
736.39738174553895
 20
2631.9480230174072
 30
0.0
 40
2.0
 50
0.0
 51
90.0
  0
LINE
  5
19452
  8
SJC
 10
643.89738174553975
 20
2633.9480230174072
 30
0.0
 11
638.89738174553975
 21
2633.9480230174058
 31
0.0
  0
ARC
  5
19453
  8
SJC
 10
638.89738174554077
 20
2631.9480230174058
 30
0.0
 40
2.0
 50
90.0
 51
180.0
  0
ARC
  5
19454
  8
SJC
 10
633.8973817455435
 20
2580.4480230166678
 30
0.0
 40
3.0
 50
270.0
 51
0.0
  0
LINE
  5
19455
  8
SJC
 10
633.8973817455435
 20
2577.4480230166678
 30
0.0
 11
609.89738174554168
 21
2577.4480230166678
 31
0.0
  0
ARC
  5
1945A
  8
SJC
 10
687.64738174554077
 20
2623.9480230174108
 30
0.0
 40
43.750000000000227
 50
180.0
 51
0.0
  0
DIMENSION
  5
19465
  8
SUNPOU
  2
*D5
 10
767.64738174554316
 20
2386.206345200017
 30
0.0
 11
687.64738174554145
 21
2413.206345200017
 31
0.0
 70
     0
 13
607.64738174553963
 23
2280.8679777078628
 33
0.0
 14
767.64738174554316
 24
2280.8679777078628
 34
0.0
1001
ACAD
1000
DSTYLE
1002
{
1070
   287
1070
     5
1070
    40
1040
10.0
1070
    41
1040
2.0
1070
    42
1040
1.0
1070
    43
1040
6.0
1070
    44
1040
1.0
1070
    73
1070
     0
1070
    74
1070
     0
1070
    77
1070
     1
1070
    78
1070
     8
1070
   140
1040
3.0
1070
   147
1040
1.1999999999999991
1070
   172
1070
     1
1070
   179
1070
     2
1070
   271
1070
     2
1070
   279
1070
     2
1070
   340
1005
55
1002
}
  0
DIMENSION
  5
1946B
  8
SUNPOU
  2
*D6
 10
233.93867437074709
 20
251.20039179671409
 30
0.0
 11
206.93867437074701
 21
451.20039179671409
 31
0.0
 70
     0
 13
460.11334604726437
 23
651.20039179671403
 33
0.0
 14
487.64738174554049
 24
251.200391796714
 34
0.0
 50
90.0
1001
ACAD
1000
DSTYLE
1002
{
1070
   287
1070
     5
1070
    40
1040
10.0
1070
    41
1040
2.0
1070
    42
1040
1.0
1070
    43
1040
6.0
1070
    44
1040
1.0
1070
    73
1070
     0
1070
    74
1070
     0
1070
    77
1070
     1
1070
    78
1070
     8
1070
   140
1040
3.0
1070
   147
1040
1.1999999999999991
1070
   172
1070
     1
1070
   179
1070
     2
1070
   271
1070
     2
1070
   279
1070
     2
1070
   340
1005
55
1002
}
  0
LINE
  5
1946D
  8
CENTER
 10
602.64738174554066
 20
501.20039179671397
 30
0.0
 11
772.64738174554066
 21
501.20039179671397
 31
0.0
  0
LINE
  5
1946E
  8
SJC2
 10
612.64738174554077
 20
496.70039179671448
 30
0.0
 11
762.64738174554077
 21
496.70039179671397
 31
0.0
  0
LINE
  5
1946F
  8
SJC2
 10
612.64738174554077
 20
505.70039179671443
 30
0.0
 11
762.64738174554077
 21
505.70039179671397
 31
0.0
  0
LINE
  5
19470
  8
SJC
 10
643.89738174554191
 20
391.20039179671357
 30
0.0
 11
731.39738174554191
 21
391.20039179671357
 31
0.0
  0
DIMENSION
  5
19477
  8
SUNPOU
  2
*D7
 10
533.71736719745945
 20
2451.200391796714
 30
0.0
 11
506.73968834670632
 21
2537.093319465268
 31
0.0
 70
   128
 13
643.89738174553872
 23
2491.2003917967131
 33
0.0
 14
643.89738174553997
 24
2451.200391796714
 34
0.0
 50
90.0
1001
ACAD
1000
DSTYLE
1002
{
1070
   287
1070
     5
1070
    40
1040
10.0
1070
    41
1040
2.0
1070
    42
1040
1.0
1070
    43
1040
6.0
1070
    44
1040
1.0
1070
    73
1070
     0
1070
    74
1070
     0
1070
    77
1070
     1
1070
    78
1070
     8
1070
   140
1040
3.0
1070
   147
1040
1.1999999999999991
1070
   172
1070
     1
1070
   179
1070
     2
1070
   271
1070
     2
1070
   279
1070
     2
1070
   340
1005
55
1002
}
  0
DIMENSION
  5
19478
  8
SUNPOU
  2
*D8
 10
837.64738174554054
 20
104.0372239327771
 30
0.0
 11
687.64738174554054
 21
131.0372239327771
 31
0.0
 70
     0
  1
□<>
 13
537.64738174554054
 23
251.200391796714
 33
0.0
 14
837.64738174554054
 24
251.200391796714
 34
0.0
1001
ACAD
1000
DSTYLE
1002
{
1070
   287
1070
     5
1070
    40
1040
10.0
1070
    41
1040
2.0
1070
    42
1040
1.0
1070
    43
1040
6.0
1070
    44
1040
1.0
1070
    73
1070
     0
1070
    74
1070
     0
1070
    77
1070
     1
1070
    78
1070
     8
1070
   140
1040
3.0
1070
   147
1040
1.1999999999999991
1070
   172
1070
     1
1070
   179
1070
     2
1070
   271
1070
     2
1070
   279
1070
     2
1070
   340
1005
55
1002
}
  0
LINE
  5
19479
  8
CENTER
 10
1416.8632148796351
 20
2531.2003917967081
 30
0.0
 11
1416.8632148796351
 21
141.200391796714
 31
0.0
  0
LINE
  5
1947A
  8
SJC
 10
1379.3632148796351
 20
391.20039179671357
 30
0.0
 11
1379.3632148796351
 21
251.200391796714
 31
0.0
  0
LINE
  5
1947B
  8
SJC
 10
1454.3632148796351
 20
391.20039179671357
 30
0.0
 11
1454.3632148796351
 21
251.20039179671409
 31
0.0
  0
LINE
  5
1947E
  8
SJC
 10
1460.6132148796351
 20
2491.2003917967149
 30
0.0
 11
1460.6132148796351
 21
391.20039179671352
 31
0.0
1001
ACAD
1000
ASC_BOUNDS
1002
{
1070
    19
1005
0
1002
}
  0
LINE
  5
1947F
  8
SJC
 10
1373.1132148796339
 20
1121.2003917966181
 30
0.0
 11
1373.1132148796351
 21
391.20039179671357
 31
0.0
1001
ACAD
1000
ASC_BOUNDS
1002
{
1070
    19
1005
0
1002
}
  0
LINE
  5
19480
  8
SJC
 10
1460.6132148796351
 20
651.20039179671403
 30
0.0
 11
1705.367681729052
 21
651.20039179671403
 31
0.0
1001
ACAD
1000
ASC_BOUNDS
1002
{
1070
    19
1005
0
1002
}
  0
LINE
  5
19482
  8
SJC
 10
1216.8632148796351
 20
251.200391796714
 30
0.0
 11
1616.8632148796351
 21
251.200391796714
 31
0.0
1001
ACAD
1000
ASC_BOUNDS
1002
{
1070
    19
1005
0
1005
0
1005
0
1002
}
  0
LINE
  5
19483
  8
SJC
 10
1189.329179181359
 20
651.20039179671403
 30
0.0
 11
1373.1132148796351
 21
651.20039179671403
 31
0.0
1001
ACAD
1000
ASC_BOUNDS
1002
{
1070
    19
1005
0
1002
}
  0
LINE
  5
19484
  8
SJC
 10
1373.1132148796351
 20
2491.2003917967149
 30
0.0
 11
1460.6132148796351
 21
2491.2003917967149
 31
0.0
  0
LINE
  5
19485
  8
SJC
 10
1616.8632148796351
 20
251.200391796714
 30
0.0
 11
1616.8632148796351
 21
151.200391796714
 31
0.0
  0
LINE
  5
19486
  8
SJC
 10
1216.8632148796351
 20
251.200391796714
 30
0.0
 11
1216.8632148796351
 21
151.200391796714
 31
0.0
  0
LINE
  5
19487
  8
SJC
 10
1216.8632148796351
 20
151.200391796714
 30
0.0
 11
1616.8632148796351
 21
151.200391796714
 31
0.0
  0
ARC
  5
1948E
  8
SJC
 10
1416.8632148796351
 20
2453.348829296694
 30
0.0
 40
57.851562500013678
 50
40.865657358811269
 51
139.13434264118931
  0
INSERT
  5
1948F
  8
SJC
  2
GL
 10
1621.7644775226031
 20
650.92075317896615
 30
0.0
 41
10.0
 42
10.0
 43
10.0
  0
LINE
  5
19490
  8
SJC
 10
1566.8632148796351
 20
651.20039179671403
 30
0.0
 11
1566.8632148796351
 21
251.200391796714
 31
0.0
1001
ACAD
1000
ASC_BOUNDS
1002
{
1070
    19
1005
0
1002
}
  0
LINE
  5
19491
  8
SJC
 10
1266.8632148796351
 20
651.20039179671403
 30
0.0
 11
1266.8632148796351
 21
251.200391796714
 31
0.0
1001
ACAD
1000
ASC_BOUNDS
1002
{
1070
    19
1005
0
1002
}
  0
LINE
  5
19492
  8
HATCH
 10
1266.8632148796351
 20
646.26056922071075
 30
0.0
 11
1271.8030374556381
 21
651.20039179671403
 31
0.0
  0
LINE
  5
19493
  8
HATCH
 10
1266.8632148796351
 20
540.1945520427289
 30
0.0
 11
1372.3132148796351
 21
645.64455204272872
 31
0.0
  0
LINE
  5
19494
  8
HATCH
 10
1266.8632148796351
 20
434.1285348647466
 30
0.0
 11
1373.1132148796351
 21
540.3785348647466
 31
0.0
  0
LINE
  5
19495
  8
HATCH
 10
1461.413214879635
 20
628.67853486474723
 30
0.0
 11
1483.935071811602
 21
651.20039179671403
 31
0.0
  0
LINE
  5
19496
  8
HATCH
 10
1266.8632148796351
 20
328.06251768676481
 30
0.0
 11
1373.1132148796351
 21
434.31251768676469
 31
0.0
  0
LINE
  5
19497
  8
HATCH
 10
1460.6132148796351
 20
521.81251768676509
 30
0.0
 11
1566.8632148796351
 21
628.06251768676418
 31
0.0
  0
LINE
  5
19498
  8
HATCH
 10
1296.0671061675671
 20
251.200391796714
 30
0.0
 11
1379.3632148796351
 21
334.49650050878222
 31
0.0
  0
LINE
  5
19499
  8
HATCH
 10
1460.6132148796351
 20
415.74650050878239
 30
0.0
 11
1566.8632148796351
 21
521.99650050878245
 31
0.0
  0
LINE
  5
1949A
  8
HATCH
 10
1454.3632148796351
 20
303.43048333080088
 30
0.0
 11
1566.8632148796351
 21
415.9304833308006
 31
0.0
  0
LINE
  5
1949B
  8
HATCH
 10
1508.199140523531
 20
251.200391796714
 30
0.0
 11
1566.8632148796351
 21
309.8644661528183
 31
0.0
  0
LINE
  5
1949C
  8
HATCH
 10
1266.8632148796351
 20
628.58289972071088
 30
0.0
 11
1289.480706955638
 21
651.20039179671403
 31
0.0
  0
LINE
  5
1949D
  8
HATCH
 10
1266.8632148796351
 20
522.51688254272904
 30
0.0
 11
1372.3132148796351
 21
627.96688254272885
 31
0.0
  0
LINE
  5
1949E
  8
HATCH
 10
1266.8632148796351
 20
416.45086536474707
 30
0.0
 11
1373.1132148796351
 21
522.70086536474628
 31
0.0
  0
LINE
  5
1949F
  8
HATCH
 10
1461.413214879635
 20
611.00086536474691
 30
0.0
 11
1501.6127413116019
 21
651.20039179671403
 31
0.0
  0
LINE
  5
194A0
  8
HATCH
 10
1266.8632148796351
 20
310.38484818676488
 30
0.0
 11
1373.1132148796351
 21
416.63484818676437
 31
0.0
  0
LINE
  5
194A1
  8
HATCH
 10
1460.6132148796351
 20
504.13484818676488
 30
0.0
 11
1566.8632148796351
 21
610.38484818676443
 31
0.0
  0
LINE
  5
194A2
  8
HATCH
 10
1313.744775667566
 20
251.200391796714
 30
0.0
 11
1379.3632148796351
 21
316.81883100878241
 31
0.0
  0
LINE
  5
194A3
  8
HATCH
 10
1460.6132148796351
 20
398.06883100878281
 30
0.0
 11
1566.8632148796351
 21
504.31883100878258
 31
0.0
  0
LINE
  5
194A4
  8
HATCH
 10
1454.3632148796351
 20
285.75281383080141
 30
0.0
 11
1566.8632148796351
 21
398.25281383080028
 31
0.0
  0
LINE
  5
194A5
  8
HATCH
 10
1525.87681002353
 20
251.200391796714
 30
0.0
 11
1566.8632148796351
 21
292.18679665281797
 31
0.0
  0
LINE
  5
194A6
  8
HATCH
 10
1266.8632148796351
 20
610.90523012071105
 30
0.0
 11
1307.1583765556379
 21
651.20039179671403
 31
0.0
  0
LINE
  5
194A7
  8
HATCH
 10
1266.8632148796351
 20
504.83921294272932
 30
0.0
 11
1372.3132148796351
 21
610.28921294272868
 31
0.0
  0
LINE
  5
194A8
  8
HATCH
 10
1266.8632148796351
 20
398.77319576474662
 30
0.0
 11
1373.1132148796351
 21
505.02319576474667
 31
0.0
  0
LINE
  5
194A9
  8
HATCH
 10
1461.413214879635
 20
593.32319576474674
 30
0.0
 11
1519.2904109116021
 21
651.20039179671403
 31
0.0
  0
LINE
  5
194AA
  8
HATCH
 10
1266.8632148796351
 20
292.70717858676471
 30
0.0
 11
1373.1132148796351
 21
398.95717858676488
 31
0.0
  0
LINE
  5
194AB
  8
HATCH
 10
1460.6132148796351
 20
486.457178586765
 30
0.0
 11
1566.8632148796351
 21
592.70717858676471
 31
0.0
  0
LINE
  5
194AC
  8
HATCH
 10
1331.422445267566
 20
251.200391796714
 30
0.0
 11
1379.3632148796351
 21
299.1411614087819
 31
0.0
  0
LINE
  5
194AD
  8
HATCH
 10
1454.3632148796351
 20
374.14116140878292
 30
0.0
 11
1566.8632148796351
 21
486.64116140878241
 31
0.0
  0
LINE
  5
194AE
  8
HATCH
 10
1454.3632148796351
 20
268.07514423080119
 30
0.0
 11
1566.8632148796351
 21
380.57514423080011
 31
0.0
  0
LINE
  5
194AF
  8
HATCH
 10
1543.5544796235311
 20
251.200391796714
 30
0.0
 11
1566.8632148796351
 21
274.5091270528182
 31
0.0
  0
LINE
  5
194B0
  8
HATCH
 10
1266.8632148796351
 20
593.22756062071119
 30
0.0
 11
1324.836046055638
 21
651.20039179671403
 31
0.0
  0
LINE
  5
194B1
  8
HATCH
 10
1266.8632148796351
 20
487.16154344272888
 30
0.0
 11
1372.3132148796351
 21
592.61154344272882
 31
0.0
  0
LINE
  5
194B2
  8
HATCH
 10
1266.8632148796351
 20
381.0955262647467
 30
0.0
 11
1373.1132148796351
 21
487.3455262647467
 31
0.0
  0
LINE
  5
194B3
  8
HATCH
 10
1461.413214879635
 20
575.64552626474676
 30
0.0
 11
1536.9680804116019
 21
651.20039179671403
 31
0.0
  0
LINE
  5
194B4
  8
HATCH
 10
1266.8632148796351
 20
275.02950908676479
 30
0.0
 11
1379.3632148796351
 21
387.52950908676468
 31
0.0
  0
LINE
  5
194B5
  8
HATCH
 10
1460.6132148796351
 20
468.77950908676502
 30
0.0
 11
1566.8632148796351
 21
575.02950908676485
 31
0.0
  0
LINE
  5
194B6
  8
HATCH
 10
1349.1001147675661
 20
251.200391796714
 30
0.0
 11
1379.3632148796351
 21
281.46349190878237
 31
0.0
  0
LINE
  5
194B7
  8
HATCH
 10
1454.3632148796351
 20
356.46349190878311
 30
0.0
 11
1566.8632148796351
 21
468.96349190878198
 31
0.0
  0
LINE
  5
194B8
  8
HATCH
 10
1455.1661319455479
 20
251.200391796714
 30
0.0
 11
1566.8632148796351
 21
362.89747473080018
 31
0.0
  0
LINE
  5
194B9
  8
HATCH
 10
1561.23214912353
 20
251.200391796714
 30
0.0
 11
1566.8632148796339
 21
256.83145755281788
 31
0.0
  0
LINE
  5
194BA
  8
SJC
 10
1373.1132148796351
 20
2491.2003917967149
 30
0.0
 11
1373.1132148796351
 21
2451.200391796714
 31
0.0
  0
LINE
  5
194BC
  8
HATCH
 10
1373.1132148796351
 20
2491.2003917967149
 30
0.0
 11
1460.6132148796339
 21
2491.2003917967149
 31
0.0
1001
ACAD
1000
ASC_BOUNDS
1002
{
1070
    19
1005
1B9A3
1005
1B9A2
1002
}
  0
LINE
  5
194BD
  8
HATCH
 10
1460.6132148796339
 20
2491.2003917967149
 30
0.0
 11
1460.6132148796351
 21
2451.200391796714
 31
0.0
1001
ACAD
1000
ASC_BOUNDS
1002
{
1070
    19
1005
1B9A3
1005
1B9A2
1002
}
  0
LINE
  5
194BE
  8
HATCH
 10
1460.6132148796351
 20
2451.200391796714
 30
0.0
 11
1373.1132148796351
 21
2451.200391796714
 31
0.0
1001
ACAD
1000
ASC_BOUNDS
1002
{
1070
    19
1005
1B9A3
1005
1B9A2
1002
}
  0
LINE
  5
194BF
  8
HATCH
 10
1373.1132148796351
 20
2451.200391796714
 30
0.0
 11
1373.1132148796339
 21
2491.200391796714
 31
0.0
1001
ACAD
1000
ASC_BOUNDS
1002
{
1070
    19
1005
1B9A3
1005
1B9A2
1002
}
  0
LINE
  5
194C0
  8
CENTER
 10
1396.8632148796351
 20
501.20039179671397
 30
0.0
 11
1436.8632148796351
 21
501.20039179671397
 31
0.0
  0
LINE
  5
194C1
  8
SJC
 10
1373.1132148796351
 20
391.20039179671357
 30
0.0
 11
1460.6132148796351
 21
391.20039179671357
 31
0.0
  0
LINE
  5
194C7
  8
SJC
 10
1368.3632148796321
 20
2451.2003917967158
 30
0.0
 11
1366.363214879633
 21
2451.2003917967158
 31
0.0
  0
ARC
  5
194C8
  8
SJC
 10
1368.363214879633
 20
2449.2003917967158
 30
0.0
 40
2.0
 50
0.0000000000260551
 51
90.0
  0
ARC
  5
194C9
  8
SJC
 10
1366.363214879633
 20
2449.2003917967158
 30
0.0
 40
2.0
 50
90.0
 51
180.00000000001299
  0
LINE
  5
194CD
  8
SJC
 10
1426.8632148803749
 20
2446.200391796694
 30
0.0
 11
1426.863214880369
 21
2429.112664038234
 31
0.0
  0
ARC
  5
194CE
  8
SJC
 10
1421.8632148803749
 20
2446.2003917966958
 30
0.0
 40
5.0
 50
359.99999999997402
 51
90.0
  0
LINE
  5
194CF
  8
SJC
 10
1421.863214880377
 20
2451.2003917966999
 30
0.0
 11
1367.3632148803781
 21
2451.2003917967158
 31
0.0
  0
LINE
  5
194D0
  8
CENTER
 10
1416.863214880374
 20
2436.7003917966981
 30
0.0
 11
1416.863214880372
 21
2427.7003917966981
 31
0.0
  0
LINE
  5
194D1
  8
CENTER
 10
1421.3632148803731
 20
2432.2003917966958
 30
0.0
 11
1412.3632148803731
 21
2432.200391796699
 31
0.0
  0
CIRCLE
  5
194D3
  8
SJC
 10
1416.8632148803731
 20
2432.2003917966981
 30
0.0
 40
4.5
  0
LINE
  5
194D8
  8
SJC
 10
1423.065784744751
 20
2424.259435656912
 30
0.0
 11
1370.3632148796439
 21
2411.2003917967158
 31
0.0
  0
ARC
  5
194D9
  8
SJC
 10
1421.863214880369
 20
2429.1126640382358
 30
0.0
 40
5.0
 50
283.9168774331053
 51
359.99999999997402
  0
CIRCLE
  5
19503
  8
SJC2
 10
1416.8632148796351
 20
501.20039179671397
 30
0.0
 40
4.5
  0
LINE
  5
19507
  8
CENTER
 10
2129.8293558282348
 20
1676.507178536792
 30
0.0
 11
2129.8293558282348
 21
106.5071785368045
 31
0.0
  0
LINE
  5
19508
  8
SUNPOU
 10
2159.8293558282348
 20
136.50717853680541
 30
0.0
 11
2159.8293558282348
 21
106.5071785368045
 31
0.0
  0
LINE
  5
19509
  8
SUNPOU
 10
2099.8293558282348
 20
166.5071785368045
 30
0.0
 11
2099.8293558282348
 21
136.50717853680541
 31
0.0
  0
LINE
  5
1950E
  8
SJC
 10
2217.3293558282348
 20
296.50717853680408
 30
0.0
 11
2217.3293558282348
 21
136.5071785368059
 31
0.0
1001
ACAD
1000
ASC_BOUNDS
1002
{
1070
    19
1005
0
1002
}
  0
LINE
  5
1950F
  8
SJC
 10
2042.3293558282351
 20
296.50717853680408
 30
0.0
 11
2042.3293558282351
 21
136.50717853680399
 31
0.0
1001
ACAD
1000
ASC_BOUNDS
1002
{
1070
    19
1005
0
1002
}
  0
LINE
  5
19510
  8
SJC
 10
2042.3293558282351
 20
1616.507178536807
 30
0.0
 11
2217.3293558282348
 21
1616.507178536807
 31
0.0
  0
ARC
  5
19511
  8
SJC
 10
2129.8293558282348
 20
1540.804053536765
 30
0.0
 40
115.7031250000273
 50
40.865657358805223
 51
139.13434264119471
  0
LINE
  5
19512
  8
SJC
 10
1993.829355828233
 20
1526.5071785368029
 30
0.0
 11
2265.8293558282398
 21
1526.507178536805
 31
0.0
  0
LINE
  5
19513
  8
SJC
 10
2042.3293558282351
 20
1616.507178536807
 30
0.0
 11
2042.3293558282351
 21
1536.507178536805
 31
0.0
  0
LINE
  5
19514
  8
SJC
 10
2217.3293558282348
 20
1616.507178536807
 30
0.0
 11
2217.3293558282348
 21
1536.507178536805
 31
0.0
  0
LINE
  5
19516
  8
HATCH
 10
2042.3293558282351
 20
1616.507178536807
 30
0.0
 11
2217.3293558282348
 21
1616.507178536807
 31
0.0
  0
LINE
  5
19517
  8
HATCH
 10
2217.3293558282348
 20
1616.507178536807
 30
0.0
 11
2217.3293558282348
 21
1536.507178536805
 31
0.0
  0
LINE
  5
19518
  8
HATCH
 10
2217.3293558282348
 20
1536.507178536805
 30
0.0
 11
2042.3293558282351
 21
1536.507178536805
 31
0.0
  0
LINE
  5
19519
  8
HATCH
 10
2042.3293558282351
 20
1536.507178536805
 30
0.0
 11
2042.329355828233
 21
1616.507178536805
 31
0.0
  0
LINE
  5
1951B
  8
SJC
 10
1979.829355828233
 20
1512.507178536805
 30
0.0
 11
1979.8293558282351
 21
1422.00717853681
 31
0.0
  0
LINE
  5
1951C
  8
SJC
 10
2279.8293558282421
 20
1512.507178536805
 30
0.0
 11
2279.8293558282421
 21
1422.007178536807
 31
0.0
  0
LINE
  5
1951E
  8
SJC
 10
1969.829355828233
 20
1512.507178536805
 30
0.0
 11
1969.8293558282339
 21
1422.00717853681
 31
0.0
  0
ARC
  5
1951F
  8
SJC
 10
1993.829355828233
 20
1512.507178536805
 30
0.0
 40
24.0
 50
90.0
 51
180.0
  0
ARC
  5
19520
  8
SJC
 10
1993.829355828233
 20
1512.507178536805
 30
0.0
 40
14.0
 50
90.0
 51
180.0
  0
LINE
  5
19521
  8
SJC
 10
2289.8293558282398
 20
1512.507178536805
 30
0.0
 11
2289.8293558282398
 21
1422.007178536807
 31
0.0
  0
ARC
  5
19524
  8
SJC
 10
2265.8293558282398
 20
1512.507178536805
 30
0.0
 40
24.0
 50
0.0
 51
90.0
  0
ARC
  5
19525
  8
SJC
 10
2265.8293558282398
 20
1512.507178536805
 30
0.0
 40
14.0
 50
0.0
 51
90.0
  0
LINE
  5
19528
  8
SJC
 10
2265.8293558282398
 20
1536.507178536805
 30
0.0
 11
1993.829355828233
 21
1536.507178536805
 31
0.0
  0
LINE
  5
19529
  8
SJC
 10
2265.8293558282371
 20
761.50717853680635
 30
0.0
 11
2129.8293558282348
 21
761.50717853680499
 31
0.0
  0
LINE
  5
1952A
  8
SUNPOU
 10
2255.8293558282389
 20
136.50717853680629
 30
0.0
 11
2159.8293558282348
 21
136.50717853680541
 31
0.0
  0
LINE
  5
1952B
  8
SJC
 10
2129.8293558282348
 20
761.50717853680499
 30
0.0
 11
1993.8293558282371
 21
761.50717853680544
 31
0.0
  0
LINE
  5
1952C
  8
CENTER
 10
2881.978662656893
 20
1676.507178536792
 30
0.0
 11
2881.978662656893
 21
106.5071785368045
 31
0.0
  0
LINE
  5
1952F
  8
SJC
 10
2969.478662656893
 20
1616.507178536807
 30
0.0
 11
2969.4786626568921
 21
1422.0071785368059
 31
0.0
1001
ACAD
1000
ASC_BOUNDS
1002
{
1070
    19
1005
0
1002
}
  0
LINE
  5
19530
  8
SJC
 10
2794.4786626568912
 20
296.5071785367781
 30
0.0
 11
2794.4786626568912
 21
136.50717853680601
 31
0.0
1001
ACAD
1000
ASC_BOUNDS
1002
{
1070
    19
1005
0
1002
}
  0
LINE
  5
19531
  8
SJC
 10
2794.478662656893
 20
1616.507178536807
 30
0.0
 11
2969.478662656893
 21
1616.507178536807
 31
0.0
  0
ARC
  5
19532
  8
SJC
 10
2881.978662656893
 20
1540.804053536765
 30
0.0
 40
115.7031250000273
 50
40.865657358805223
 51
139.13434264119471
  0
LINE
  5
19533
  8
SJC
 10
2794.478662656893
 20
1616.507178536807
 30
0.0
 11
2794.478662656893
 21
1536.507178536805
 31
0.0
  0
LINE
  5
19535
  8
HATCH
 10
2794.478662656893
 20
1616.507178536807
 30
0.0
 11
2969.478662656893
 21
1616.507178536807
 31
0.0
1001
ACAD
1000
ASC_BOUNDS
1002
{
1070
    19
1005
1B921
1005
1B920
1002
}
  0
LINE
  5
19536
  8
HATCH
 10
2969.478662656893
 20
1616.507178536807
 30
0.0
 11
2969.478662656893
 21
1536.507178536805
 31
0.0
1001
ACAD
1000
ASC_BOUNDS
1002
{
1070
    19
1005
1B921
1005
1B920
1002
}
  0
LINE
  5
19537
  8
HATCH
 10
2969.478662656893
 20
1536.507178536805
 30
0.0
 11
2794.478662656893
 21
1536.507178536805
 31
0.0
1001
ACAD
1000
ASC_BOUNDS
1002
{
1070
    19
1005
1B921
1005
1B920
1002
}
  0
LINE
  5
19538
  8
HATCH
 10
2794.478662656893
 20
1536.507178536805
 30
0.0
 11
2794.4786626568912
 21
1616.507178536805
 31
0.0
1001
ACAD
1000
ASC_BOUNDS
1002
{
1070
    19
1005
1B921
1005
1B920
1002
}
  0
LINE
  5
1953A
  8
SJC
 10
2788.9786626572218
 20
765.50717853677486
 30
0.0
 11
2788.9786626572231
 21
776.50717853721369
 31
0.0
  0
LINE
  5
1953C
  8
SJC
 10
2784.978662656888
 20
1536.50717853681
 30
0.0
 11
2780.978662656888
 21
1536.5071785368079
 31
0.0
  0
ARC
  5
1953D
  8
SJC
 10
2784.9786626568889
 20
1532.50717853681
 30
0.0
 40
4.0
 50
0.0000000000260551
 51
90.0
  0
ARC
  5
1953E
  8
SJC
 10
2780.9786626568889
 20
1532.5071785368079
 30
0.0
 40
4.0
 50
90.0
 51
180.00000000001299
  0
LINE
  5
1953F
  8
SJC
 10
2776.9786626568889
 20
1532.5071785368059
 30
0.0
 11
2776.978662656893
 21
1527.507178536805
 31
0.0
  0
LINE
  5
19542
  8
SJC
 10
2901.9786626583741
 20
1526.5071785367661
 30
0.0
 11
2901.9786626583609
 21
1492.331723019845
 31
0.0
  0
ARC
  5
19543
  8
SJC
 10
2891.9786626583741
 20
1526.5071785367691
 30
0.0
 40
10.0
 50
359.99999999997402
 51
90.0
  0
LINE
  5
19544
  8
SJC
 10
2891.9786626583768
 20
1536.507178536775
 30
0.0
 11
2784.9786626568912
 21
1536.50717853681
 31
0.0
  0
LINE
  5
19545
  8
CENTER
 10
2881.9786626583718
 20
1507.507178536772
 30
0.0
 11
2881.9786626583668
 21
1489.507178536772
 31
0.0
  0
LINE
  5
19546
  8
CENTER
 10
2890.97866265837
 20
1498.5071785367691
 30
0.0
 11
2872.97866265837
 21
1498.5071785367741
 31
0.0
  0
LINE
  5
19547
  8
SJC
 10
2788.978662657224
 20
776.50717853676633
 30
0.0
 11
2788.978662657224
 21
765.50717853677486
 31
0.0
  0
LINE
  5
1954B
  8
SJC
 10
2894.3838023871249
 20
1482.6252662572019
 30
0.0
 11
2788.9786626569112
 21
1456.5071785368091
 31
0.0
  0
ARC
  5
1954C
  8
SJC
 10
2891.9786626583609
 20
1492.3317230198479
 30
0.0
 40
10.0
 50
283.9168774331053
 51
359.99999999997402
  0
LINE
  5
1954D
  8
SJC
 10
2784.9786626571122
 20
761.50717853677486
 30
0.0
 11
2780.9786626571122
 21
761.50717853677668
 31
0.0
  0
ARC
  5
1954E
  8
SJC
 10
2784.9786626571131
 20
765.50717853677486
 30
0.0
 40
4.0
 50
270.0
 51
359.99999999997402
  0
ARC
  5
1954F
  8
SJC
 10
2780.9786626571131
 20
765.50717853677668
 30
0.0
 40
4.0
 50
179.99999999998701
 51
270.0
  0
LINE
  5
19550
  8
SJC
 10
2776.9786626571131
 20
765.50717853677861
 30
0.0
 11
2776.9786626571172
 21
770.50717853677895
 31
0.0
  0
LINE
  5
19551
  8
SJC
 10
2901.9786626585978
 20
771.50717853681863
 30
0.0
 11
2901.9786626585851
 21
805.68263405373943
 31
0.0
  0
ARC
  5
19552
  8
SJC
 10
2891.9786626585978
 20
771.50717853681579
 30
0.0
 40
10.0
 50
270.0
 51
0.0000000000260551
  0
LINE
  5
19553
  8
SJC
 10
2891.978662658601
 20
761.50717853680953
 30
0.0
 11
2784.9786626571149
 21
761.50717853677497
 31
0.0
  0
LINE
  5
19554
  8
CENTER
 10
2881.978662658596
 20
790.50717853681272
 30
0.0
 11
2881.9786626585901
 21
808.50717853681272
 31
0.0
  0
LINE
  5
19555
  8
CENTER
 10
2890.9786626585942
 20
799.50717853681545
 30
0.0
 11
2872.9786626585942
 21
799.50717853680987
 31
0.0
  0
LINE
  5
19558
  8
SJC
 10
2894.3838023873491
 20
815.38909081638246
 30
0.0
 11
2788.9786626571349
 21
841.50717853677543
 31
0.0
  0
ARC
  5
19559
  8
SJC
 10
2891.9786626585851
 20
805.68263405373636
 30
0.0
 40
10.0
 50
0.0000000000260551
 51
76.083122566894787
  0
CIRCLE
  5
1956E
  8
SJC
 10
2129.8293558282348
 20
1998.9195343433471
 30
0.0
 40
86.999999999999076
  0
CIRCLE
  5
1956F
  8
SJC
 10
2129.8293558282348
 20
1998.9195343433471
 30
0.0
 40
88.999999999999091
  0
CIRCLE
  5
19570
  8
SJC
 10
2129.8293558282348
 20
1998.9195343433471
 30
0.0
 40
76.999999999999091
  0
CIRCLE
  5
19571
  8
SJC
 10
2129.8293558282348
 20
2079.9195343433471
 30
0.0
 40
0.5
  0
CIRCLE
  5
19572
  8
SJC
 10
2104.7989792838648
 20
2075.9551121632539
 30
0.0
 40
0.5
  0
CIRCLE
  5
19573
  8
SJC
 10
2117.158164159976
 20
2078.9222899315532
 30
0.0
 40
0.5
  0
CIRCLE
  5
19574
  8
SJC
 10
2082.2187503925452
 20
2064.4499108877171
 30
0.0
 40
0.5
  0
CIRCLE
  5
19575
  8
SJC
 10
2093.056125349332
 20
2071.0910628026049
 30
0.0
 40
0.5
  0
CIRCLE
  5
19576
  8
SJC
 10
2072.5537065521248
 20
2056.1951836194571
 30
0.0
 40
0.5
  0
CIRCLE
  5
19577
  8
SJC
 10
2206.8649336481408
 20
1973.8891577989771
 30
0.0
 40
0.5
  0
CIRCLE
  5
19578
  8
SJC
 10
2064.2989792838648
 20
2046.530139779037
 30
0.0
 40
0.5
  0
CIRCLE
  5
19579
  8
SJC
 10
2057.6578273689779
 20
2035.69276482225
 30
0.0
 40
0.5
  0
CIRCLE
  5
1957A
  8
SJC
 10
2052.7937780083289
 20
2023.949910887718
 30
0.0
 40
0.5
  0
CIRCLE
  5
1957B
  8
SJC
 10
2049.8266002400301
 20
2011.590726011606
 30
0.0
 40
0.5
  0
CIRCLE
  5
1957C
  8
SJC
 10
2048.8293558282362
 20
1998.9195343433471
 30
0.0
 40
0.5
  0
CIRCLE
  5
1957D
  8
SJC
 10
2049.8266002400301
 20
1986.2483426750889
 30
0.0
 40
0.5
  0
CIRCLE
  5
1957E
  8
SJC
 10
2052.7937780083289
 20
1973.8891577989771
 30
0.0
 40
0.5
  0
CIRCLE
  5
1957F
  8
SJC
 10
2057.6578273689779
 20
1962.146303864444
 30
0.0
 40
0.5
  0
CIRCLE
  5
19580
  8
SJC
 10
2064.2989792838648
 20
1951.3089289076579
 30
0.0
 40
0.5
  0
CIRCLE
  5
19581
  8
SJC
 10
2072.5537065521262
 20
1941.6438850672371
 30
0.0
 40
0.5
  0
CIRCLE
  5
19582
  8
SJC
 10
2082.2187503925452
 20
1933.389157798978
 30
0.0
 40
0.5
  0
CIRCLE
  5
19583
  8
SJC
 10
2093.056125349332
 20
1926.7480058840899
 30
0.0
 40
0.5
  0
CIRCLE
  5
19584
  8
SJC
 10
2104.7989792838648
 20
1921.8839565234409
 30
0.0
 40
0.5
  0
CIRCLE
  5
19585
  8
SJC
 10
2117.1581641599769
 20
1918.9167787551421
 30
0.0
 40
0.5
  0
CIRCLE
  5
19586
  8
SJC
 10
2129.8293558282348
 20
1917.919534343348
 30
0.0
 40
0.5
  0
CIRCLE
  5
19587
  8
SJC
 10
2142.5005474964942
 20
1918.9167787551421
 30
0.0
 40
0.5
  0
CIRCLE
  5
19588
  8
SJC
 10
2154.8597323726049
 20
1921.8839565234409
 30
0.0
 40
0.5
  0
CIRCLE
  5
19589
  8
SJC
 10
2166.6025863071382
 20
1926.7480058840899
 30
0.0
 40
0.5
  0
CIRCLE
  5
1958A
  8
SJC
 10
2177.4399612639249
 20
1933.389157798978
 30
0.0
 40
0.5
  0
CIRCLE
  5
1958B
  8
SJC
 10
2187.1050051043449
 20
1941.643885067238
 30
0.0
 40
0.5
  0
CIRCLE
  5
1958C
  8
SJC
 10
2195.3597323726049
 20
1951.3089289076579
 30
0.0
 40
0.5
  0
CIRCLE
  5
1958D
  8
SJC
 10
2202.0008842874922
 20
1962.1463038644449
 30
0.0
 40
0.5
  0
CIRCLE
  5
1958E
  8
SJC
 10
2209.8321114164401
 20
1986.2483426750889
 30
0.0
 40
0.5
  0
CIRCLE
  5
1958F
  8
SJC
 10
2210.8293558282339
 20
1998.9195343433471
 30
0.0
 40
0.5
  0
CIRCLE
  5
19590
  8
SJC
 10
2209.8321114164401
 20
2011.590726011606
 30
0.0
 40
0.5
  0
CIRCLE
  5
19591
  8
SJC
 10
2206.8649336481408
 20
2023.949910887718
 30
0.0
 40
0.5
  0
CIRCLE
  5
19592
  8
SJC
 10
2195.3597323726049
 20
2046.530139779037
 30
0.0
 40
0.5
  0
CIRCLE
  5
19593
  8
SJC
 10
2202.0008842874922
 20
2035.69276482225
 30
0.0
 40
0.5
  0
CIRCLE
  5
19594
  8
SJC
 10
2187.1050051043449
 20
2056.1951836194571
 30
0.0
 40
0.5
  0
CIRCLE
  5
19595
  8
SJC
 10
2177.4399612639249
 20
2064.4499108877171
 30
0.0
 40
0.5
  0
CIRCLE
  5
19596
  8
SJC
 10
2166.6025863071382
 20
2071.0910628026049
 30
0.0
 40
0.5
  0
CIRCLE
  5
19597
  8
SJC
 10
2142.5005474964942
 20
2078.9222899315532
 30
0.0
 40
0.5
  0
CIRCLE
  5
19598
  8
SJC
 10
2154.8597323726049
 20
2075.9551121632539
 30
0.0
 40
0.5
  0
TEXT
  5
19599
  8
MOJI2
 10
1939.9569878507409
 20
1810.628222164534
 30
0.0
 40
40.0
  1
A-A 断面図 S=1/5
 41
0.8
  7
EXT08
  0
LINE
  5
1959A
  8
SJC
 10
1926.240693278394
 20
1791.8369962181021
 30
0.0
 11
2363.2692647069662
 21
1791.8369962181021
 31
0.0
  0
TEXT
  5
1959B
  8
SUNPOU
 10
1864.1372512987709
 20
2127.8585301585672
 30
0.0
 40
30.0
  1
ガラス繊維
 41
0.8
  7
EXT08
  0
TEXT
  5
1959C
  8
SUNPOU
 10
2187.853176878521
 20
2158.3835713803919
 30
0.0
 40
30.0
  1
リサイクル原料
 41
0.8
  7
EXT08
  0
INSERT
  5
1959D
  8
0
  2
*U26
 10
0.0
 20
0.0
 30
0.0
1001
ACAD
1000
DSTYLE
1002
{
1070
    41
1040
2.0
1070
    77
1070
     0
1070
    40
1040
10.0
1070
   147
1040
1.1999999999999991
1070
   176
1070
     0
1070
   177
1070
     0
1070
   178
1070
     0
1070
   179
1070
     2
1070
   271
1070
     2
1002
}
  0
INSERT
  5
1959E
  8
0
  2
*U27
 10
0.0
 20
0.0
 30
0.0
1001
ACAD
1000
DSTYLE
1002
{
1070
    41
1040
2.0
1070
    77
1070
     0
1070
    40
1040
10.0
1070
   147
1040
1.1999999999999991
1070
   176
1070
     0
1070
   177
1070
     0
1070
   178
1070
     0
1070
   179
1070
     2
1070
   271
1070
     2
1002
}
  0
TEXT
  5
1959F
  8
SUNPOU
 10
2228.377861442365
 20
2103.3981399343788
 30
0.0
 40
30.0
  1
(内層材)
 41
0.8
  7
EXT08
  0
LINE
  5
195A0
  8
SUNPOU
 10
2003.829355828231
 20
136.50717853680629
 30
0.0
 11
2099.8293558282348
 21
136.50717853680541
 31
0.0
  0
LINE
  5
195A1
  8
SUNPOU
 10
2099.8293558282348
 20
166.5071785368045
 30
0.0
 11
2159.8293558282348
 21
106.5071785368045
 31
0.0
  0
LINE
  5
195A2
  8
SUNPOU
 10
2911.978662656893
 20
136.50717853680541
 30
0.0
 11
2911.978662656893
 21
106.5071785368045
 31
0.0
  0
LINE
  5
195A3
  8
SUNPOU
 10
2851.978662656893
 20
166.5071785368045
 30
0.0
 11
2851.978662656893
 21
136.50717853680541
 31
0.0
  0
LINE
  5
195A4
  8
SUNPOU
 10
3007.9786626568971
 20
136.50717853680629
 30
0.0
 11
2911.978662656893
 21
136.50717853680541
 31
0.0
  0
LINE
  5
195A5
  8
SUNPOU
 10
2755.9786626568898
 20
136.50717853680629
 30
0.0
 11
2851.978662656893
 21
136.50717853680541
 31
0.0
  0
LINE
  5
195A6
  8
SUNPOU
 10
2851.978662656893
 20
166.5071785368045
 30
0.0
 11
2911.978662656893
 21
106.5071785368045
 31
0.0
  0
TEXT
  5
195A7
  8
SUNPOU
 10
1944.4097130482569
 20
257.36773124331188
 30
0.0
 40
30.0
  1
A
 41
0.8
  7
EXT08
  0
TEXT
  5
195A8
  8
SUNPOU
 10
2289.409713048256
 20
257.36773124331188
 30
0.0
 40
30.0
  1
A
 41
0.8
  7
EXT08
  0
LINE
  5
195A9
  8
SUNPOU
 10
2287.3293558281571
 20
212.82205533425989
 30
0.0
 11
2317.3293558281571
 21
212.82205533425989
 31
0.0
  0
LINE
  5
195AA
  8
SUNPOU
 10
2317.3293558281571
 20
212.82205533425989
 30
0.0
 11
2302.3293558281571
 21
177.8220553342598
 31
0.0
  0
LINE
  5
195AB
  8
SUNPOU
 10
2302.3293558281571
 20
177.8220553342598
 30
0.0
 11
2302.3293558281571
 21
236.9407938884533
 31
0.0
  0
LINE
  5
195AC
  8
SUNPOU
 10
2302.3293558281571
 20
236.9407938884533
 30
0.0
 11
1957.3293558281559
 21
236.9407938884533
 31
0.0
  0
LINE
  5
195AD
  8
SUNPOU
 10
1957.3293558281559
 20
236.9407938884533
 30
0.0
 11
1957.3293558281559
 21
177.8220553342598
 31
0.0
  0
LINE
  5
195AE
  8
SUNPOU
 10
1957.3293558281559
 20
177.8220553342598
 30
0.0
 11
1942.3293558281571
 21
212.82205533425989
 31
0.0
  0
LINE
  5
195AF
  8
SUNPOU
 10
1942.3293558281571
 20
212.82205533425989
 30
0.0
 11
1972.3293558281559
 21
212.82205533425989
 31
0.0
  0
TEXT
  5
195B0
  8
MOJI2
 10
2303.1977054387039
 20
101.4561788148949
 30
0.0
 40
40.0
  1
標示部詳細 S=1/5
 41
0.8
  7
EXT08
 72
     1
 11
2488.7977054387038
 21
101.4561788148949
 31
0.0
 73
     1
  0
LINE
  5
195B1
  8
MOJI2
 10
2299.8594544957082
 20
86.456178814894884
 30
0.0
 11
2699.6263558924552
 21
86.456178814894884
 31
0.0
  0
DIMENSION
  5
195B3
  8
SUNPOU
  2
*D9
 10
2289.8293558282398
 20
1699.019615007488
 30
0.0
 11
2129.8293558282371
 21
1726.019615007488
 31
0.0
 70
     0
 13
1969.829355828233
 23
1512.507178536805
 33
0.0
 14
2289.8293558282398
 24
1512.507178536805
 34
0.0
1001
ACAD
1000
DSTYLE
1002
{
1070
   287
1070
     5
1070
   144
1040
0.5
1070
    40
1040
10.0
1070
    41
1040
2.0
1070
    42
1040
1.0
1070
    43
1040
6.0
1070
    44
1040
1.0
1070
    73
1070
     0
1070
    74
1070
     0
1070
    77
1070
     1
1070
    78
1070
     8
1070
   140
1040
3.0
1070
   147
1040
1.1999999999999991
1070
   172
1070
     1
1070
   179
1070
     2
1070
   271
1070
     2
1070
   279
1070
     2
1070
   340
1005
55
1002
}
  0
DIMENSION
  5
195B6
  8
SUNPOU
  2
*D10
 10
1979.829355828236
 20
1465.678851908197
 30
0.0
 11
1949.30823992303
 21
1492.558261573738
 31
0.0
 70
   128
 13
1969.8293558282351
 23
1422.00717853681
 33
0.0
 14
1979.829355828236
 24
1422.00717853681
 34
0.0
1001
ACAD
1000
DSTYLE
1002
{
1070
   287
1070
     5
1070
   144
1040
0.5
1070
    40
1040
10.0
1070
    41
1040
2.0
1070
    42
1040
1.0
1070
    43
1040
6.0
1070
    44
1040
1.0
1070
    73
1070
     0
1070
    74
1070
     0
1070
    77
1070
     1
1070
    78
1070
     8
1070
   140
1040
3.0
1070
   147
1040
1.1999999999999991
1070
   172
1070
     1
1070
   179
1070
     2
1070
   271
1070
     2
1070
   279
1070
     2
1070
   340
1005
55
1002
}
  0
DIMENSION
  5
195B9
  8
SUNPOU
  2
*D11
 10
2776.9786626568889
 20
1645.1350931014349
 30
0.0
 11
2751.7326096840852
 21
1675.1259537178451
 31
0.0
 70
   128
 13
2788.9786626568889
 23
1532.5071785368109
 33
0.0
 14
2776.9786626568889
 24
1532.507178536805
 34
0.0
1001
ACAD
1000
DSTYLE
1002
{
1070
   287
1070
     5
1070
   144
1040
0.5
1070
    40
1040
10.0
1070
    41
1040
2.0
1070
    42
1040
1.0
1070
    43
1040
6.0
1070
    44
1040
1.0
1070
    73
1070
     0
1070
    74
1070
     0
1070
    77
1070
     1
1070
    78
1070
     8
1070
   140
1040
3.0
1070
   147
1040
1.1999999999999991
1070
   172
1070
     1
1070
   179
1070
     2
1070
   271
1070
     2
1070
   279
1070
     2
1070
   340
1005
55
1002
}
  0
LINE
  5
195BA
  8
CENTER
 10
2881.9786626583732
 20
1507.507178536772
 30
0.0
 11
2881.9786626583659
 21
1489.507178536772
 31
0.0
  0
CIRCLE
  5
195BB
  8
SJC
 10
2881.9786626583691
 20
1498.507178536772
 30
0.0
 40
9.0
  0
CIRCLE
  5
195BC
  8
SJC
 10
2881.9786626583691
 20
1498.507178536772
 30
0.0
 40
8.0
  0
LINE
  5
195BD
  8
SJC2
 10
2881.1275988285811
 20
1504.464625345282
 30
0.0
 11
2882.8297264881562
 21
1504.464625345282
 31
0.0
  0
LINE
  5
195BE
  8
SJC2
 10
2887.9361094668802
 20
1499.358242366558
 30
0.0
 11
2887.9361094668802
 21
1497.6561147069831
 31
0.0
  0
LINE
  5
195BF
  8
SJC2
 10
2876.021215849858
 20
1499.358242366558
 30
0.0
 11
2876.021215849858
 21
1497.6561147069831
 31
0.0
  0
LINE
  5
195C0
  8
SJC2
 10
2881.1275988285811
 20
1492.5497317282609
 30
0.0
 11
2882.8297264881562
 21
1492.5497317282609
 31
0.0
  0
ARC
  5
195C1
  8
SJC2
 10
2887.9361094668802
 20
1492.5497317282609
 30
0.0
 40
5.1063829787233539
 50
90.0
 51
180.0
  0
ARC
  5
195C2
  8
SJC2
 10
2876.021215849858
 20
1492.5497317282609
 30
0.0
 40
5.1063829787233539
 50
0.0
 51
90.0
  0
ARC
  5
195C3
  8
SJC2
 10
2887.9361094668802
 20
1504.464625345282
 30
0.0
 40
5.1063829787233539
 50
180.0
 51
270.0
  0
ARC
  5
195C4
  8
SJC2
 10
2876.021215849858
 20
1504.464625345282
 30
0.0
 40
5.1063829787233539
 50
270.0
 51
0.0
  0
LINE
  5
195D1
  8
CENTER
 10
2881.9786626600721
 20
808.50717853681272
 30
0.0
 11
2881.9786626600671
 21
790.50717853681272
 31
0.0
  0
LINE
  5
195D2
  8
CENTER
 10
2890.9786626600699
 20
799.50717853680987
 30
0.0
 11
2872.9786626600699
 21
799.50717853681545
 31
0.0
  0
LINE
  5
195D3
  8
CENTER
 10
2881.9786626600721
 20
808.50717853681272
 30
0.0
 11
2881.9786626600671
 21
790.50717853681272
 31
0.0
  0
LINE
  5
195D4
  8
CENTER
 10
2881.978662660073
 20
808.50717853681272
 30
0.0
 11
2881.9786626600649
 21
790.50717853681272
 31
0.0
  0
CIRCLE
  5
195D5
  8
SJC
 10
2881.9786626600689
 20
799.50717853681272
 30
0.0
 40
9.0
  0
CIRCLE
  5
195D6
  8
SJC
 10
2881.9786626600689
 20
799.50717853681272
 30
0.0
 40
8.0
  0
LINE
  5
195D7
  8
SJC2
 10
2881.1275988302809
 20
805.46462534532293
 30
0.0
 11
2882.8297264898561
 21
805.46462534532293
 31
0.0
  0
LINE
  5
195D8
  8
SJC2
 10
2887.9361094685801
 20
800.35824236659937
 30
0.0
 11
2887.9361094685801
 21
798.65611470702424
 31
0.0
  0
LINE
  5
195D9
  8
SJC2
 10
2876.0212158515578
 20
800.35824236659937
 30
0.0
 11
2876.0212158515578
 21
798.65611470702424
 31
0.0
  0
LINE
  5
195DA
  8
SJC2
 10
2881.1275988302809
 20
793.5497317283025
 30
0.0
 11
2882.8297264898561
 21
793.5497317283025
 31
0.0
  0
ARC
  5
195DB
  8
SJC2
 10
2887.9361094685801
 20
793.5497317283025
 30
0.0
 40
5.1063829787233539
 50
90.0
 51
180.0
  0
ARC
  5
195DC
  8
SJC2
 10
2876.0212158515578
 20
793.5497317283025
 30
0.0
 40
5.1063829787233539
 50
0.0
 51
90.0
  0
ARC
  5
195DD
  8
SJC2
 10
2887.9361094685801
 20
805.46462534532293
 30
0.0
 40
5.1063829787233539
 50
180.0
 51
270.0
  0
ARC
  5
195DE
  8
SJC2
 10
2876.0212158515578
 20
805.46462534532293
 30
0.0
 40
5.1063829787233539
 50
270.0
 51
0.0
  0
TEXT
  5
195DF
  8
MOJI
 10
3459.9976583548141
 20
2186.4653334569748
 30
0.0
 40
30.0
  1
黒 色
 41
0.8
  7
EXT08
 72
     4
 11
3492.7976583548138
 21
2201.4653334569762
 31
0.0
  0
TEXT
  5
195E1
  8
MOJI
 10
2622.014451985955
 20
1993.904731050153
 30
0.0
 40
30.0
  1
固定ビス
 41
0.8
  7
EXT08
 72
     4
 11
2675.6144519859549
 21
2008.904731050153
 31
0.0
  0
TEXT
  5
197B2
  8
SUNPOU
 10
755.97227989972725
 20
966.66234019886554
 30
0.0
 40
30.0
  1
ポリエチレン樹脂＋ガラス繊維
 41
0.8
  7
EXT08
  0
TEXT
  5
197B5
  8
SUNPOU
 10
755.97227989972725
 20
1007.248223947835
 30
0.0
 40
30.0
  1
支柱（\U+03c689\U+00d7ｔ6）
 41
0.8
  7
EXT08
  0
INSERT
  5
197E7
  8
0
  2
*U28
 10
0.0
 20
0.0
 30
0.0
1001
ACAD
1000
DSTYLE
1002
{
1070
   140
1040
30.0
1070
   144
1040
0.5
1070
   147
1040
15.0
1070
    42
1040
10.0
1070
    44
1040
10.0
1070
    43
1040
60.0
1070
    41
1040
20.0
1002
}
  0
LINE
  5
197EB
  8
SUNPOU
 10
753.49609912365031
 20
1001.490203455723
 30
0.0
 11
1154.0854528668019
 21
1001.490203455723
 31
0.0
1001
ACAD
1000
DSTYLE
1002
{
1070
    77
1070
     0
1070
    40
1040
10.0
1070
   147
1040
1.1999999999999991
1070
   176
1070
     0
1070
   177
1070
     0
1070
   178
1070
     0
1070
   179
1070
     2
1070
   271
1070
     2
1002
}
  0
TEXT
  5
197EC
  8
SUNPOU
 10
1530.993403573935
 20
2536.771458091443
 30
0.0
 40
30.0
  1
ポリエチレン樹脂
 41
0.8
  7
EXT08
  0
LINE
  5
197ED
  8
SUNPOU
 10
1528.517222797858
 20
2571.5993213483011
 30
0.0
 11
1760.098339394586
 21
2571.5993213483011
 31
0.0
1001
ACAD
1000
DSTYLE
1002
{
1070
    77
1070
     0
1070
    40
1040
10.0
1070
   147
1040
1.1999999999999991
1070
   176
1070
     0
1070
   177
1070
     0
1070
   178
1070
     0
1070
   179
1070
     2
1070
   271
1070
     2
1002
}
  0
TEXT
  5
197EE
  8
SUNPOU
 10
1530.993403573935
 20
2577.3573418404121
 30
0.0
 40
30.0
  1
キャップ
 41
0.8
  7
EXT08
  0
INSERT
  5
197FC
  8
0
  2
*U29
 10
0.0
 20
0.0
 30
0.0
1001
ACAD
1000
DSTYLE
1002
{
1070
   140
1040
30.0
1070
   144
1040
0.5
1070
   147
1040
15.0
1070
    42
1040
10.0
1070
    44
1040
10.0
1070
    43
1040
60.0
1070
    41
1040
20.0
1002
}
  0
TEXT
  5
197FD
  8
SUNPOU
 10
1562.145127545431
 20
2409.9374308760061
 30
0.0
 40
30.0
  1
カプセルレンズ型反射シート
 41
0.8
  7
EXT08
  0
LINE
  5
197FE
  8
SUNPOU
 10
1559.6689467693541
 20
2444.7652941328638
 30
0.0
 11
1937.960449213693
 21
2444.7652941328638
 31
0.0
1001
ACAD
1000
DSTYLE
1002
{
1070
    77
1070
     0
1070
    40
1040
10.0
1070
   147
1040
1.1999999999999991
1070
   176
1070
     0
1070
   177
1070
     0
1070
   178
1070
     0
1070
   179
1070
     2
1070
   271
1070
     2
1002
}
  0
TEXT
  5
197FF
  8
SUNPOU
 10
1562.145127545431
 20
2450.5233146249761
 30
0.0
 40
30.0
  1
反射材
 41
0.8
  7
EXT08
  0
TEXT
  5
19888
  8
SUNPOU
 10
755.97227989972725
 20
720.2416945327509
 30
0.0
 40
30.0
  1
A6063S-T5
 41
0.8
  7
EXT08
  0
LINE
  5
19889
  8
SUNPOU
 10
753.49609912365031
 20
755.06955778960901
 30
0.0
 11
1016.369036365264
 21
755.06955778960901
 31
0.0
1001
ACAD
1000
DSTYLE
1002
{
1070
    77
1070
     0
1070
    40
1040
10.0
1070
   147
1040
1.1999999999999991
1070
   176
1070
     0
1070
   177
1070
     0
1070
   178
1070
     0
1070
   179
1070
     2
1070
   271
1070
     2
1002
}
  0
TEXT
  5
1988A
  8
SUNPOU
 10
755.97227989972725
 20
760.82757828172043
 30
0.0
 40
30.0
  1
芯材（\U+03c675\U+00d7ｔ2）
 41
0.8
  7
EXT08
  0
INSERT
  5
1988B
  8
0
  2
*U30
 10
0.0
 20
0.0
 30
0.0
1001
ACAD
1000
DSTYLE
1002
{
1070
   140
1040
30.0
1070
   144
1040
0.5
1070
   147
1040
15.0
1070
    42
1040
10.0
1070
    44
1040
10.0
1070
    43
1040
60.0
1070
    41
1040
20.0
1002
}
  0
LINE
  5
1988E
  8
HASEN
 10
725.14738174554077
 20
1951.200391796714
 30
0.0
 11
725.14738174554054
 21
391.20039179671357
 31
0.0
  0
LINE
  5
1988F
  8
HASEN
 10
650.14738174554077
 20
1951.200391796714
 30
0.0
 11
650.14738174554066
 21
391.20039179671357
 31
0.0
  0
LINE
  5
1989A
  8
HASEN
 10
1379.3632148796351
 20
1951.200391796714
 30
0.0
 11
1379.3632148796351
 21
391.20039179671357
 31
0.0
  0
LINE
  5
1989B
  8
HASEN
 10
1454.3632148796351
 20
1951.200391796714
 30
0.0
 11
1454.3632148796351
 21
391.20039179671357
 31
0.0
  0
LINE
  5
1989C
  8
HASEN
 10
1379.3632148796351
 20
1951.200391796714
 30
0.0
 11
1454.3632148796351
 21
1951.2003917967129
 31
0.0
  0
CIRCLE
  5
19901
  8
SJC
 10
1416.8632148796351
 20
2432.2003917966981
 30
0.0
 40
4.0
  0
LINE
  5
19902
  8
SJC2
 10
1416.4376829647399
 20
2435.1791152009532
 30
0.0
 11
1417.2887467945279
 21
2435.1791152009532
 31
0.0
  0
LINE
  5
19903
  8
SJC2
 10
1419.8419382838899
 20
2432.625923711591
 30
0.0
 11
1419.8419382838899
 21
2431.7748598818039
 31
0.0
  0
LINE
  5
19904
  8
SJC2
 10
1413.884491475379
 20
2432.625923711591
 30
0.0
 11
1413.884491475379
 21
2431.7748598818039
 31
0.0
  0
LINE
  5
19905
  8
SJC2
 10
1416.4376829647399
 20
2429.221668392443
 30
0.0
 11
1417.2887467945279
 21
2429.221668392443
 31
0.0
  0
ARC
  5
19906
  8
SJC2
 10
1419.8419382838899
 20
2429.221668392443
 30
0.0
 40
2.5531914893616769
 50
90.0
 51
180.0
  0
ARC
  5
19907
  8
SJC2
 10
1413.884491475379
 20
2429.221668392443
 30
0.0
 40
2.5531914893616769
 50
0.0
 51
90.0
  0
ARC
  5
19908
  8
SJC2
 10
1419.8419382838899
 20
2435.1791152009532
 30
0.0
 40
2.5531914893616769
 50
180.0
 51
270.0
  0
ARC
  5
19909
  8
SJC2
 10
1413.884491475379
 20
2435.1791152009532
 30
0.0
 40
2.5531914893616769
 50
270.0
 51
0.0
  0
DIMENSION
  5
19E02
  8
SUNPOU
  2
*D12
 10
1460.61321487963
 20
2542.188545291785
 30
0.0
 11
1416.86321487963
 21
2571.8730717309431
 31
0.0
 70
   128
  1
φ89
 13
1373.113214879631
 23
2491.200391796719
 33
0.0
 14
1460.61321487963
 24
2491.2003917967199
 34
0.0
1001
ACAD
1000
DSTYLE
1002
{
1070
   287
1070
     5
1070
    40
1040
10.0
1070
    41
1040
2.0
1070
    42
1040
1.0
1070
    43
1040
6.0
1070
    44
1040
1.0
1070
    73
1070
     0
1070
    74
1070
     0
1070
    77
1070
     1
1070
    78
1070
     8
1070
   140
1040
3.0
1070
   147
1040
1.1999999999999991
1070
   172
1070
     1
1070
   179
1070
     2
1070
   271
1070
     2
1070
   279
1070
     2
1070
   340
1005
55
1002
}
  0
INSERT
  5
19E4B
  8
0
  2
*U31
 10
0.0
 20
0.0
 30
0.0
1001
ACAD
1000
DSTYLE
1002
{
1070
   140
1040
30.0
1070
   144
1040
0.5
1070
   147
1040
15.0
1070
    42
1040
10.0
1070
    44
1040
10.0
1070
    43
1040
60.0
1070
    41
1040
20.0
1002
}
  0
LINE
  5
19E4C
  8
SUNPOU
 10
438.226686468678
 20
750.09337103110283
 30
0.0
 11
556.89700559416815
 21
750.09337103110283
 31
0.0
1001
ACAD
1000
DSTYLE
1002
{
1070
    77
1070
     0
1070
    40
1040
10.0
1070
   147
1040
1.1999999999999991
1070
   176
1070
     0
1070
   177
1070
     0
1070
   178
1070
     0
1070
   179
1070
     2
1070
   271
1070
     2
1002
}
  0
TEXT
  5
19E4D
  8
SUNPOU
 10
440.702867244755
 20
755.85139152321415
 30
0.0
 40
30.0
  1
ネカセ棒
 41
0.8
  7
EXT08
  0
INSERT
  5
1A148
  8
0
  2
*U32
 10
0.0
 20
0.0
 30
0.0
1001
ACAD
1000
DSTYLE
1002
{
1070
     5
1000

1070
    40
1040
10.0
1070
    41
1040
2.0
1070
    42
1040
1.0
1070
    43
1040
6.0
1070
    44
1040
1.0
1070
    73
1070
     0
1070
    74
1070
     0
1070
    77
1070
     1
1070
    78
1070
     8
1070
   140
1040
3.0
1070
   144
1040
0.5
1070
   147
1040
1.1999999999999991
1070
   172
1070
     1
1070
   176
1070
   256
1070
   177
1070
   256
1070
   178
1070
   256
1070
   271
1070
     0
1070
   287
1070
     5
1070
   340
1005
55
1070
   342
1005
0
1002
}
  0
TEXT
  5
1A74E
  8
SUNPOU
 10
3021.89119667261
 20
1527.2867842010789
 30
0.0
 40
30.0
  1
SUS410
 41
0.8
  7
EXT08
  0
LINE
  5
1A74F
  8
SUNPOU
 10
3019.4150158965331
 20
1562.1146474579371
 30
0.0
 11
3178.643092849768
 21
1562.1146474579371
 31
0.0
1001
ACAD
1000
DSTYLE
1002
{
1070
    77
1070
     0
1070
    40
1040
10.0
1070
   147
1040
1.1999999999999991
1070
   176
1070
     0
1070
   177
1070
     0
1070
   178
1070
     0
1070
   179
1070
     2
1070
   271
1070
     2
1002
}
  0
TEXT
  5
1A750
  8
SUNPOU
 10
3028.2828573429242
 20
1567.872667950048
 30
0.0
 40
30.0
  1
固定ビス
 41
0.8
  7
EXT08
  0
DIMENSION
  5
1A7E3
  8
SUNPOU
  2
*D13
 10
233.93867437074741
 20
2511.2003917967081
 30
0.0
 11
206.9386743707469
 21
1581.2003917967111
 31
0.0
 70
     0
 13
460.11334604726471
 23
651.20039179671403
 33
0.0
 14
687.64738174554077
 24
2511.2003917967081
 34
0.0
 50
90.0
1001
ACAD
1000
DSTYLE
1002
{
1070
   287
1070
     5
1070
    40
1040
10.0
1070
    41
1040
2.0
1070
    42
1040
1.0
1070
    43
1040
6.0
1070
    44
1040
1.0
1070
    73
1070
     0
1070
    74
1070
     0
1070
    77
1070
     1
1070
    78
1070
     8
1070
   140
1040
3.0
1070
   147
1040
1.1999999999999991
1070
   172
1070
     1
1070
   179
1070
     2
1070
   271
1070
     2
1070
   279
1070
     2
1070
   340
1005
55
1002
}
  0
LINE
  5
1A821
  8
HATCH
 10
750.6405949554902
 20
505.70039179671409
 30
0.0
 11
837.64738174554066
 21
592.70717858676471
 31
0.0
  0
LINE
  5
1A822
  8
HATCH
 10
762.64738174554077
 20
500.02950908676479
 30
0.0
 11
837.64738174554066
 21
575.02950908676485
 31
0.0
  0
LINE
  5
1A823
  8
HATCH
 10
626.89690817750875
 20
505.70039179671443
 30
0.0
 11
643.89738174554077
 21
522.70086536474628
 31
0.0
  0
LINE
  5
1AB6A
  8
SJC
 10
1993.829355828231
 20
751.50717853680305
 30
0.0
 11
2265.829355828238
 21
751.50717853680499
 31
0.0
  0
ARC
  5
1AB6E
  8
SJC
 10
1993.829355828231
 20
737.50717853680487
 30
0.0
 40
24.0
 50
90.0
 51
180.0
  0
ARC
  5
1AB6F
  8
SJC
 10
1993.829355828231
 20
737.50717853680487
 30
0.0
 40
14.0
 50
90.0
 51
180.0
  0
ARC
  5
1AB71
  8
SJC
 10
2265.829355828238
 20
737.50717853680487
 30
0.0
 40
24.0
 50
0.0
 51
90.0
  0
ARC
  5
1AB72
  8
SJC
 10
2265.829355828238
 20
737.50717853680487
 30
0.0
 40
14.0
 50
0.0
 51
90.0
  0
LINE
  5
1AB74
  8
SJC
 10
1993.829355828228
 20
771.50717853680669
 30
0.0
 11
2265.8293558282289
 21
771.50717853680715
 31
0.0
  0
ARC
  5
1AB75
  8
SJC
 10
2265.8293558282289
 20
785.50717853680715
 30
0.0
 40
24.0
 50
270.0
 51
0.0
  0
ARC
  5
1AB76
  8
SJC
 10
2265.8293558282289
 20
785.50717853680715
 30
0.0
 40
14.0
 50
270.0
 51
0.0
  0
ARC
  5
1AB77
  8
SJC
 10
1993.829355828228
 20
785.50717853680669
 30
0.0
 40
24.0
 50
180.0
 51
270.0
  0
ARC
  5
1AB78
  8
SJC
 10
1993.829355828228
 20
785.50717853680669
 30
0.0
 40
14.0
 50
180.0
 51
270.0
  0
LINE
  5
1AB79
  8
SJC
 10
2265.8293558282298
 20
761.50717853680578
 30
0.0
 11
1993.829355828223
 21
761.50717853680578
 31
0.0
  0
LINE
  5
1ABA2
  8
SJC
 10
2776.9786626571149
 20
752.50717853724325
 30
0.0
 11
2776.9786626571149
 21
647.00717853680464
 31
0.0
  0
LINE
  5
1ABA4
  8
SJC
 10
2788.9786626572231
 20
757.50717853677861
 30
0.0
 11
2788.9786626572218
 21
647.00717853680453
 31
0.0
  0
LINE
  5
1ABA5
  8
SJC
 10
2784.9786626571099
 20
761.50717853677861
 30
0.0
 11
2780.9786626571099
 21
761.50717853677668
 31
0.0
  0
ARC
  5
1ABA6
  8
SJC
 10
2784.9786626571122
 20
757.50717853677861
 30
0.0
 40
4.0
 50
0.0000000000260551
 51
90.0
  0
ARC
  5
1ABA7
  8
SJC
 10
2780.9786626571122
 20
757.50717853677679
 30
0.0
 40
4.0
 50
90.0
 51
180.00000000001299
  0
LINE
  5
1ABA8
  8
SJC
 10
2776.9786626571122
 20
757.50717853677486
 30
0.0
 11
2776.9786626571149
 21
752.50717853677406
 31
0.0
  0
LINE
  5
1ABAB
  8
SJC
 10
2901.978662658596
 20
751.50717853673495
 30
0.0
 11
2901.9786626585828
 21
717.33172301981404
 31
0.0
  0
ARC
  5
1ABAC
  8
SJC
 10
2891.978662658596
 20
751.50717853673768
 30
0.0
 40
10.0
 50
359.99999999997402
 51
90.0
  0
LINE
  5
1ABAD
  8
SJC
 10
2891.9786626585992
 20
761.50717853674405
 30
0.0
 11
2786.978662658601
 21
761.5071785367777
 31
0.0
  0
LINE
  5
1ABAE
  8
CENTER
 10
2881.9786626585942
 20
732.50717853674041
 30
0.0
 11
2881.9786626585892
 21
714.50717853674041
 31
0.0
  0
LINE
  5
1ABAF
  8
CENTER
 10
2890.9786626585919
 20
723.50717853673757
 30
0.0
 11
2872.9786626585919
 21
723.50717853674314
 31
0.0
  0
LINE
  5
1ABB3
  8
SJC
 10
2776.9786626571149
 20
752.50717853677406
 30
0.0
 11
2776.9786626571149
 21
647.00717853680464
 31
0.0
  0
LINE
  5
1ABB4
  8
SJC
 10
2894.3838023873468
 20
707.62526625717101
 30
0.0
 11
2788.9786626571331
 21
681.5071785367777
 31
0.0
  0
ARC
  5
1ABB5
  8
SJC
 10
2891.9786626585828
 20
717.33172301981676
 30
0.0
 40
10.0
 50
283.9168774331053
 51
359.99999999997402
  0
LINE
  5
1ABC8
  8
SJC
 10
2848.9786626569289
 20
696.37443517368592
 30
0.0
 11
2848.9786626569612
 21
647.00717853680396
 31
0.0
  0
LINE
  5
1ABCA
  8
CENTER
 10
2881.9786626585951
 20
732.50717853674041
 30
0.0
 11
2881.9786626585878
 21
714.50717853674041
 31
0.0
  0
CIRCLE
  5
1ABCB
  8
SJC
 10
2881.978662658591
 20
723.50717853674041
 30
0.0
 40
9.0
  0
CIRCLE
  5
1ABCC
  8
SJC
 10
2881.978662658591
 20
723.50717853674041
 30
0.0
 40
8.0
  0
LINE
  5
1ABCD
  8
SJC2
 10
2881.127598828803
 20
729.46462534525062
 30
0.0
 11
2882.8297264883781
 21
729.46462534525062
 31
0.0
  0
LINE
  5
1ABCE
  8
SJC2
 10
2887.9361094671021
 20
724.35824236652695
 30
0.0
 11
2887.9361094671021
 21
722.65611470695194
 31
0.0
  0
LINE
  5
1ABCF
  8
SJC2
 10
2876.0212158500799
 20
724.35824236652695
 30
0.0
 11
2876.0212158500799
 21
722.65611470695194
 31
0.0
  0
LINE
  5
1ABD0
  8
SJC2
 10
2881.127598828803
 20
717.54973172823009
 30
0.0
 11
2882.8297264883781
 21
717.54973172823009
 31
0.0
  0
ARC
  5
1ABD1
  8
SJC2
 10
2887.9361094671021
 20
717.54973172823009
 30
0.0
 40
5.1063829787233539
 50
90.0
 51
180.0
  0
ARC
  5
1ABD2
  8
SJC2
 10
2876.0212158500799
 20
717.54973172823009
 30
0.0
 40
5.1063829787233539
 50
0.0
 51
90.0
  0
ARC
  5
1ABD3
  8
SJC2
 10
2887.9361094671021
 20
729.46462534525062
 30
0.0
 40
5.1063829787233539
 50
180.0
 51
270.0
  0
ARC
  5
1ABD4
  8
SJC2
 10
2876.0212158500799
 20
729.46462534525062
 30
0.0
 40
5.1063829787233539
 50
270.0
 51
0.0
  0
DIMENSION
  5
1ABFC
  8
SUNPOU
  2
*D14
 10
233.93867437074709
 20
251.20039179671409
 30
0.0
 11
206.93867437074701
 21
201.2003917967142
 31
0.0
 70
     0
 13
487.64738174554083
 23
151.200391796714
 33
0.0
 14
487.64738174554083
 24
251.200391796714
 34
0.0
 50
90.0
1001
ACAD
1000
DSTYLE
1002
{
1070
   287
1070
     5
1070
    40
1040
10.0
1070
    41
1040
2.0
1070
    42
1040
1.0
1070
    43
1040
6.0
1070
    44
1040
1.0
1070
    73
1070
     0
1070
    74
1070
     0
1070
    77
1070
     1
1070
    78
1070
     8
1070
   140
1040
3.0
1070
   147
1040
1.1999999999999991
1070
   172
1070
     1
1070
   179
1070
     2
1070
   271
1070
     2
1070
   279
1070
     2
1070
   340
1005
55
1002
}
  0
DIMENSION
  5
1AC0B
  8
SUNPOU
  2
*D15
 10
887.64738174554066
 20
51.961615669252751
 30
0.0
 11
687.64738174554077
 21
78.961615669252751
 31
0.0
 70
     0
  1
□400
 13
487.64738174554083
 23
151.200391796714
 33
0.0
 14
887.64738174554066
 24
151.200391796714
 34
0.0
1001
ACAD
1000
DSTYLE
1002
{
1070
   287
1070
     5
1070
    40
1040
10.0
1070
    41
1040
2.0
1070
    42
1040
1.0
1070
    43
1040
6.0
1070
    44
1040
1.0
1070
    73
1070
     0
1070
    74
1070
     0
1070
    77
1070
     1
1070
    78
1070
     8
1070
   140
1040
3.0
1070
   147
1040
1.1999999999999991
1070
   172
1070
     1
1070
   179
1070
     2
1070
   271
1070
     2
1070
   279
1070
     2
1070
   340
1005
55
1002
}
  0
LINE
  5
1AF84
  8
SJC
 10
2265.8293558282371
 20
296.50717853680629
 30
0.0
 11
2129.8293558282348
 21
296.50717853680499
 31
0.0
  0
LINE
  5
1AF85
  8
SJC
 10
2129.8293558282348
 20
296.50717853680499
 30
0.0
 11
1993.8293558282371
 21
296.5071785368055
 31
0.0
  0
LINE
  5
1AF8B
  8
SJC
 10
1993.829355828228
 20
306.50717853680669
 30
0.0
 11
2265.8293558282289
 21
306.5071785368072
 31
0.0
  0
ARC
  5
1AF8C
  8
SJC
 10
2265.8293558282289
 20
320.5071785368072
 30
0.0
 40
24.0
 50
270.0
 51
0.0
  0
ARC
  5
1AF8D
  8
SJC
 10
2265.8293558282289
 20
320.5071785368072
 30
0.0
 40
14.0
 50
270.0
 51
0.0
  0
ARC
  5
1AF8E
  8
SJC
 10
1993.829355828228
 20
320.50717853680669
 30
0.0
 40
24.0
 50
180.0
 51
270.0
  0
ARC
  5
1AF8F
  8
SJC
 10
1993.829355828228
 20
320.50717853680669
 30
0.0
 40
14.0
 50
180.0
 51
270.0
  0
DIMENSION
  5
1AFA5
  8
SUNPOU
  2
*D16
 10
1890.500388950458
 20
296.50717853680578
 30
0.0
 11
1863.500388950459
 21
529.00717853680612
 31
0.0
 70
     0
  1
510
 13
1993.829355828223
 23
761.50717853680578
 33
0.0
 14
1993.829355828223
 24
296.50717853680578
 34
0.0
 50
90.0
1001
ACAD
1000
DSTYLE
1002
{
1070
   287
1070
     5
1070
    40
1040
10.0
1070
    41
1040
2.0
1070
    42
1040
1.0
1070
    43
1040
6.0
1070
    44
1040
1.0
1070
    73
1070
     0
1070
    74
1070
     0
1070
    77
1070
     1
1070
    78
1070
     8
1070
   140
1040
3.0
1070
   147
1040
1.1999999999999991
1070
   172
1070
     1
1070
   179
1070
     2
1070
   271
1070
     2
1070
   279
1070
     2
1070
   340
1005
55
1002
}
  0
ARC
  5
1AFC2
  8
SJC
 10
2784.9786626571131
 20
300.50717853677497
 30
0.0
 40
4.0
 50
270.0
 51
359.99999999997402
  0
ARC
  5
1AFC3
  8
SJC
 10
2780.9786626571131
 20
300.50717853677679
 30
0.0
 40
4.0
 50
179.99999999998701
 51
270.0
  0
LINE
  5
1AFC4
  8
SJC
 10
2776.9786626571131
 20
300.50717853677861
 30
0.0
 11
2776.9786626571172
 21
305.50717853677912
 31
0.0
  0
LINE
  5
1AFC5
  8
SJC
 10
2901.9786626585978
 20
306.50717853681863
 30
0.0
 11
2901.9786626585851
 21
340.6826340537396
 31
0.0
  0
ARC
  5
1AFC6
  8
SJC
 10
2891.9786626585978
 20
306.5071785368159
 30
0.0
 40
10.0
 50
270.0
 51
0.0000000000260551
  0
LINE
  5
1AFC7
  8
SJC
 10
2891.978662658601
 20
296.50717853680948
 30
0.0
 11
2784.9786626571149
 21
296.50717853677509
 31
0.0
  0
LINE
  5
1AFC8
  8
CENTER
 10
2881.978662658596
 20
325.50717853681272
 30
0.0
 11
2881.9786626585901
 21
343.50717853681272
 31
0.0
  0
LINE
  5
1AFC9
  8
CENTER
 10
2890.9786626585942
 20
334.50717853681539
 30
0.0
 11
2872.9786626585942
 21
334.50717853680999
 31
0.0
  0
LINE
  5
1AFCC
  8
SJC
 10
2894.3838023873491
 20
350.38909081638258
 30
0.0
 11
2788.9786626571349
 21
376.50717853677543
 31
0.0
  0
ARC
  5
1AFCD
  8
SJC
 10
2891.9786626585851
 20
340.68263405373642
 30
0.0
 40
10.0
 50
0.0000000000260551
 51
76.083122566894787
  0
LINE
  5
1AFD0
  8
CENTER
 10
2881.9786626600721
 20
343.50717853681272
 30
0.0
 11
2881.9786626600671
 21
325.50717853681272
 31
0.0
  0
LINE
  5
1AFD1
  8
CENTER
 10
2890.9786626600699
 20
334.50717853680999
 30
0.0
 11
2872.9786626600699
 21
334.50717853681539
 31
0.0
  0
LINE
  5
1AFD2
  8
CENTER
 10
2881.9786626600721
 20
343.50717853681272
 30
0.0
 11
2881.9786626600671
 21
325.50717853681272
 31
0.0
  0
LINE
  5
1AFD3
  8
CENTER
 10
2881.978662660073
 20
343.50717853681272
 30
0.0
 11
2881.9786626600649
 21
325.50717853681272
 31
0.0
  0
CIRCLE
  5
1AFD4
  8
SJC
 10
2881.9786626600689
 20
334.50717853681272
 30
0.0
 40
9.0
  0
CIRCLE
  5
1AFD5
  8
SJC
 10
2881.9786626600689
 20
334.50717853681272
 30
0.0
 40
8.0
  0
LINE
  5
1AFD6
  8
SJC2
 10
2881.1275988302809
 20
340.46462534532299
 30
0.0
 11
2882.8297264898561
 21
340.46462534532299
 31
0.0
  0
LINE
  5
1AFD7
  8
SJC2
 10
2887.9361094685801
 20
335.35824236659943
 30
0.0
 11
2887.9361094685801
 21
333.65611470702419
 31
0.0
  0
LINE
  5
1AFD8
  8
SJC2
 10
2876.0212158515578
 20
335.35824236659943
 30
0.0
 11
2876.0212158515578
 21
333.65611470702419
 31
0.0
  0
LINE
  5
1AFD9
  8
SJC2
 10
2881.1275988302809
 20
328.5497317283025
 30
0.0
 11
2882.8297264898561
 21
328.5497317283025
 31
0.0
  0
ARC
  5
1AFDA
  8
SJC2
 10
2887.9361094685801
 20
328.5497317283025
 30
0.0
 40
5.1063829787233539
 50
90.0
 51
180.0
  0
ARC
  5
1AFDB
  8
SJC2
 10
2876.0212158515578
 20
328.5497317283025
 30
0.0
 40
5.1063829787233539
 50
0.0
 51
90.0
  0
ARC
  5
1AFDC
  8
SJC2
 10
2887.9361094685801
 20
340.46462534532299
 30
0.0
 40
5.1063829787233539
 50
180.0
 51
270.0
  0
ARC
  5
1AFDD
  8
SJC2
 10
2876.0212158515578
 20
340.46462534532299
 30
0.0
 40
5.1063829787233539
 50
270.0
 51
0.0
  0
LINE
  5
1AFDE
  8
SJC
 10
2784.9786626571099
 20
296.50717853677861
 30
0.0
 11
2780.9786626571099
 21
296.50717853677679
 31
0.0
  0
LINE
  5
1AFFE
  8
SUNPOU
 10
2911.9786626571149
 20
647.00717853680396
 30
0.0
 11
2911.9786626571149
 21
617.00717853680317
 31
0.0
  0
LINE
  5
1AFFF
  8
SUNPOU
 10
2851.9786626571149
 20
677.00717853680305
 30
0.0
 11
2851.9786626571149
 21
647.00717853680396
 31
0.0
  0
LINE
  5
1B000
  8
SUNPOU
 10
3007.9786626571181
 20
647.00717853680487
 30
0.0
 11
2911.9786626571149
 21
647.00717853680396
 31
0.0
  0
LINE
  5
1B001
  8
SUNPOU
 10
2755.9786626571122
 20
647.00717853680487
 30
0.0
 11
2851.9786626571149
 21
647.00717853680396
 31
0.0
  0
LINE
  5
1B002
  8
SUNPOU
 10
2851.9786626571149
 20
677.00717853680305
 30
0.0
 11
2911.9786626571149
 21
617.00717853680317
 31
0.0
  0
LINE
  5
1B003
  8
SUNPOU
 10
2911.978662657114
 20
607.00717853680408
 30
0.0
 11
2911.978662657114
 21
577.00717853680305
 31
0.0
  0
LINE
  5
1B004
  8
SUNPOU
 10
2851.9786626571149
 20
637.00717853680317
 30
0.0
 11
2851.9786626571149
 21
607.00717853680408
 31
0.0
  0
LINE
  5
1B005
  8
SUNPOU
 10
3007.9786626571181
 20
607.00717853680499
 30
0.0
 11
2911.978662657114
 21
607.00717853680408
 31
0.0
  0
LINE
  5
1B006
  8
SUNPOU
 10
2755.9786626571108
 20
607.00717853680499
 30
0.0
 11
2851.9786626571149
 21
607.00717853680408
 31
0.0
  0
LINE
  5
1B007
  8
SUNPOU
 10
2851.9786626571149
 20
637.00717853680317
 30
0.0
 11
2911.978662657114
 21
577.00717853680305
 31
0.0
  0
LINE
  5
1B008
  8
SJC
 10
2848.9786626569798
 20
607.00717853680408
 30
0.0
 11
2848.9786626569839
 21
570.63992189931275
 31
0.0
  0
LINE
  5
1B00C
  8
SJC
 10
2788.9786626571731
 20
607.00717853680464
 30
0.0
 11
2788.9786626571972
 21
451.007178536749
 31
0.0
  0
LINE
  5
1B00E
  8
SJC
 10
2776.9786626571149
 20
607.00717853680487
 30
0.0
 11
2776.9786626571149
 21
451.007178536749
 31
0.0
  0
LINE
  5
1B00F
  8
SJC
 10
2776.9786626571149
 20
607.00717853680464
 30
0.0
 11
2776.9786626571149
 21
451.007178536749
 31
0.0
  0
LINE
  5
1B01C
  8
SJC
 10
2969.4786626568939
 20
411.00717853674888
 30
0.0
 11
2969.4786626568939
 21
136.50717853680601
 31
0.0
1001
ACAD
1000
ASC_BOUNDS
1002
{
1070
    19
1002
}
  0
DIMENSION
  5
1B062
  8
SUNPOU
  2
*D17
 10
1821.5970653175341
 20
296.50717853680408
 30
0.0
 11
1794.5970653175341
 21
916.50717853680499
 31
0.0
 70
     0
  1
1330
 13
1993.829355828233
 23
1536.507178536805
 33
0.0
 14
1993.8293558282351
 24
296.50717853680408
 34
0.0
 50
90.0
1001
ACAD
1000
DSTYLE
1002
{
1070
   287
1070
     5
1070
    40
1040
10.0
1070
    41
1040
2.0
1070
    42
1040
1.0
1070
    43
1040
6.0
1070
    44
1040
1.0
1070
    73
1070
     0
1070
    74
1070
     0
1070
    77
1070
     1
1070
    78
1070
     8
1070
   140
1040
3.0
1070
   147
1040
1.1999999999999991
1070
   172
1070
     1
1070
   179
1070
     2
1070
   271
1070
     2
1070
   279
1070
     2
1070
   340
1005
55
1002
}
  0
DIMENSION
  5
1B1C6
  8
SUNPOU
  2
*D18
 10
459.8847708604153
 20
2451.200391796714
 30
0.0
 11
432.88477086041479
 21
1786.200391796714
 31
0.0
 70
     0
 13
619.6473817455435
 23
1121.200391796714
 33
0.0
 14
619.64738174553975
 24
2451.200391796714
 34
0.0
 50
90.0
1001
ACAD
1000
DSTYLE
1002
{
1070
   287
1070
     5
1070
    40
1040
10.0
1070
    41
1040
2.0
1070
    42
1040
1.0
1070
    43
1040
6.0
1070
    44
1040
1.0
1070
    73
1070
     0
1070
    74
1070
     0
1070
    77
1070
     1
1070
    78
1070
     8
1070
   140
1040
3.0
1070
   147
1040
1.1999999999999991
1070
   172
1070
     1
1070
   179
1070
     2
1070
   271
1070
     2
1070
   279
1070
     2
1070
   340
1005
55
1002
}
  0
LINE
  5
1B2D0
  8
SUNPOU
 10
2159.8293558282348
 20
1422.0071785368091
 30
0.0
 11
2159.8293558282348
 21
1392.0071785368079
 31
0.0
  0
LINE
  5
1B2D1
  8
SUNPOU
 10
2099.8293558282348
 20
1452.0071785368079
 30
0.0
 11
2099.8293558282348
 21
1422.0071785368091
 31
0.0
  0
LINE
  5
1B2D2
  8
SUNPOU
 10
2309.8293558282371
 20
1422.00717853681
 30
0.0
 11
2159.8293558282348
 21
1422.0071785368091
 31
0.0
  0
LINE
  5
1B2D3
  8
SUNPOU
 10
1949.829355828233
 20
1422.00717853681
 30
0.0
 11
2099.8293558282348
 21
1422.0071785368091
 31
0.0
  0
LINE
  5
1B2D4
  8
SUNPOU
 10
2099.8293558282348
 20
1452.0071785368079
 30
0.0
 11
2159.8293558282348
 21
1392.0071785368079
 31
0.0
  0
LINE
  5
1B2D5
  8
SUNPOU
 10
2159.8293558282348
 20
1382.0071785368091
 30
0.0
 11
2159.8293558282348
 21
1352.0071785368079
 31
0.0
  0
LINE
  5
1B2D6
  8
SUNPOU
 10
2099.8293558282348
 20
1412.0071785368079
 30
0.0
 11
2099.8293558282348
 21
1382.0071785368091
 31
0.0
  0
LINE
  5
1B2D7
  8
SUNPOU
 10
2309.8293558282371
 20
1382.00717853681
 30
0.0
 11
2159.8293558282348
 21
1382.0071785368091
 31
0.0
  0
LINE
  5
1B2D8
  8
SUNPOU
 10
1949.829355828233
 20
1382.00717853681
 30
0.0
 11
2099.8293558282348
 21
1382.0071785368091
 31
0.0
  0
LINE
  5
1B2D9
  8
SUNPOU
 10
2099.8293558282348
 20
1412.0071785368079
 30
0.0
 11
2159.8293558282348
 21
1352.0071785368079
 31
0.0
  0
LINE
  5
1B2DA
  8
SUNPOU
 10
2159.8293558282339
 20
934.50717853680408
 30
0.0
 11
2159.8293558282339
 21
904.50717853680317
 31
0.0
  0
LINE
  5
1B2DB
  8
SUNPOU
 10
2099.8293558282348
 20
964.50717853680305
 30
0.0
 11
2099.8293558282348
 21
934.50717853680408
 31
0.0
  0
LINE
  5
1B2DC
  8
SUNPOU
 10
2309.8293558282362
 20
934.50717853680544
 30
0.0
 11
2159.8293558282339
 21
934.50717853680408
 31
0.0
  0
LINE
  5
1B2DD
  8
SUNPOU
 10
1949.8293558282321
 20
934.50717853680544
 30
0.0
 11
2099.8293558282348
 21
934.50717853680408
 31
0.0
  0
LINE
  5
1B2DE
  8
SUNPOU
 10
2099.8293558282348
 20
964.50717853680305
 30
0.0
 11
2159.8293558282339
 21
904.50717853680317
 31
0.0
  0
LINE
  5
1B2DF
  8
SUNPOU
 10
2159.8293558282339
 20
894.50717853680408
 30
0.0
 11
2159.8293558282339
 21
864.50717853680305
 31
0.0
  0
LINE
  5
1B2E0
  8
SUNPOU
 10
2099.8293558282348
 20
924.50717853680305
 30
0.0
 11
2099.8293558282348
 21
894.50717853680408
 31
0.0
  0
LINE
  5
1B2E1
  8
SUNPOU
 10
2309.8293558282362
 20
894.50717853680555
 30
0.0
 11
2159.8293558282339
 21
894.50717853680408
 31
0.0
  0
LINE
  5
1B2E2
  8
SUNPOU
 10
1949.8293558282321
 20
894.50717853680555
 30
0.0
 11
2099.8293558282348
 21
894.50717853680408
 31
0.0
  0
LINE
  5
1B2E3
  8
SUNPOU
 10
2099.8293558282348
 20
924.50717853680305
 30
0.0
 11
2159.8293558282339
 21
864.50717853680305
 31
0.0
  0
LINE
  5
1B2E4
  8
SJC
 10
2265.8293558282362
 20
1071.507178536807
 30
0.0
 11
2129.8293558282348
 21
1071.5071785368059
 31
0.0
  0
LINE
  5
1B2E5
  8
SJC
 10
2129.8293558282348
 20
1071.5071785368059
 30
0.0
 11
1993.829355828236
 21
1071.5071785368059
 31
0.0
  0
LINE
  5
1B2E6
  8
SJC
 10
1993.8293558282301
 20
1061.5071785368041
 30
0.0
 11
2265.829355828238
 21
1061.5071785368059
 31
0.0
  0
ARC
  5
1B2E7
  8
SJC
 10
1993.8293558282301
 20
1047.5071785368059
 30
0.0
 40
24.0
 50
90.0
 51
180.0
  0
ARC
  5
1B2E8
  8
SJC
 10
1993.8293558282301
 20
1047.5071785368059
 30
0.0
 40
14.0
 50
90.0
 51
180.0
  0
ARC
  5
1B2E9
  8
SJC
 10
2265.829355828238
 20
1047.5071785368059
 30
0.0
 40
24.0
 50
0.0
 51
90.0
  0
ARC
  5
1B2EA
  8
SJC
 10
2265.829355828238
 20
1047.5071785368059
 30
0.0
 40
14.0
 50
0.0
 51
90.0
  0
LINE
  5
1B2EB
  8
SJC
 10
1993.829355828228
 20
1081.507178536807
 30
0.0
 11
2265.829355828228
 21
1081.5071785368079
 31
0.0
  0
ARC
  5
1B2EC
  8
SJC
 10
2265.829355828228
 20
1095.5071785368079
 30
0.0
 40
24.0
 50
270.0
 51
0.0
  0
ARC
  5
1B2ED
  8
SJC
 10
2265.829355828228
 20
1095.5071785368079
 30
0.0
 40
14.0
 50
270.0
 51
0.0
  0
ARC
  5
1B2EE
  8
SJC
 10
1993.829355828228
 20
1095.5071785368079
 30
0.0
 40
24.0
 50
180.0
 51
270.0
  0
ARC
  5
1B2EF
  8
SJC
 10
1993.829355828228
 20
1095.5071785368079
 30
0.0
 40
14.0
 50
180.0
 51
270.0
  0
LINE
  5
1B2F0
  8
SJC
 10
2265.8293558282298
 20
1071.507178536807
 30
0.0
 11
1993.8293558282221
 21
1071.507178536807
 31
0.0
  0
LINE
  5
1B2F1
  8
SJC
 10
1979.829355828236
 20
1047.507178536805
 30
0.0
 11
1979.8293558282371
 21
934.50717853680499
 31
0.0
  0
LINE
  5
1B2F2
  8
SJC
 10
1969.8293558282351
 20
1047.507178536805
 30
0.0
 11
1969.829355828236
 21
934.50717853680521
 31
0.0
  0
LINE
  5
1B2F3
  8
SJC
 10
2279.8293558282389
 20
1047.507178536805
 30
0.0
 11
2279.8293558282371
 21
934.50717853680248
 31
0.0
  0
LINE
  5
1B2F4
  8
SJC
 10
2289.829355828238
 20
1047.507178536805
 30
0.0
 11
2289.829355828238
 21
934.50717853680203
 31
0.0
  0
LINE
  5
1B300
  8
SJC
 10
1969.829355828236
 20
894.50717853680555
 30
0.0
 11
1969.829355828236
 21
785.50717853680544
 31
0.0
  0
LINE
  5
1B301
  8
SJC
 10
1979.829355828238
 20
894.5071785368051
 30
0.0
 11
1979.829355828238
 21
785.5071785368059
 31
0.0
  0
LINE
  5
1B302
  8
SJC
 10
2279.8293558282362
 20
894.50717853680248
 30
0.0
 11
2279.8293558282348
 21
785.50717853680635
 31
0.0
  0
LINE
  5
1B303
  8
SJC
 10
2289.829355828238
 20
894.50717853680226
 30
0.0
 11
2289.8293558282371
 21
785.5071785368059
 31
0.0
  0
LINE
  5
1B304
  8
SJC
 10
2279.8293558282412
 20
1382.007178536807
 30
0.0
 11
2279.8293558282398
 21
1226.0071785367541
 31
0.0
  0
LINE
  5
1B305
  8
SJC
 10
2289.8293558282389
 20
1382.007178536807
 30
0.0
 11
2289.829355828238
 21
1226.0071785367541
 31
0.0
  0
LINE
  5
1B306
  8
SJC
 10
1979.8293558282351
 20
1382.00717853681
 30
0.0
 11
1979.8293558282351
 21
1226.007178536752
 31
0.0
  0
LINE
  5
1B307
  8
SJC
 10
1969.8293558282339
 20
1382.00717853681
 30
0.0
 11
1969.8293558282339
 21
1226.0071785367511
 31
0.0
  0
DIMENSION
  5
1B36A
  8
SUNPOU
  2
*D19
 10
1890.5003889504439
 20
1071.507178536807
 30
0.0
 11
1863.5003889504439
 21
1304.007178536807
 31
0.0
 70
     0
  1
510
 13
1993.8293558282089
 23
1536.507178536807
 33
0.0
 14
1993.8293558282089
 24
1071.507178536807
 34
0.0
 50
90.0
1001
ACAD
1000
DSTYLE
1002
{
1070
   287
1070
     5
1070
    40
1040
10.0
1070
    41
1040
2.0
1070
    42
1040
1.0
1070
    43
1040
6.0
1070
    44
1040
1.0
1070
    73
1070
     0
1070
    74
1070
     0
1070
    77
1070
     1
1070
    78
1070
     8
1070
   140
1040
3.0
1070
   147
1040
1.1999999999999991
1070
   172
1070
     1
1070
   179
1070
     2
1070
   271
1070
     2
1070
   279
1070
     2
1070
   340
1005
55
1002
}
  0
DIMENSION
  5
1B36B
  8
SUNPOU
  2
*D20
 10
1890.5003889504439
 20
761.50717853680544
 30
0.0
 11
1863.5003889504439
 21
916.50717853680658
 31
0.0
 70
     0
 13
1993.8293558282089
 23
1071.507178536807
 33
0.0
 14
1993.8293558282151
 24
761.50717853680544
 34
0.0
 50
90.0
1001
ACAD
1000
DSTYLE
1002
{
1070
   287
1070
     5
1070
    40
1040
10.0
1070
    41
1040
2.0
1070
    42
1040
1.0
1070
    43
1040
6.0
1070
    44
1040
1.0
1070
    73
1070
     0
1070
    74
1070
     0
1070
    77
1070
     1
1070
    78
1070
     8
1070
   140
1040
3.0
1070
   147
1040
1.1999999999999991
1070
   172
1070
     1
1070
   179
1070
     2
1070
   271
1070
     2
1070
   279
1070
     2
1070
   340
1005
55
1002
}
  0
LINE
  5
1B3A0
  8
SJC
 10
2969.4786626581472
 20
1382.007178536805
 30
0.0
 11
2969.4786626581472
 21
1226.00717853675
 31
0.0
1001
ACAD
1000
ASC_BOUNDS
1002
{
1070
    19
1002
}
  0
LINE
  5
1B3A2
  8
SJC
 10
2776.9786626583691
 20
1067.5071785368079
 30
0.0
 11
2776.9786626583691
 21
934.50717853684273
 31
0.0
  0
LINE
  5
1B3A4
  8
SJC
 10
2788.978662658476
 20
1067.5071785368109
 30
0.0
 11
2788.9786626585242
 21
934.50717853684273
 31
0.0
  0
LINE
  5
1B3A8
  8
SJC
 10
2776.9786626583691
 20
1067.5071785368079
 30
0.0
 11
2776.9786626583691
 21
934.50717853684273
 31
0.0
  0
LINE
  5
1B3AB
  8
SJC
 10
2848.9786626583232
 20
1006.374435173752
 30
0.0
 11
2848.9786626583559
 21
934.50717853684193
 31
0.0
  0
LINE
  5
1B3AC
  8
SJC
 10
2788.978662658476
 20
1075.5071785368059
 30
0.0
 11
2788.9786626584769
 21
1086.507178537245
 31
0.0
  0
LINE
  5
1B3AD
  8
SJC
 10
2788.9786626584778
 20
1086.507178536797
 30
0.0
 11
2788.9786626584778
 21
1075.5071785368059
 31
0.0
  0
LINE
  5
1B3AE
  8
SJC
 10
2784.9786626583659
 20
1071.5071785368059
 30
0.0
 11
2780.9786626583659
 21
1071.5071785368079
 31
0.0
  0
ARC
  5
1B3AF
  8
SJC
 10
2784.9786626583668
 20
1075.5071785368059
 30
0.0
 40
4.0
 50
270.0
 51
359.99999999997402
  0
ARC
  5
1B3B0
  8
SJC
 10
2780.9786626583668
 20
1075.5071785368079
 30
0.0
 40
4.0
 50
179.99999999998701
 51
270.0
  0
LINE
  5
1B3B1
  8
SJC
 10
2776.9786626583668
 20
1075.50717853681
 30
0.0
 11
2776.9786626583709
 21
1080.50717853681
 31
0.0
  0
LINE
  5
1B3B2
  8
SJC
 10
2901.978662659852
 20
1081.50717853685
 30
0.0
 11
2901.9786626598388
 21
1115.6826340537709
 31
0.0
  0
ARC
  5
1B3B3
  8
SJC
 10
2891.978662659852
 20
1081.5071785368471
 30
0.0
 40
10.0
 50
270.0
 51
0.0000000000260551
  0
LINE
  5
1B3B4
  8
SJC
 10
2891.9786626598552
 20
1071.5071785368409
 30
0.0
 11
2784.9786626583691
 21
1071.5071785368059
 31
0.0
  0
LINE
  5
1B3B5
  8
CENTER
 10
2881.9786626598502
 20
1100.5071785368441
 30
0.0
 11
2881.9786626598452
 21
1118.5071785368441
 31
0.0
  0
LINE
  5
1B3B6
  8
CENTER
 10
2890.9786626598479
 20
1109.5071785368471
 30
0.0
 11
2872.9786626598479
 21
1109.5071785368409
 31
0.0
  0
LINE
  5
1B3B9
  8
SJC
 10
2894.3838023886028
 20
1125.389090816414
 30
0.0
 11
2788.9786626583891
 21
1151.507178536807
 31
0.0
  0
ARC
  5
1B3BA
  8
SJC
 10
2891.9786626598388
 20
1115.6826340537671
 30
0.0
 40
10.0
 50
0.0000000000260551
 51
76.083122566894787
  0
LINE
  5
1B3BD
  8
CENTER
 10
2881.9786626613259
 20
1118.5071785368441
 30
0.0
 11
2881.9786626613209
 21
1100.5071785368441
 31
0.0
  0
LINE
  5
1B3BE
  8
CENTER
 10
2890.9786626613241
 20
1109.5071785368409
 30
0.0
 11
2872.9786626613241
 21
1109.5071785368471
 31
0.0
  0
LINE
  5
1B3BF
  8
CENTER
 10
2881.9786626613259
 20
1118.5071785368441
 30
0.0
 11
2881.9786626613209
 21
1100.5071785368441
 31
0.0
  0
LINE
  5
1B3C0
  8
CENTER
 10
2881.9786626613268
 20
1118.5071785368441
 30
0.0
 11
2881.97866266132
 21
1100.5071785368441
 31
0.0
  0
CIRCLE
  5
1B3C1
  8
SJC
 10
2881.9786626613231
 20
1109.5071785368441
 30
0.0
 40
9.0
  0
CIRCLE
  5
1B3C2
  8
SJC
 10
2881.9786626613231
 20
1109.5071785368441
 30
0.0
 40
8.0
  0
LINE
  5
1B3C3
  8
SJC2
 10
2881.1275988315351
 20
1115.4646253453541
 30
0.0
 11
2882.8297264911098
 21
1115.4646253453541
 31
0.0
  0
LINE
  5
1B3C4
  8
SJC2
 10
2887.9361094698338
 20
1110.358242366631
 30
0.0
 11
2887.9361094698338
 21
1108.6561147070549
 31
0.0
  0
LINE
  5
1B3C5
  8
SJC2
 10
2876.021215852812
 20
1110.358242366631
 30
0.0
 11
2876.021215852812
 21
1108.6561147070549
 31
0.0
  0
LINE
  5
1B3C6
  8
SJC2
 10
2881.1275988315351
 20
1103.5497317283341
 30
0.0
 11
2882.8297264911098
 21
1103.5497317283341
 31
0.0
  0
ARC
  5
1B3C7
  8
SJC2
 10
2887.9361094698338
 20
1103.5497317283341
 30
0.0
 40
5.1063829787233539
 50
90.0
 51
180.0
  0
ARC
  5
1B3C8
  8
SJC2
 10
2876.021215852812
 20
1103.5497317283341
 30
0.0
 40
5.1063829787233539
 50
0.0
 51
90.0
  0
ARC
  5
1B3C9
  8
SJC2
 10
2887.9361094698338
 20
1115.4646253453541
 30
0.0
 40
5.1063829787233539
 50
180.0
 51
270.0
  0
ARC
  5
1B3CA
  8
SJC2
 10
2876.021215852812
 20
1115.4646253453541
 30
0.0
 40
5.1063829787233539
 50
270.0
 51
0.0
  0
LINE
  5
1B3CB
  8
SJC
 10
2784.9786626583641
 20
1071.50717853681
 30
0.0
 11
2780.9786626583641
 21
1071.5071785368079
 31
0.0
  0
ARC
  5
1B3CC
  8
SJC
 10
2784.9786626583659
 20
1067.50717853681
 30
0.0
 40
4.0
 50
0.0000000000260551
 51
90.0
  0
ARC
  5
1B3CD
  8
SJC
 10
2780.9786626583659
 20
1067.5071785368079
 30
0.0
 40
4.0
 50
90.0
 51
180.00000000001299
  0
LINE
  5
1B3CE
  8
SJC
 10
2776.9786626583659
 20
1067.5071785368059
 30
0.0
 11
2776.9786626583691
 21
1062.507178536805
 31
0.0
  0
LINE
  5
1B3CF
  8
SJC
 10
2901.9786626598502
 20
1061.5071785367661
 30
0.0
 11
2901.978662659837
 21
1027.331723019845
 31
0.0
  0
ARC
  5
1B3D0
  8
SJC
 10
2891.9786626598502
 20
1061.5071785367691
 30
0.0
 40
10.0
 50
359.99999999997402
 51
90.0
  0
LINE
  5
1B3D1
  8
CENTER
 10
2881.9786626598479
 20
1042.507178536772
 30
0.0
 11
2881.9786626598429
 21
1024.507178536772
 31
0.0
  0
LINE
  5
1B3D2
  8
CENTER
 10
2890.9786626598461
 20
1033.5071785367691
 30
0.0
 11
2872.9786626598461
 21
1033.5071785367741
 31
0.0
  0
LINE
  5
1B3D5
  8
SJC
 10
2894.383802388601
 20
1017.625266257202
 30
0.0
 11
2788.9786626583868
 21
991.50717853680908
 31
0.0
  0
ARC
  5
1B3D6
  8
SJC
 10
2891.978662659837
 20
1027.3317230198479
 30
0.0
 40
10.0
 50
283.9168774331053
 51
359.99999999997402
  0
LINE
  5
1B3D9
  8
CENTER
 10
2881.9786626598489
 20
1042.507178536772
 30
0.0
 11
2881.978662659842
 21
1024.507178536772
 31
0.0
  0
CIRCLE
  5
1B3DA
  8
SJC
 10
2881.9786626598452
 20
1033.507178536772
 30
0.0
 40
9.0
  0
CIRCLE
  5
1B3DB
  8
SJC
 10
2881.9786626598452
 20
1033.507178536772
 30
0.0
 40
8.0
  0
LINE
  5
1B3DC
  8
SJC2
 10
2881.1275988300572
 20
1039.464625345282
 30
0.0
 11
2882.8297264896319
 21
1039.464625345282
 31
0.0
  0
LINE
  5
1B3DD
  8
SJC2
 10
2887.9361094683559
 20
1034.358242366558
 30
0.0
 11
2887.9361094683559
 21
1032.6561147069831
 31
0.0
  0
LINE
  5
1B3DE
  8
SJC2
 10
2876.0212158513341
 20
1034.358242366558
 30
0.0
 11
2876.0212158513341
 21
1032.6561147069831
 31
0.0
  0
LINE
  5
1B3DF
  8
SJC2
 10
2881.1275988300572
 20
1027.5497317282609
 30
0.0
 11
2882.8297264896319
 21
1027.5497317282609
 31
0.0
  0
ARC
  5
1B3E0
  8
SJC2
 10
2887.9361094683559
 20
1027.5497317282609
 30
0.0
 40
5.1063829787233539
 50
90.0
 51
180.0
  0
ARC
  5
1B3E1
  8
SJC2
 10
2876.0212158513341
 20
1027.5497317282609
 30
0.0
 40
5.1063829787233539
 50
0.0
 51
90.0
  0
ARC
  5
1B3E2
  8
SJC2
 10
2887.9361094683559
 20
1039.464625345282
 30
0.0
 40
5.1063829787233539
 50
180.0
 51
270.0
  0
ARC
  5
1B3E3
  8
SJC2
 10
2876.0212158513341
 20
1039.464625345282
 30
0.0
 40
5.1063829787233539
 50
270.0
 51
0.0
  0
LINE
  5
1B3EE
  8
SUNPOU
 10
2911.9786626583959
 20
934.50717853684193
 30
0.0
 11
2911.9786626583959
 21
904.50717853684125
 31
0.0
  0
LINE
  5
1B3EF
  8
SUNPOU
 10
2851.9786626583959
 20
964.50717853684114
 30
0.0
 11
2851.9786626583959
 21
934.50717853684193
 31
0.0
  0
LINE
  5
1B3F0
  8
SUNPOU
 10
3007.9786626584
 20
934.50717853684296
 30
0.0
 11
2911.9786626583959
 21
934.50717853684193
 31
0.0
  0
LINE
  5
1B3F1
  8
SUNPOU
 10
2755.9786626583932
 20
934.50717853684296
 30
0.0
 11
2851.9786626583959
 21
934.50717853684193
 31
0.0
  0
LINE
  5
1B3F2
  8
SUNPOU
 10
2851.9786626583959
 20
964.50717853684114
 30
0.0
 11
2911.9786626583959
 21
904.50717853684125
 31
0.0
  0
LINE
  5
1B3F3
  8
SUNPOU
 10
2911.9786626583959
 20
894.50717853684205
 30
0.0
 11
2911.9786626583959
 21
864.50717853684114
 31
0.0
  0
LINE
  5
1B3F4
  8
SUNPOU
 10
2851.9786626583959
 20
924.50717853684114
 30
0.0
 11
2851.9786626583959
 21
894.50717853684205
 31
0.0
  0
LINE
  5
1B3F5
  8
SUNPOU
 10
3007.9786626584
 20
894.50717853684296
 30
0.0
 11
2911.9786626583959
 21
894.50717853684205
 31
0.0
  0
LINE
  5
1B3F6
  8
SUNPOU
 10
2755.9786626583932
 20
894.50717853684296
 30
0.0
 11
2851.9786626583959
 21
894.50717853684205
 31
0.0
  0
LINE
  5
1B3F7
  8
SUNPOU
 10
2851.9786626583959
 20
924.50717853684114
 30
0.0
 11
2911.9786626583959
 21
864.50717853684114
 31
0.0
  0
LINE
  5
1B3F8
  8
SJC
 10
2848.978662656898
 20
894.50717853684205
 30
0.0
 11
2848.978662656928
 21
826.639921899868
 31
0.0
  0
LINE
  5
1B3F9
  8
SJC
 10
2788.9786626570608
 20
894.50717853684262
 30
0.0
 11
2788.9786626571081
 21
765.50717853686092
 31
0.0
  0
LINE
  5
1B3FA
  8
SJC
 10
2776.978662656893
 20
894.50717853684239
 30
0.0
 11
2776.978662656893
 21
765.50717853640981
 31
0.0
  0
LINE
  5
1B3FB
  8
SJC
 10
2776.978662656893
 20
894.50717853684239
 30
0.0
 11
2776.978662656893
 21
765.507178536879
 31
0.0
  0
LINE
  5
1B405
  8
SJC
 10
2969.478662656893
 20
1186.0071785367491
 30
0.0
 11
2969.478662656893
 21
934.5071785368425
 31
0.0
1001
ACAD
1000
ASC_BOUNDS
1002
{
1070
    19
1002
}
  0
LINE
  5
1B406
  8
SJC
 10
2969.478662656893
 20
894.50717853684239
 30
0.0
 11
2969.4786626568939
 21
647.00717853680283
 31
0.0
1001
ACAD
1000
ASC_BOUNDS
1002
{
1070
    19
1002
}
  0
LINE
  5
1B408
  8
SJC
 10
2848.9786626568471
 20
1006.374435173386
 30
0.0
 11
2848.9786626568798
 21
934.50717853684193
 31
0.0
  0
INSERT
  5
1B920
  8
HATCH
  6
CONTINUOUS
  2
*X33
 10
0.0
 20
0.0
 30
0.0
1001
ACAD
1000
HATCH
1002
{
1070
    19
1000
ANSI37
1040
4.0
1040
0.0
1000
ASC_BOUNDS
1070
     1
1070
     2
1070
     4
1005
19536
1005
19535
1005
19538
1005
19537
1000
ASC_SEEDPOINT
1011
0.0
1021
0.0
1031
0.0
1021
0.0
1031
0.0
1000
R14_HATCH_DATA
1000
1B920
1011
1.0
1021
0.0
1031
0.0
1021
0.0
1031
0.0
1011
0.0
1021
0.0
1031
0.0
1021
1.0
1031
0.0
1011
0.0
1021
0.0
1031
0.0
1021
0.0
1031
1.0
1040
0.0
1010
0.0
1020
0.0
1030
1.0
1000
ANSI37
1070
     0
1070
     1
1071
        1
1071
        1
1071
        4
1070
     1
1040
2969.478662656893
1040
1536.507178536805
1040
2794.478662656893
1040
1536.507178536805
1070
     1
1040
2794.478662656893
1040
1536.507178536805
1040
2794.4786626568912
1040
1616.507178536805
1070
     1
1040
2794.478662656893
1040
1616.507178536807
1040
2969.478662656893
1040
1616.507178536807
1070
     1
1040
2969.478662656893
1040
1616.507178536807
1040
2969.478662656893
1040
1536.507178536805
1071
        4
1005
19537
1005
19538
1005
19535
1005
19536
1070
     0
1070
     1
1040
0.0
1040
4.0
1070
     0
1070
     2
1040
0.7853981633974483
1040
0.0
1040
0.0
1040
-8.9802561210691518
1040
8.9802561210691536
1070
     0
1040
2.3561944901923439
1040
0.0
1040
0.0
1040
-8.9802561210691536
1040
-8.9802561210691518
1070
     0
1071
        1
1040
0.0
1040
0.0
1040
0.0
1002
}
  0
INSERT
  5
1B921
  8
HATCH
  6
CONTINUOUS
  2
*X34
 10
0.0
 20
0.0
 30
0.0
1001
ACAD
1000
HATCH
1002
{
1070
    19
1000
ANSI37
1040
4.0
1040
0.0
1000
ASC_BOUNDS
1070
     1
1070
     2
1070
     4
1005
19536
1005
19535
1005
19538
1005
19537
1000
ASC_SEEDPOINT
1011
-752.14930682865815
1021
0.0
1031
0.0
1021
0.0
1031
0.0
1000
R14_HATCH_DATA
1000
1B921
1011
1.0
1021
0.0
1031
0.0
1021
0.0
1031
0.0
1011
0.0
1021
0.0
1031
0.0
1021
1.0
1031
0.0
1011
0.0
1021
0.0
1031
0.0
1021
0.0
1031
1.0
1040
0.0
1010
0.0
1020
0.0
1030
1.0
1000
ANSI37
1070
     0
1070
     1
1071
        1
1071
        1
1071
        4
1070
     1
1040
2217.3293558282348
1040
1536.507178536805
1040
2042.3293558282351
1040
1536.507178536805
1070
     1
1040
2042.3293558282351
1040
1536.507178536805
1040
2042.329355828233
1040
1616.507178536805
1070
     1
1040
2042.3293558282351
1040
1616.507178536807
1040
2217.3293558282348
1040
1616.507178536807
1070
     1
1040
2217.3293558282348
1040
1616.507178536807
1040
2217.3293558282348
1040
1536.507178536805
1071
        4
1005
19537
1005
19538
1005
19535
1005
19536
1070
     0
1070
     1
1040
0.0
1040
4.0
1070
     0
1070
     2
1040
0.7853981633974483
1040
-752.14930682865815
1040
0.0
1040
-8.9802561210691518
1040
8.9802561210691536
1070
     0
1040
2.3561944901923439
1040
-752.14930682865815
1040
0.0
1040
-8.9802561210691536
1040
-8.9802561210691518
1070
     0
1071
        1
1040
-752.14930682865815
1040
0.0
1040
0.0
1002
}
  0
INSERT
  5
1B9A2
  8
HATCH
  6
CONTINUOUS
  2
*X35
 10
0.0
 20
0.0
 30
0.0
1001
ACAD
1000
HATCH
1002
{
1070
    19
1000
ANSI37
1040
2.0
1040
0.0
1000
ASC_BOUNDS
1070
     1
1070
     2
1070
     4
1005
194BD
1005
194BC
1005
194BF
1005
194BE
1000
ASC_SEEDPOINT
1011
0.0
1021
0.0
1031
0.0
1021
0.0
1031
0.0
1000
R14_HATCH_DATA
1000
1B9A2
1011
1.0
1021
0.0
1031
0.0
1021
0.0
1031
0.0
1011
0.0
1021
0.0
1031
0.0
1021
1.0
1031
0.0
1011
0.0
1021
0.0
1031
0.0
1021
0.0
1031
1.0
1040
0.0
1010
0.0
1020
0.0
1030
1.0
1000
ANSI37
1070
     0
1070
     1
1071
        1
1071
        1
1071
        4
1070
     1
1040
1460.6132148796351
1040
2451.200391796714
1040
1373.1132148796351
1040
2451.200391796714
1070
     1
1040
1373.1132148796351
1040
2451.200391796714
1040
1373.1132148796339
1040
2491.200391796714
1070
     1
1040
1373.1132148796351
1040
2491.2003917967149
1040
1460.6132148796339
1040
2491.2003917967149
1070
     1
1040
1460.6132148796339
1040
2491.2003917967149
1040
1460.6132148796351
1040
2451.200391796714
1071
        4
1005
194BE
1005
194BF
1005
194BC
1005
194BD
1070
     0
1070
     1
1040
0.0
1040
2.0
1070
     0
1070
     2
1040
0.7853981633974483
1040
0.0
1040
0.0
1040
-4.490128060534575
1040
4.4901280605345759
1070
     0
1040
2.3561944901923439
1040
0.0
1040
0.0
1040
-4.4901280605345759
1040
-4.490128060534575
1070
     0
1071
        1
1040
0.0
1040
0.0
1040
0.0
1002
}
  0
INSERT
  5
1B9A3
  8
HATCH
  6
CONTINUOUS
  2
*X36
 10
0.0
 20
0.0
 30
0.0
1001
ACAD
1000
HATCH
1002
{
1070
    19
1000
ANSI37
1040
2.0
1040
0.0
1000
ASC_BOUNDS
1070
     1
1070
     2
1070
     4
1005
194BD
1005
194BC
1005
194BF
1005
194BE
1000
ASC_SEEDPOINT
1011
-729.21583313409417
1021
0.0
1031
0.0
1021
0.0
1031
0.0
1000
R14_HATCH_DATA
1000
1B9A3
1011
1.0
1021
0.0
1031
0.0
1021
0.0
1031
0.0
1011
0.0
1021
0.0
1031
0.0
1021
1.0
1031
0.0
1011
0.0
1021
0.0
1031
0.0
1021
0.0
1031
1.0
1040
0.0
1010
0.0
1020
0.0
1030
1.0
1000
ANSI37
1070
     0
1070
     1
1071
        1
1071
        1
1071
        4
1070
     1
1040
731.39738174554077
1040
2451.200391796714
1040
643.89738174554032
1040
2451.200391796714
1070
     1
1040
643.89738174554032
1040
2451.200391796714
1040
643.89738174553975
1040
2491.200391796714
1070
     1
1040
643.89738174554077
1040
2491.2003917967149
1040
731.39738174554032
1040
2491.2003917967149
1070
     1
1040
731.39738174554032
1040
2491.2003917967149
1040
731.39738174554077
1040
2451.200391796714
1071
        4
1005
194BE
1005
194BF
1005
194BC
1005
194BD
1070
     0
1070
     1
1040
0.0
1040
2.0
1070
     0
1070
     2
1040
0.7853981633974483
1040
-729.21583313409417
1040
0.0
1040
-4.490128060534575
1040
4.4901280605345759
1070
     0
1040
2.3561944901923439
1040
-729.21583313409417
1040
0.0
1040
-4.4901280605345759
1040
-4.490128060534575
1070
     0
1071
        1
1040
-729.21583313409417
1040
0.0
1040
0.0
1002
}
  0
POLYLINE
  5
1BAA7
  8
SJC2
 10
498.42551578931096
 20
153.18326869756513
 30
0.0
 66
     1
 70
     8
  0
VERTEX
  8
SJC2
  5
1D21C
 10
498.426
 20
153.183
 30
0.000000
  70
    32
  0
VERTEX
  8
SJC2
  5
1D21D
 10
499.592
 20
152.588
 30
0.000000
  70
    32
  0
VERTEX
  8
SJC2
  5
1D21E
 10
500.822
 20
152.111
 30
0.000000
  70
    32
  0
VERTEX
  8
SJC2
  5
1D21F
 10
502.115
 20
151.753
 30
0.000000
  70
    32
  0
VERTEX
  8
SJC2
  5
1D220
 10
503.466
 20
151.516
 30
0.000000
  70
    32
  0
VERTEX
  8
SJC2
  5
1D221
 10
504.872
 20
151.399
 30
0.000000
  70
    32
  0
VERTEX
  8
SJC2
  5
1D222
 10
506.330
 20
151.404
 30
0.000000
  70
    32
  0
VERTEX
  8
SJC2
  5
1D223
 10
507.837
 20
151.530
 30
0.000000
  70
    32
  0
VERTEX
  8
SJC2
  5
1D224
 10
509.388
 20
151.776
 30
0.000000
  70
    32
  0
VERTEX
  8
SJC2
  5
1D225
 10
510.981
 20
152.143
 30
0.000000
  70
    32
  0
VERTEX
  8
SJC2
  5
1D226
 10
512.610
 20
152.629
 30
0.000000
  70
    32
  0
VERTEX
  8
SJC2
  5
1D227
 10
514.273
 20
153.234
 30
0.000000
  70
    32
  0
VERTEX
  8
SJC2
  5
1D228
 10
515.965
 20
153.955
 30
0.000000
  70
    32
  0
VERTEX
  8
SJC2
  5
1D229
 10
517.683
 20
154.791
 30
0.000000
  70
    32
  0
VERTEX
  8
SJC2
  5
1D22A
 10
519.421
 20
155.740
 30
0.000000
  70
    32
  0
VERTEX
  8
SJC2
  5
1D22B
 10
521.177
 20
156.799
 30
0.000000
  70
    32
  0
VERTEX
  8
SJC2
  5
1D22C
 10
522.945
 20
157.967
 30
0.000000
  70
    32
  0
VERTEX
  8
SJC2
  5
1D22D
 10
524.721
 20
159.240
 30
0.000000
  70
    32
  0
VERTEX
  8
SJC2
  5
1D22E
 10
526.502
 20
160.616
 30
0.000000
  70
    32
  0
VERTEX
  8
SJC2
  5
1D22F
 10
528.282
 20
162.090
 30
0.000000
  70
    32
  0
VERTEX
  8
SJC2
  5
1D230
 10
530.058
 20
163.660
 30
0.000000
  70
    32
  0
VERTEX
  8
SJC2
  5
1D231
 10
531.825
 20
165.321
 30
0.000000
  70
    32
  0
VERTEX
  8
SJC2
  5
1D232
 10
533.579
 20
167.070
 30
0.000000
  70
    32
  0
VERTEX
  8
SJC2
  5
1D233
 10
535.316
 20
168.902
 30
0.000000
  70
    32
  0
VERTEX
  8
SJC2
  5
1D234
 10
537.031
 20
170.813
 30
0.000000
  70
    32
  0
VERTEX
  8
SJC2
  5
1D235
 10
538.721
 20
172.799
 30
0.000000
  70
    32
  0
VERTEX
  8
SJC2
  5
1D236
 10
540.381
 20
174.854
 30
0.000000
  70
    32
  0
VERTEX
  8
SJC2
  5
1D237
 10
542.008
 20
176.974
 30
0.000000
  70
    32
  0
VERTEX
  8
SJC2
  5
1D238
 10
543.597
 20
179.153
 30
0.000000
  70
    32
  0
VERTEX
  8
SJC2
  5
1D239
 10
545.145
 20
181.387
 30
0.000000
  70
    32
  0
VERTEX
  8
SJC2
  5
1D23A
 10
546.648
 20
183.669
 30
0.000000
  70
    32
  0
VERTEX
  8
SJC2
  5
1D23B
 10
548.102
 20
185.995
 30
0.000000
  70
    32
  0
VERTEX
  8
SJC2
  5
1D23C
 10
549.503
 20
188.359
 30
0.000000
  70
    32
  0
VERTEX
  8
SJC2
  5
1D23D
 10
550.850
 20
190.755
 30
0.000000
  70
    32
  0
VERTEX
  8
SJC2
  5
1D23E
 10
552.137
 20
193.177
 30
0.000000
  70
    32
  0
VERTEX
  8
SJC2
  5
1D23F
 10
553.362
 20
195.620
 30
0.000000
  70
    32
  0
VERTEX
  8
SJC2
  5
1D240
 10
554.523
 20
198.077
 30
0.000000
  70
    32
  0
VERTEX
  8
SJC2
  5
1D241
 10
555.616
 20
200.543
 30
0.000000
  70
    32
  0
VERTEX
  8
SJC2
  5
1D242
 10
556.638
 20
203.011
 30
0.000000
  70
    32
  0
VERTEX
  8
SJC2
  5
1D243
 10
557.588
 20
205.477
 30
0.000000
  70
    32
  0
VERTEX
  8
SJC2
  5
1D244
 10
558.462
 20
207.933
 30
0.000000
  70
    32
  0
VERTEX
  8
SJC2
  5
1D245
 10
559.260
 20
210.374
 30
0.000000
  70
    32
  0
VERTEX
  8
SJC2
  5
1D246
 10
559.978
 20
212.795
 30
0.000000
  70
    32
  0
VERTEX
  8
SJC2
  5
1D247
 10
560.616
 20
215.188
 30
0.000000
  70
    32
  0
VERTEX
  8
SJC2
  5
1D248
 10
561.171
 20
217.549
 30
0.000000
  70
    32
  0
VERTEX
  8
SJC2
  5
1D249
 10
561.642
 20
219.872
 30
0.000000
  70
    32
  0
VERTEX
  8
SJC2
  5
1D24A
 10
562.029
 20
222.151
 30
0.000000
  70
    32
  0
VERTEX
  8
SJC2
  5
1D24B
 10
562.330
 20
224.380
 30
0.000000
  70
    32
  0
VERTEX
  8
SJC2
  5
1D24C
 10
562.544
 20
226.555
 30
0.000000
  70
    32
  0
VERTEX
  8
SJC2
  5
1D24D
 10
562.671
 20
228.671
 30
0.000000
  70
    32
  0
VERTEX
  8
SJC2
  5
1D24E
 10
562.711
 20
230.721
 30
0.000000
  70
    32
  0
VERTEX
  8
SJC2
  5
1D24F
 10
562.664
 20
232.701
 30
0.000000
  70
    32
  0
VERTEX
  8
SJC2
  5
1D250
 10
562.529
 20
234.606
 30
0.000000
  70
    32
  0
VERTEX
  8
SJC2
  5
1D251
 10
562.308
 20
236.432
 30
0.000000
  70
    32
  0
VERTEX
  8
SJC2
  5
1D252
 10
562.000
 20
238.174
 30
0.000000
  70
    32
  0
VERTEX
  8
SJC2
  5
1D253
 10
561.606
 20
239.829
 30
0.000000
  70
    32
  0
VERTEX
  8
SJC2
  5
1D254
 10
561.127
 20
241.391
 30
0.000000
  70
    32
  0
VERTEX
  8
SJC2
  5
1D255
 10
560.565
 20
242.858
 30
0.000000
  70
    32
  0
VERTEX
  8
SJC2
  5
1D256
 10
559.921
 20
244.226
 30
0.000000
  70
    32
  0
VERTEX
  8
SJC2
  5
1D257
 10
559.196
 20
245.491
 30
0.000000
  70
    32
  0
VERTEX
  8
SJC2
  5
1D258
 10
558.392
 20
246.650
 30
0.000000
  70
    32
  0
VERTEX
  8
SJC2
  5
1D259
 10
557.511
 20
247.702
 30
0.000000
  70
    32
  0
VERTEX
  8
SJC2
  5
1D25A
 10
556.555
 20
248.642
 30
0.000000
  70
    32
  0
VERTEX
  8
SJC2
  5
1D25B
 10
555.526
 20
249.469
 30
0.000000
  70
    32
  0
VERTEX
  8
SJC2
  5
1D25C
 10
554.428
 20
250.182
 30
0.000000
  70
    32
  0
VERTEX
  8
SJC2
  5
1D25D
 10
553.262
 20
250.777
 30
0.000000
  70
    32
  0
VERTEX
  8
SJC2
  5
1D25E
 10
552.031
 20
251.254
 30
0.000000
  70
    32
  0
VERTEX
  8
SJC2
  5
1D25F
 10
550.738
 20
251.612
 30
0.000000
  70
    32
  0
VERTEX
  8
SJC2
  5
1D260
 10
549.387
 20
251.849
 30
0.000000
  70
    32
  0
VERTEX
  8
SJC2
  5
1D261
 10
547.981
 20
251.966
 30
0.000000
  70
    32
  0
VERTEX
  8
SJC2
  5
1D262
 10
546.523
 20
251.961
 30
0.000000
  70
    32
  0
VERTEX
  8
SJC2
  5
1D263
 10
545.016
 20
251.835
 30
0.000000
  70
    32
  0
VERTEX
  8
SJC2
  5
1D264
 10
543.465
 20
251.589
 30
0.000000
  70
    32
  0
VERTEX
  8
SJC2
  5
1D265
 10
541.873
 20
251.222
 30
0.000000
  70
    32
  0
VERTEX
  8
SJC2
  5
1D266
 10
540.243
 20
250.736
 30
0.000000
  70
    32
  0
VERTEX
  8
SJC2
  5
1D267
 10
538.580
 20
250.131
 30
0.000000
  70
    32
  0
VERTEX
  8
SJC2
  5
1D268
 10
536.888
 20
249.410
 30
0.000000
  70
    32
  0
VERTEX
  8
SJC2
  5
1D269
 10
535.170
 20
248.574
 30
0.000000
  70
    32
  0
VERTEX
  8
SJC2
  5
1D26A
 10
533.432
 20
247.625
 30
0.000000
  70
    32
  0
VERTEX
  8
SJC2
  5
1D26B
 10
531.676
 20
246.565
 30
0.000000
  70
    32
  0
VERTEX
  8
SJC2
  5
1D26C
 10
529.908
 20
245.398
 30
0.000000
  70
    32
  0
VERTEX
  8
SJC2
  5
1D26D
 10
528.132
 20
244.125
 30
0.000000
  70
    32
  0
VERTEX
  8
SJC2
  5
1D26E
 10
526.352
 20
242.749
 30
0.000000
  70
    32
  0
VERTEX
  8
SJC2
  5
1D26F
 10
524.571
 20
241.275
 30
0.000000
  70
    32
  0
VERTEX
  8
SJC2
  5
1D270
 10
522.795
 20
239.705
 30
0.000000
  70
    32
  0
VERTEX
  8
SJC2
  5
1D271
 10
521.028
 20
238.044
 30
0.000000
  70
    32
  0
VERTEX
  8
SJC2
  5
1D272
 10
519.274
 20
236.295
 30
0.000000
  70
    32
  0
VERTEX
  8
SJC2
  5
1D273
 10
517.537
 20
234.463
 30
0.000000
  70
    32
  0
VERTEX
  8
SJC2
  5
1D274
 10
515.822
 20
232.552
 30
0.000000
  70
    32
  0
VERTEX
  8
SJC2
  5
1D275
 10
514.132
 20
230.566
 30
0.000000
  70
    32
  0
VERTEX
  8
SJC2
  5
1D276
 10
512.472
 20
228.511
 30
0.000000
  70
    32
  0
VERTEX
  8
SJC2
  5
1D277
 10
510.845
 20
226.391
 30
0.000000
  70
    32
  0
VERTEX
  8
SJC2
  5
1D278
 10
509.256
 20
224.212
 30
0.000000
  70
    32
  0
VERTEX
  8
SJC2
  5
1D279
 10
507.708
 20
221.978
 30
0.000000
  70
    32
  0
VERTEX
  8
SJC2
  5
1D27A
 10
506.205
 20
219.696
 30
0.000000
  70
    32
  0
VERTEX
  8
SJC2
  5
1D27B
 10
504.751
 20
217.370
 30
0.000000
  70
    32
  0
VERTEX
  8
SJC2
  5
1D27C
 10
503.350
 20
215.006
 30
0.000000
  70
    32
  0
VERTEX
  8
SJC2
  5
1D27D
 10
502.003
 20
212.610
 30
0.000000
  70
    32
  0
VERTEX
  8
SJC2
  5
1D27E
 10
500.716
 20
210.188
 30
0.000000
  70
    32
  0
VERTEX
  8
SJC2
  5
1D27F
 10
499.491
 20
207.745
 30
0.000000
  70
    32
  0
VERTEX
  8
SJC2
  5
1D280
 10
498.330
 20
205.288
 30
0.000000
  70
    32
  0
VERTEX
  8
SJC2
  5
1D281
 10
497.238
 20
202.822
 30
0.000000
  70
    32
  0
VERTEX
  8
SJC2
  5
1D282
 10
496.215
 20
200.354
 30
0.000000
  70
    32
  0
VERTEX
  8
SJC2
  5
1D283
 10
495.265
 20
197.888
 30
0.000000
  70
    32
  0
VERTEX
  8
SJC2
  5
1D284
 10
494.391
 20
195.432
 30
0.000000
  70
    32
  0
VERTEX
  8
SJC2
  5
1D285
 10
493.593
 20
192.991
 30
0.000000
  70
    32
  0
VERTEX
  8
SJC2
  5
1D286
 10
492.875
 20
190.570
 30
0.000000
  70
    32
  0
VERTEX
  8
SJC2
  5
1D287
 10
492.237
 20
188.177
 30
0.000000
  70
    32
  0
VERTEX
  8
SJC2
  5
1D288
 10
491.682
 20
185.816
 30
0.000000
  70
    32
  0
VERTEX
  8
SJC2
  5
1D289
 10
491.211
 20
183.493
 30
0.000000
  70
    32
  0
VERTEX
  8
SJC2
  5
1D28A
 10
490.824
 20
181.214
 30
0.000000
  70
    32
  0
VERTEX
  8
SJC2
  5
1D28B
 10
490.523
 20
178.984
 30
0.000000
  70
    32
  0
VERTEX
  8
SJC2
  5
1D28C
 10
490.309
 20
176.809
 30
0.000000
  70
    32
  0
VERTEX
  8
SJC2
  5
1D28D
 10
490.182
 20
174.694
 30
0.000000
  70
    32
  0
VERTEX
  8
SJC2
  5
1D28E
 10
490.142
 20
172.644
 30
0.000000
  70
    32
  0
VERTEX
  8
SJC2
  5
1D28F
 10
490.189
 20
170.664
 30
0.000000
  70
    32
  0
VERTEX
  8
SJC2
  5
1D290
 10
490.324
 20
168.759
 30
0.000000
  70
    32
  0
VERTEX
  8
SJC2
  5
1D291
 10
490.545
 20
166.933
 30
0.000000
  70
    32
  0
VERTEX
  8
SJC2
  5
1D292
 10
490.853
 20
165.191
 30
0.000000
  70
    32
  0
VERTEX
  8
SJC2
  5
1D293
 10
491.247
 20
163.536
 30
0.000000
  70
    32
  0
VERTEX
  8
SJC2
  5
1D294
 10
491.726
 20
161.974
 30
0.000000
  70
    32
  0
VERTEX
  8
SJC2
  5
1D295
 10
492.288
 20
160.507
 30
0.000000
  70
    32
  0
VERTEX
  8
SJC2
  5
1D296
 10
492.932
 20
159.139
 30
0.000000
  70
    32
  0
VERTEX
  8
SJC2
  5
1D297
 10
493.657
 20
157.874
 30
0.000000
  70
    32
  0
VERTEX
  8
SJC2
  5
1D298
 10
494.461
 20
156.714
 30
0.000000
  70
    32
  0
VERTEX
  8
SJC2
  5
1D299
 10
495.342
 20
155.663
 30
0.000000
  70
    32
  0
VERTEX
  8
SJC2
  5
1D29A
 10
496.298
 20
154.723
 30
0.000000
  70
    32
  0
VERTEX
  8
SJC2
  5
1D29B
 10
497.327
 20
153.895
 30
0.000000
  70
    32
  0
VERTEX
  8
SJC2
  5
1D29C
 10
498.426
 20
153.183
 30
0.000000
  70
    32
  0
SEQEND
  8
SJC2
  5
1D29D
  0
POLYLINE
  5
1BAA8
  8
SJC2
 10
560.68523048196744
 20
153.18326869756513
 30
0.0
 66
     1
 70
     8
  0
VERTEX
  8
SJC2
  5
1D29E
 10
560.685
 20
153.183
 30
0.000000
  70
    32
  0
VERTEX
  8
SJC2
  5
1D29F
 10
561.851
 20
152.588
 30
0.000000
  70
    32
  0
VERTEX
  8
SJC2
  5
1D2A0
 10
563.082
 20
152.111
 30
0.000000
  70
    32
  0
VERTEX
  8
SJC2
  5
1D2A1
 10
564.374
 20
151.753
 30
0.000000
  70
    32
  0
VERTEX
  8
SJC2
  5
1D2A2
 10
565.725
 20
151.516
 30
0.000000
  70
    32
  0
VERTEX
  8
SJC2
  5
1D2A3
 10
567.132
 20
151.399
 30
0.000000
  70
    32
  0
VERTEX
  8
SJC2
  5
1D2A4
 10
568.590
 20
151.404
 30
0.000000
  70
    32
  0
VERTEX
  8
SJC2
  5
1D2A5
 10
570.096
 20
151.530
 30
0.000000
  70
    32
  0
VERTEX
  8
SJC2
  5
1D2A6
 10
571.648
 20
151.776
 30
0.000000
  70
    32
  0
VERTEX
  8
SJC2
  5
1D2A7
 10
573.240
 20
152.143
 30
0.000000
  70
    32
  0
VERTEX
  8
SJC2
  5
1D2A8
 10
574.870
 20
152.629
 30
0.000000
  70
    32
  0
VERTEX
  8
SJC2
  5
1D2A9
 10
576.533
 20
153.234
 30
0.000000
  70
    32
  0
VERTEX
  8
SJC2
  5
1D2AA
 10
578.225
 20
153.955
 30
0.000000
  70
    32
  0
VERTEX
  8
SJC2
  5
1D2AB
 10
579.943
 20
154.791
 30
0.000000
  70
    32
  0
VERTEX
  8
SJC2
  5
1D2AC
 10
581.681
 20
155.740
 30
0.000000
  70
    32
  0
VERTEX
  8
SJC2
  5
1D2AD
 10
583.436
 20
156.799
 30
0.000000
  70
    32
  0
VERTEX
  8
SJC2
  5
1D2AE
 10
585.204
 20
157.967
 30
0.000000
  70
    32
  0
VERTEX
  8
SJC2
  5
1D2AF
 10
586.981
 20
159.240
 30
0.000000
  70
    32
  0
VERTEX
  8
SJC2
  5
1D2B0
 10
588.761
 20
160.616
 30
0.000000
  70
    32
  0
VERTEX
  8
SJC2
  5
1D2B1
 10
590.542
 20
162.090
 30
0.000000
  70
    32
  0
VERTEX
  8
SJC2
  5
1D2B2
 10
592.317
 20
163.660
 30
0.000000
  70
    32
  0
VERTEX
  8
SJC2
  5
1D2B3
 10
594.085
 20
165.321
 30
0.000000
  70
    32
  0
VERTEX
  8
SJC2
  5
1D2B4
 10
595.839
 20
167.070
 30
0.000000
  70
    32
  0
VERTEX
  8
SJC2
  5
1D2B5
 10
597.576
 20
168.902
 30
0.000000
  70
    32
  0
VERTEX
  8
SJC2
  5
1D2B6
 10
599.291
 20
170.813
 30
0.000000
  70
    32
  0
VERTEX
  8
SJC2
  5
1D2B7
 10
600.981
 20
172.799
 30
0.000000
  70
    32
  0
VERTEX
  8
SJC2
  5
1D2B8
 10
602.641
 20
174.854
 30
0.000000
  70
    32
  0
VERTEX
  8
SJC2
  5
1D2B9
 10
604.268
 20
176.974
 30
0.000000
  70
    32
  0
VERTEX
  8
SJC2
  5
1D2BA
 10
605.857
 20
179.153
 30
0.000000
  70
    32
  0
VERTEX
  8
SJC2
  5
1D2BB
 10
607.405
 20
181.387
 30
0.000000
  70
    32
  0
VERTEX
  8
SJC2
  5
1D2BC
 10
608.907
 20
183.669
 30
0.000000
  70
    32
  0
VERTEX
  8
SJC2
  5
1D2BD
 10
610.361
 20
185.995
 30
0.000000
  70
    32
  0
VERTEX
  8
SJC2
  5
1D2BE
 10
611.763
 20
188.359
 30
0.000000
  70
    32
  0
VERTEX
  8
SJC2
  5
1D2BF
 10
613.109
 20
190.755
 30
0.000000
  70
    32
  0
VERTEX
  8
SJC2
  5
1D2C0
 10
614.397
 20
193.177
 30
0.000000
  70
    32
  0
VERTEX
  8
SJC2
  5
1D2C1
 10
615.622
 20
195.620
 30
0.000000
  70
    32
  0
VERTEX
  8
SJC2
  5
1D2C2
 10
616.782
 20
198.077
 30
0.000000
  70
    32
  0
VERTEX
  8
SJC2
  5
1D2C3
 10
617.875
 20
200.543
 30
0.000000
  70
    32
  0
VERTEX
  8
SJC2
  5
1D2C4
 10
618.898
 20
203.011
 30
0.000000
  70
    32
  0
VERTEX
  8
SJC2
  5
1D2C5
 10
619.847
 20
205.477
 30
0.000000
  70
    32
  0
VERTEX
  8
SJC2
  5
1D2C6
 10
620.722
 20
207.933
 30
0.000000
  70
    32
  0
VERTEX
  8
SJC2
  5
1D2C7
 10
621.520
 20
210.374
 30
0.000000
  70
    32
  0
VERTEX
  8
SJC2
  5
1D2C8
 10
622.238
 20
212.795
 30
0.000000
  70
    32
  0
VERTEX
  8
SJC2
  5
1D2C9
 10
622.875
 20
215.188
 30
0.000000
  70
    32
  0
VERTEX
  8
SJC2
  5
1D2CA
 10
623.431
 20
217.549
 30
0.000000
  70
    32
  0
VERTEX
  8
SJC2
  5
1D2CB
 10
623.902
 20
219.872
 30
0.000000
  70
    32
  0
VERTEX
  8
SJC2
  5
1D2CC
 10
624.289
 20
222.151
 30
0.000000
  70
    32
  0
VERTEX
  8
SJC2
  5
1D2CD
 10
624.589
 20
224.380
 30
0.000000
  70
    32
  0
VERTEX
  8
SJC2
  5
1D2CE
 10
624.804
 20
226.555
 30
0.000000
  70
    32
  0
VERTEX
  8
SJC2
  5
1D2CF
 10
624.931
 20
228.671
 30
0.000000
  70
    32
  0
VERTEX
  8
SJC2
  5
1D2D0
 10
624.971
 20
230.721
 30
0.000000
  70
    32
  0
VERTEX
  8
SJC2
  5
1D2D1
 10
624.924
 20
232.701
 30
0.000000
  70
    32
  0
VERTEX
  8
SJC2
  5
1D2D2
 10
624.789
 20
234.606
 30
0.000000
  70
    32
  0
VERTEX
  8
SJC2
  5
1D2D3
 10
624.567
 20
236.432
 30
0.000000
  70
    32
  0
VERTEX
  8
SJC2
  5
1D2D4
 10
624.259
 20
238.174
 30
0.000000
  70
    32
  0
VERTEX
  8
SJC2
  5
1D2D5
 10
623.866
 20
239.829
 30
0.000000
  70
    32
  0
VERTEX
  8
SJC2
  5
1D2D6
 10
623.387
 20
241.391
 30
0.000000
  70
    32
  0
VERTEX
  8
SJC2
  5
1D2D7
 10
622.825
 20
242.858
 30
0.000000
  70
    32
  0
VERTEX
  8
SJC2
  5
1D2D8
 10
622.180
 20
244.226
 30
0.000000
  70
    32
  0
VERTEX
  8
SJC2
  5
1D2D9
 10
621.455
 20
245.491
 30
0.000000
  70
    32
  0
VERTEX
  8
SJC2
  5
1D2DA
 10
620.651
 20
246.650
 30
0.000000
  70
    32
  0
VERTEX
  8
SJC2
  5
1D2DB
 10
619.770
 20
247.702
 30
0.000000
  70
    32
  0
VERTEX
  8
SJC2
  5
1D2DC
 10
618.814
 20
248.642
 30
0.000000
  70
    32
  0
VERTEX
  8
SJC2
  5
1D2DD
 10
617.786
 20
249.469
 30
0.000000
  70
    32
  0
VERTEX
  8
SJC2
  5
1D2DE
 10
616.687
 20
250.182
 30
0.000000
  70
    32
  0
VERTEX
  8
SJC2
  5
1D2DF
 10
615.521
 20
250.777
 30
0.000000
  70
    32
  0
VERTEX
  8
SJC2
  5
1D2E0
 10
614.291
 20
251.254
 30
0.000000
  70
    32
  0
VERTEX
  8
SJC2
  5
1D2E1
 10
612.998
 20
251.612
 30
0.000000
  70
    32
  0
VERTEX
  8
SJC2
  5
1D2E2
 10
611.647
 20
251.849
 30
0.000000
  70
    32
  0
VERTEX
  8
SJC2
  5
1D2E3
 10
610.241
 20
251.966
 30
0.000000
  70
    32
  0
VERTEX
  8
SJC2
  5
1D2E4
 10
608.783
 20
251.961
 30
0.000000
  70
    32
  0
VERTEX
  8
SJC2
  5
1D2E5
 10
607.276
 20
251.835
 30
0.000000
  70
    32
  0
VERTEX
  8
SJC2
  5
1D2E6
 10
605.725
 20
251.589
 30
0.000000
  70
    32
  0
VERTEX
  8
SJC2
  5
1D2E7
 10
604.132
 20
251.222
 30
0.000000
  70
    32
  0
VERTEX
  8
SJC2
  5
1D2E8
 10
602.503
 20
250.736
 30
0.000000
  70
    32
  0
VERTEX
  8
SJC2
  5
1D2E9
 10
600.840
 20
250.131
 30
0.000000
  70
    32
  0
VERTEX
  8
SJC2
  5
1D2EA
 10
599.147
 20
249.410
 30
0.000000
  70
    32
  0
VERTEX
  8
SJC2
  5
1D2EB
 10
597.430
 20
248.574
 30
0.000000
  70
    32
  0
VERTEX
  8
SJC2
  5
1D2EC
 10
595.692
 20
247.625
 30
0.000000
  70
    32
  0
VERTEX
  8
SJC2
  5
1D2ED
 10
593.936
 20
246.565
 30
0.000000
  70
    32
  0
VERTEX
  8
SJC2
  5
1D2EE
 10
592.168
 20
245.398
 30
0.000000
  70
    32
  0
VERTEX
  8
SJC2
  5
1D2EF
 10
590.392
 20
244.125
 30
0.000000
  70
    32
  0
VERTEX
  8
SJC2
  5
1D2F0
 10
588.611
 20
242.749
 30
0.000000
  70
    32
  0
VERTEX
  8
SJC2
  5
1D2F1
 10
586.831
 20
241.275
 30
0.000000
  70
    32
  0
VERTEX
  8
SJC2
  5
1D2F2
 10
585.055
 20
239.705
 30
0.000000
  70
    32
  0
VERTEX
  8
SJC2
  5
1D2F3
 10
583.288
 20
238.044
 30
0.000000
  70
    32
  0
VERTEX
  8
SJC2
  5
1D2F4
 10
581.534
 20
236.295
 30
0.000000
  70
    32
  0
VERTEX
  8
SJC2
  5
1D2F5
 10
579.797
 20
234.463
 30
0.000000
  70
    32
  0
VERTEX
  8
SJC2
  5
1D2F6
 10
578.082
 20
232.552
 30
0.000000
  70
    32
  0
VERTEX
  8
SJC2
  5
1D2F7
 10
576.392
 20
230.566
 30
0.000000
  70
    32
  0
VERTEX
  8
SJC2
  5
1D2F8
 10
574.731
 20
228.511
 30
0.000000
  70
    32
  0
VERTEX
  8
SJC2
  5
1D2F9
 10
573.105
 20
226.391
 30
0.000000
  70
    32
  0
VERTEX
  8
SJC2
  5
1D2FA
 10
571.515
 20
224.212
 30
0.000000
  70
    32
  0
VERTEX
  8
SJC2
  5
1D2FB
 10
569.968
 20
221.978
 30
0.000000
  70
    32
  0
VERTEX
  8
SJC2
  5
1D2FC
 10
568.465
 20
219.696
 30
0.000000
  70
    32
  0
VERTEX
  8
SJC2
  5
1D2FD
 10
567.011
 20
217.370
 30
0.000000
  70
    32
  0
VERTEX
  8
SJC2
  5
1D2FE
 10
565.609
 20
215.006
 30
0.000000
  70
    32
  0
VERTEX
  8
SJC2
  5
1D2FF
 10
564.263
 20
212.610
 30
0.000000
  70
    32
  0
VERTEX
  8
SJC2
  5
1D300
 10
562.976
 20
210.188
 30
0.000000
  70
    32
  0
VERTEX
  8
SJC2
  5
1D301
 10
561.751
 20
207.745
 30
0.000000
  70
    32
  0
VERTEX
  8
SJC2
  5
1D302
 10
560.590
 20
205.288
 30
0.000000
  70
    32
  0
VERTEX
  8
SJC2
  5
1D303
 10
559.497
 20
202.822
 30
0.000000
  70
    32
  0
VERTEX
  8
SJC2
  5
1D304
 10
558.475
 20
200.354
 30
0.000000
  70
    32
  0
VERTEX
  8
SJC2
  5
1D305
 10
557.525
 20
197.888
 30
0.000000
  70
    32
  0
VERTEX
  8
SJC2
  5
1D306
 10
556.650
 20
195.432
 30
0.000000
  70
    32
  0
VERTEX
  8
SJC2
  5
1D307
 10
555.853
 20
192.991
 30
0.000000
  70
    32
  0
VERTEX
  8
SJC2
  5
1D308
 10
555.135
 20
190.570
 30
0.000000
  70
    32
  0
VERTEX
  8
SJC2
  5
1D309
 10
554.497
 20
188.177
 30
0.000000
  70
    32
  0
VERTEX
  8
SJC2
  5
1D30A
 10
553.942
 20
185.816
 30
0.000000
  70
    32
  0
VERTEX
  8
SJC2
  5
1D30B
 10
553.471
 20
183.493
 30
0.000000
  70
    32
  0
VERTEX
  8
SJC2
  5
1D30C
 10
553.084
 20
181.214
 30
0.000000
  70
    32
  0
VERTEX
  8
SJC2
  5
1D30D
 10
552.783
 20
178.984
 30
0.000000
  70
    32
  0
VERTEX
  8
SJC2
  5
1D30E
 10
552.569
 20
176.809
 30
0.000000
  70
    32
  0
VERTEX
  8
SJC2
  5
1D30F
 10
552.441
 20
174.694
 30
0.000000
  70
    32
  0
VERTEX
  8
SJC2
  5
1D310
 10
552.401
 20
172.644
 30
0.000000
  70
    32
  0
VERTEX
  8
SJC2
  5
1D311
 10
552.449
 20
170.664
 30
0.000000
  70
    32
  0
VERTEX
  8
SJC2
  5
1D312
 10
552.583
 20
168.759
 30
0.000000
  70
    32
  0
VERTEX
  8
SJC2
  5
1D313
 10
552.805
 20
166.933
 30
0.000000
  70
    32
  0
VERTEX
  8
SJC2
  5
1D314
 10
553.113
 20
165.191
 30
0.000000
  70
    32
  0
VERTEX
  8
SJC2
  5
1D315
 10
553.507
 20
163.536
 30
0.000000
  70
    32
  0
VERTEX
  8
SJC2
  5
1D316
 10
553.986
 20
161.974
 30
0.000000
  70
    32
  0
VERTEX
  8
SJC2
  5
1D317
 10
554.548
 20
160.507
 30
0.000000
  70
    32
  0
VERTEX
  8
SJC2
  5
1D318
 10
555.192
 20
159.139
 30
0.000000
  70
    32
  0
VERTEX
  8
SJC2
  5
1D319
 10
555.917
 20
157.874
 30
0.000000
  70
    32
  0
VERTEX
  8
SJC2
  5
1D31A
 10
556.721
 20
156.714
 30
0.000000
  70
    32
  0
VERTEX
  8
SJC2
  5
1D31B
 10
557.602
 20
155.663
 30
0.000000
  70
    32
  0
VERTEX
  8
SJC2
  5
1D31C
 10
558.558
 20
154.723
 30
0.000000
  70
    32
  0
VERTEX
  8
SJC2
  5
1D31D
 10
559.587
 20
153.895
 30
0.000000
  70
    32
  0
VERTEX
  8
SJC2
  5
1D31E
 10
560.685
 20
153.183
 30
0.000000
  70
    32
  0
SEQEND
  8
SJC2
  5
1D31F
  0
POLYLINE
  5
1BAA9
  8
SJC2
 10
759.77896505441254
 20
153.18326869756513
 30
0.0
 66
     1
 70
     8
  0
VERTEX
  8
SJC2
  5
1D320
 10
759.779
 20
153.183
 30
0.000000
  70
    32
  0
VERTEX
  8
SJC2
  5
1D321
 10
760.945
 20
152.588
 30
0.000000
  70
    32
  0
VERTEX
  8
SJC2
  5
1D322
 10
762.176
 20
152.111
 30
0.000000
  70
    32
  0
VERTEX
  8
SJC2
  5
1D323
 10
763.468
 20
151.753
 30
0.000000
  70
    32
  0
VERTEX
  8
SJC2
  5
1D324
 10
764.819
 20
151.516
 30
0.000000
  70
    32
  0
VERTEX
  8
SJC2
  5
1D325
 10
766.225
 20
151.399
 30
0.000000
  70
    32
  0
VERTEX
  8
SJC2
  5
1D326
 10
767.684
 20
151.404
 30
0.000000
  70
    32
  0
VERTEX
  8
SJC2
  5
1D327
 10
769.190
 20
151.530
 30
0.000000
  70
    32
  0
VERTEX
  8
SJC2
  5
1D328
 10
770.742
 20
151.776
 30
0.000000
  70
    32
  0
VERTEX
  8
SJC2
  5
1D329
 10
772.334
 20
152.143
 30
0.000000
  70
    32
  0
VERTEX
  8
SJC2
  5
1D32A
 10
773.964
 20
152.629
 30
0.000000
  70
    32
  0
VERTEX
  8
SJC2
  5
1D32B
 10
775.627
 20
153.234
 30
0.000000
  70
    32
  0
VERTEX
  8
SJC2
  5
1D32C
 10
777.319
 20
153.955
 30
0.000000
  70
    32
  0
VERTEX
  8
SJC2
  5
1D32D
 10
779.036
 20
154.791
 30
0.000000
  70
    32
  0
VERTEX
  8
SJC2
  5
1D32E
 10
780.775
 20
155.740
 30
0.000000
  70
    32
  0
VERTEX
  8
SJC2
  5
1D32F
 10
782.530
 20
156.799
 30
0.000000
  70
    32
  0
VERTEX
  8
SJC2
  5
1D330
 10
784.298
 20
157.967
 30
0.000000
  70
    32
  0
VERTEX
  8
SJC2
  5
1D331
 10
786.075
 20
159.240
 30
0.000000
  70
    32
  0
VERTEX
  8
SJC2
  5
1D332
 10
787.855
 20
160.616
 30
0.000000
  70
    32
  0
VERTEX
  8
SJC2
  5
1D333
 10
789.635
 20
162.090
 30
0.000000
  70
    32
  0
VERTEX
  8
SJC2
  5
1D334
 10
791.411
 20
163.660
 30
0.000000
  70
    32
  0
VERTEX
  8
SJC2
  5
1D335
 10
793.178
 20
165.321
 30
0.000000
  70
    32
  0
VERTEX
  8
SJC2
  5
1D336
 10
794.932
 20
167.070
 30
0.000000
  70
    32
  0
VERTEX
  8
SJC2
  5
1D337
 10
796.669
 20
168.902
 30
0.000000
  70
    32
  0
VERTEX
  8
SJC2
  5
1D338
 10
798.385
 20
170.813
 30
0.000000
  70
    32
  0
VERTEX
  8
SJC2
  5
1D339
 10
800.075
 20
172.799
 30
0.000000
  70
    32
  0
VERTEX
  8
SJC2
  5
1D33A
 10
801.735
 20
174.854
 30
0.000000
  70
    32
  0
VERTEX
  8
SJC2
  5
1D33B
 10
803.362
 20
176.974
 30
0.000000
  70
    32
  0
VERTEX
  8
SJC2
  5
1D33C
 10
804.951
 20
179.153
 30
0.000000
  70
    32
  0
VERTEX
  8
SJC2
  5
1D33D
 10
806.499
 20
181.387
 30
0.000000
  70
    32
  0
VERTEX
  8
SJC2
  5
1D33E
 10
808.001
 20
183.669
 30
0.000000
  70
    32
  0
VERTEX
  8
SJC2
  5
1D33F
 10
809.455
 20
185.995
 30
0.000000
  70
    32
  0
VERTEX
  8
SJC2
  5
1D340
 10
810.857
 20
188.359
 30
0.000000
  70
    32
  0
VERTEX
  8
SJC2
  5
1D341
 10
812.203
 20
190.755
 30
0.000000
  70
    32
  0
VERTEX
  8
SJC2
  5
1D342
 10
813.490
 20
193.177
 30
0.000000
  70
    32
  0
VERTEX
  8
SJC2
  5
1D343
 10
814.716
 20
195.620
 30
0.000000
  70
    32
  0
VERTEX
  8
SJC2
  5
1D344
 10
815.876
 20
198.077
 30
0.000000
  70
    32
  0
VERTEX
  8
SJC2
  5
1D345
 10
816.969
 20
200.543
 30
0.000000
  70
    32
  0
VERTEX
  8
SJC2
  5
1D346
 10
817.991
 20
203.011
 30
0.000000
  70
    32
  0
VERTEX
  8
SJC2
  5
1D347
 10
818.941
 20
205.477
 30
0.000000
  70
    32
  0
VERTEX
  8
SJC2
  5
1D348
 10
819.816
 20
207.933
 30
0.000000
  70
    32
  0
VERTEX
  8
SJC2
  5
1D349
 10
820.613
 20
210.374
 30
0.000000
  70
    32
  0
VERTEX
  8
SJC2
  5
1D34A
 10
821.332
 20
212.795
 30
0.000000
  70
    32
  0
VERTEX
  8
SJC2
  5
1D34B
 10
821.969
 20
215.188
 30
0.000000
  70
    32
  0
VERTEX
  8
SJC2
  5
1D34C
 10
822.524
 20
217.549
 30
0.000000
  70
    32
  0
VERTEX
  8
SJC2
  5
1D34D
 10
822.996
 20
219.872
 30
0.000000
  70
    32
  0
VERTEX
  8
SJC2
  5
1D34E
 10
823.382
 20
222.151
 30
0.000000
  70
    32
  0
VERTEX
  8
SJC2
  5
1D34F
 10
823.683
 20
224.380
 30
0.000000
  70
    32
  0
VERTEX
  8
SJC2
  5
1D350
 10
823.898
 20
226.555
 30
0.000000
  70
    32
  0
VERTEX
  8
SJC2
  5
1D351
 10
824.025
 20
228.671
 30
0.000000
  70
    32
  0
VERTEX
  8
SJC2
  5
1D352
 10
824.065
 20
230.721
 30
0.000000
  70
    32
  0
VERTEX
  8
SJC2
  5
1D353
 10
824.018
 20
232.701
 30
0.000000
  70
    32
  0
VERTEX
  8
SJC2
  5
1D354
 10
823.883
 20
234.606
 30
0.000000
  70
    32
  0
VERTEX
  8
SJC2
  5
1D355
 10
823.661
 20
236.432
 30
0.000000
  70
    32
  0
VERTEX
  8
SJC2
  5
1D356
 10
823.353
 20
238.174
 30
0.000000
  70
    32
  0
VERTEX
  8
SJC2
  5
1D357
 10
822.959
 20
239.829
 30
0.000000
  70
    32
  0
VERTEX
  8
SJC2
  5
1D358
 10
822.481
 20
241.391
 30
0.000000
  70
    32
  0
VERTEX
  8
SJC2
  5
1D359
 10
821.919
 20
242.858
 30
0.000000
  70
    32
  0
VERTEX
  8
SJC2
  5
1D35A
 10
821.274
 20
244.226
 30
0.000000
  70
    32
  0
VERTEX
  8
SJC2
  5
1D35B
 10
820.549
 20
245.491
 30
0.000000
  70
    32
  0
VERTEX
  8
SJC2
  5
1D35C
 10
819.745
 20
246.650
 30
0.000000
  70
    32
  0
VERTEX
  8
SJC2
  5
1D35D
 10
818.864
 20
247.702
 30
0.000000
  70
    32
  0
VERTEX
  8
SJC2
  5
1D35E
 10
817.908
 20
248.642
 30
0.000000
  70
    32
  0
VERTEX
  8
SJC2
  5
1D35F
 10
816.880
 20
249.469
 30
0.000000
  70
    32
  0
VERTEX
  8
SJC2
  5
1D360
 10
815.781
 20
250.182
 30
0.000000
  70
    32
  0
VERTEX
  8
SJC2
  5
1D361
 10
814.615
 20
250.777
 30
0.000000
  70
    32
  0
VERTEX
  8
SJC2
  5
1D362
 10
813.384
 20
251.254
 30
0.000000
  70
    32
  0
VERTEX
  8
SJC2
  5
1D363
 10
812.092
 20
251.612
 30
0.000000
  70
    32
  0
VERTEX
  8
SJC2
  5
1D364
 10
810.741
 20
251.849
 30
0.000000
  70
    32
  0
VERTEX
  8
SJC2
  5
1D365
 10
809.335
 20
251.966
 30
0.000000
  70
    32
  0
VERTEX
  8
SJC2
  5
1D366
 10
807.876
 20
251.961
 30
0.000000
  70
    32
  0
VERTEX
  8
SJC2
  5
1D367
 10
806.370
 20
251.835
 30
0.000000
  70
    32
  0
VERTEX
  8
SJC2
  5
1D368
 10
804.818
 20
251.589
 30
0.000000
  70
    32
  0
VERTEX
  8
SJC2
  5
1D369
 10
803.226
 20
251.222
 30
0.000000
  70
    32
  0
VERTEX
  8
SJC2
  5
1D36A
 10
801.596
 20
250.736
 30
0.000000
  70
    32
  0
VERTEX
  8
SJC2
  5
1D36B
 10
799.933
 20
250.131
 30
0.000000
  70
    32
  0
VERTEX
  8
SJC2
  5
1D36C
 10
798.241
 20
249.410
 30
0.000000
  70
    32
  0
VERTEX
  8
SJC2
  5
1D36D
 10
796.524
 20
248.574
 30
0.000000
  70
    32
  0
VERTEX
  8
SJC2
  5
1D36E
 10
794.785
 20
247.625
 30
0.000000
  70
    32
  0
VERTEX
  8
SJC2
  5
1D36F
 10
793.030
 20
246.565
 30
0.000000
  70
    32
  0
VERTEX
  8
SJC2
  5
1D370
 10
791.262
 20
245.398
 30
0.000000
  70
    32
  0
VERTEX
  8
SJC2
  5
1D371
 10
789.485
 20
244.125
 30
0.000000
  70
    32
  0
VERTEX
  8
SJC2
  5
1D372
 10
787.705
 20
242.749
 30
0.000000
  70
    32
  0
VERTEX
  8
SJC2
  5
1D373
 10
785.925
 20
241.275
 30
0.000000
  70
    32
  0
VERTEX
  8
SJC2
  5
1D374
 10
784.149
 20
239.705
 30
0.000000
  70
    32
  0
VERTEX
  8
SJC2
  5
1D375
 10
782.382
 20
238.044
 30
0.000000
  70
    32
  0
VERTEX
  8
SJC2
  5
1D376
 10
780.628
 20
236.295
 30
0.000000
  70
    32
  0
VERTEX
  8
SJC2
  5
1D377
 10
778.891
 20
234.463
 30
0.000000
  70
    32
  0
VERTEX
  8
SJC2
  5
1D378
 10
777.175
 20
232.552
 30
0.000000
  70
    32
  0
VERTEX
  8
SJC2
  5
1D379
 10
775.485
 20
230.566
 30
0.000000
  70
    32
  0
VERTEX
  8
SJC2
  5
1D37A
 10
773.825
 20
228.511
 30
0.000000
  70
    32
  0
VERTEX
  8
SJC2
  5
1D37B
 10
772.198
 20
226.391
 30
0.000000
  70
    32
  0
VERTEX
  8
SJC2
  5
1D37C
 10
770.609
 20
224.212
 30
0.000000
  70
    32
  0
VERTEX
  8
SJC2
  5
1D37D
 10
769.061
 20
221.978
 30
0.000000
  70
    32
  0
VERTEX
  8
SJC2
  5
1D37E
 10
767.559
 20
219.696
 30
0.000000
  70
    32
  0
VERTEX
  8
SJC2
  5
1D37F
 10
766.105
 20
217.370
 30
0.000000
  70
    32
  0
VERTEX
  8
SJC2
  5
1D380
 10
764.703
 20
215.006
 30
0.000000
  70
    32
  0
VERTEX
  8
SJC2
  5
1D381
 10
763.357
 20
212.610
 30
0.000000
  70
    32
  0
VERTEX
  8
SJC2
  5
1D382
 10
762.070
 20
210.188
 30
0.000000
  70
    32
  0
VERTEX
  8
SJC2
  5
1D383
 10
760.844
 20
207.745
 30
0.000000
  70
    32
  0
VERTEX
  8
SJC2
  5
1D384
 10
759.684
 20
205.288
 30
0.000000
  70
    32
  0
VERTEX
  8
SJC2
  5
1D385
 10
758.591
 20
202.822
 30
0.000000
  70
    32
  0
VERTEX
  8
SJC2
  5
1D386
 10
757.568
 20
200.354
 30
0.000000
  70
    32
  0
VERTEX
  8
SJC2
  5
1D387
 10
756.619
 20
197.888
 30
0.000000
  70
    32
  0
VERTEX
  8
SJC2
  5
1D388
 10
755.744
 20
195.432
 30
0.000000
  70
    32
  0
VERTEX
  8
SJC2
  5
1D389
 10
754.947
 20
192.991
 30
0.000000
  70
    32
  0
VERTEX
  8
SJC2
  5
1D38A
 10
754.228
 20
190.570
 30
0.000000
  70
    32
  0
VERTEX
  8
SJC2
  5
1D38B
 10
753.591
 20
188.177
 30
0.000000
  70
    32
  0
VERTEX
  8
SJC2
  5
1D38C
 10
753.036
 20
185.816
 30
0.000000
  70
    32
  0
VERTEX
  8
SJC2
  5
1D38D
 10
752.564
 20
183.493
 30
0.000000
  70
    32
  0
VERTEX
  8
SJC2
  5
1D38E
 10
752.178
 20
181.214
 30
0.000000
  70
    32
  0
VERTEX
  8
SJC2
  5
1D38F
 10
751.877
 20
178.984
 30
0.000000
  70
    32
  0
VERTEX
  8
SJC2
  5
1D390
 10
751.662
 20
176.809
 30
0.000000
  70
    32
  0
VERTEX
  8
SJC2
  5
1D391
 10
751.535
 20
174.694
 30
0.000000
  70
    32
  0
VERTEX
  8
SJC2
  5
1D392
 10
751.495
 20
172.644
 30
0.000000
  70
    32
  0
VERTEX
  8
SJC2
  5
1D393
 10
751.542
 20
170.664
 30
0.000000
  70
    32
  0
VERTEX
  8
SJC2
  5
1D394
 10
751.677
 20
168.759
 30
0.000000
  70
    32
  0
VERTEX
  8
SJC2
  5
1D395
 10
751.899
 20
166.933
 30
0.000000
  70
    32
  0
VERTEX
  8
SJC2
  5
1D396
 10
752.207
 20
165.191
 30
0.000000
  70
    32
  0
VERTEX
  8
SJC2
  5
1D397
 10
752.601
 20
163.536
 30
0.000000
  70
    32
  0
VERTEX
  8
SJC2
  5
1D398
 10
753.079
 20
161.974
 30
0.000000
  70
    32
  0
VERTEX
  8
SJC2
  5
1D399
 10
753.641
 20
160.507
 30
0.000000
  70
    32
  0
VERTEX
  8
SJC2
  5
1D39A
 10
754.286
 20
159.139
 30
0.000000
  70
    32
  0
VERTEX
  8
SJC2
  5
1D39B
 10
755.011
 20
157.874
 30
0.000000
  70
    32
  0
VERTEX
  8
SJC2
  5
1D39C
 10
755.815
 20
156.714
 30
0.000000
  70
    32
  0
VERTEX
  8
SJC2
  5
1D39D
 10
756.696
 20
155.663
 30
0.000000
  70
    32
  0
VERTEX
  8
SJC2
  5
1D39E
 10
757.652
 20
154.723
 30
0.000000
  70
    32
  0
VERTEX
  8
SJC2
  5
1D39F
 10
758.680
 20
153.895
 30
0.000000
  70
    32
  0
VERTEX
  8
SJC2
  5
1D3A0
 10
759.779
 20
153.183
 30
0.000000
  70
    32
  0
SEQEND
  8
SJC2
  5
1D3A1
  0
POLYLINE
  5
1BAAA
  8
SJC2
 10
822.03867974706895
 20
153.18326869756513
 30
0.0
 66
     1
 70
     8
  0
VERTEX
  8
SJC2
  5
1D3A2
 10
822.039
 20
153.183
 30
0.000000
  70
    32
  0
VERTEX
  8
SJC2
  5
1D3A3
 10
823.205
 20
152.588
 30
0.000000
  70
    32
  0
VERTEX
  8
SJC2
  5
1D3A4
 10
824.435
 20
152.111
 30
0.000000
  70
    32
  0
VERTEX
  8
SJC2
  5
1D3A5
 10
825.728
 20
151.753
 30
0.000000
  70
    32
  0
VERTEX
  8
SJC2
  5
1D3A6
 10
827.079
 20
151.516
 30
0.000000
  70
    32
  0
VERTEX
  8
SJC2
  5
1D3A7
 10
828.485
 20
151.399
 30
0.000000
  70
    32
  0
VERTEX
  8
SJC2
  5
1D3A8
 10
829.943
 20
151.404
 30
0.000000
  70
    32
  0
VERTEX
  8
SJC2
  5
1D3A9
 10
831.450
 20
151.530
 30
0.000000
  70
    32
  0
VERTEX
  8
SJC2
  5
1D3AA
 10
833.001
 20
151.776
 30
0.000000
  70
    32
  0
VERTEX
  8
SJC2
  5
1D3AB
 10
834.594
 20
152.143
 30
0.000000
  70
    32
  0
VERTEX
  8
SJC2
  5
1D3AC
 10
836.223
 20
152.629
 30
0.000000
  70
    32
  0
VERTEX
  8
SJC2
  5
1D3AD
 10
837.886
 20
153.234
 30
0.000000
  70
    32
  0
VERTEX
  8
SJC2
  5
1D3AE
 10
839.579
 20
153.955
 30
0.000000
  70
    32
  0
VERTEX
  8
SJC2
  5
1D3AF
 10
841.296
 20
154.791
 30
0.000000
  70
    32
  0
VERTEX
  8
SJC2
  5
1D3B0
 10
843.034
 20
155.740
 30
0.000000
  70
    32
  0
VERTEX
  8
SJC2
  5
1D3B1
 10
844.790
 20
156.799
 30
0.000000
  70
    32
  0
VERTEX
  8
SJC2
  5
1D3B2
 10
846.558
 20
157.967
 30
0.000000
  70
    32
  0
VERTEX
  8
SJC2
  5
1D3B3
 10
848.334
 20
159.240
 30
0.000000
  70
    32
  0
VERTEX
  8
SJC2
  5
1D3B4
 10
850.115
 20
160.616
 30
0.000000
  70
    32
  0
VERTEX
  8
SJC2
  5
1D3B5
 10
851.895
 20
162.090
 30
0.000000
  70
    32
  0
VERTEX
  8
SJC2
  5
1D3B6
 10
853.671
 20
163.660
 30
0.000000
  70
    32
  0
VERTEX
  8
SJC2
  5
1D3B7
 10
855.438
 20
165.321
 30
0.000000
  70
    32
  0
VERTEX
  8
SJC2
  5
1D3B8
 10
857.192
 20
167.070
 30
0.000000
  70
    32
  0
VERTEX
  8
SJC2
  5
1D3B9
 10
858.929
 20
168.902
 30
0.000000
  70
    32
  0
VERTEX
  8
SJC2
  5
1D3BA
 10
860.644
 20
170.813
 30
0.000000
  70
    32
  0
VERTEX
  8
SJC2
  5
1D3BB
 10
862.334
 20
172.799
 30
0.000000
  70
    32
  0
VERTEX
  8
SJC2
  5
1D3BC
 10
863.995
 20
174.854
 30
0.000000
  70
    32
  0
VERTEX
  8
SJC2
  5
1D3BD
 10
865.621
 20
176.974
 30
0.000000
  70
    32
  0
VERTEX
  8
SJC2
  5
1D3BE
 10
867.210
 20
179.153
 30
0.000000
  70
    32
  0
VERTEX
  8
SJC2
  5
1D3BF
 10
868.758
 20
181.387
 30
0.000000
  70
    32
  0
VERTEX
  8
SJC2
  5
1D3C0
 10
870.261
 20
183.669
 30
0.000000
  70
    32
  0
VERTEX
  8
SJC2
  5
1D3C1
 10
871.715
 20
185.995
 30
0.000000
  70
    32
  0
VERTEX
  8
SJC2
  5
1D3C2
 10
873.117
 20
188.359
 30
0.000000
  70
    32
  0
VERTEX
  8
SJC2
  5
1D3C3
 10
874.463
 20
190.755
 30
0.000000
  70
    32
  0
VERTEX
  8
SJC2
  5
1D3C4
 10
875.750
 20
193.177
 30
0.000000
  70
    32
  0
VERTEX
  8
SJC2
  5
1D3C5
 10
876.975
 20
195.620
 30
0.000000
  70
    32
  0
VERTEX
  8
SJC2
  5
1D3C6
 10
878.136
 20
198.077
 30
0.000000
  70
    32
  0
VERTEX
  8
SJC2
  5
1D3C7
 10
879.229
 20
200.543
 30
0.000000
  70
    32
  0
VERTEX
  8
SJC2
  5
1D3C8
 10
880.251
 20
203.011
 30
0.000000
  70
    32
  0
VERTEX
  8
SJC2
  5
1D3C9
 10
881.201
 20
205.477
 30
0.000000
  70
    32
  0
VERTEX
  8
SJC2
  5
1D3CA
 10
882.076
 20
207.933
 30
0.000000
  70
    32
  0
VERTEX
  8
SJC2
  5
1D3CB
 10
882.873
 20
210.374
 30
0.000000
  70
    32
  0
VERTEX
  8
SJC2
  5
1D3CC
 10
883.591
 20
212.795
 30
0.000000
  70
    32
  0
VERTEX
  8
SJC2
  5
1D3CD
 10
884.229
 20
215.188
 30
0.000000
  70
    32
  0
VERTEX
  8
SJC2
  5
1D3CE
 10
884.784
 20
217.549
 30
0.000000
  70
    32
  0
VERTEX
  8
SJC2
  5
1D3CF
 10
885.255
 20
219.872
 30
0.000000
  70
    32
  0
VERTEX
  8
SJC2
  5
1D3D0
 10
885.642
 20
222.151
 30
0.000000
  70
    32
  0
VERTEX
  8
SJC2
  5
1D3D1
 10
885.943
 20
224.380
 30
0.000000
  70
    32
  0
VERTEX
  8
SJC2
  5
1D3D2
 10
886.157
 20
226.555
 30
0.000000
  70
    32
  0
VERTEX
  8
SJC2
  5
1D3D3
 10
886.285
 20
228.671
 30
0.000000
  70
    32
  0
VERTEX
  8
SJC2
  5
1D3D4
 10
886.325
 20
230.721
 30
0.000000
  70
    32
  0
VERTEX
  8
SJC2
  5
1D3D5
 10
886.277
 20
232.701
 30
0.000000
  70
    32
  0
VERTEX
  8
SJC2
  5
1D3D6
 10
886.143
 20
234.606
 30
0.000000
  70
    32
  0
VERTEX
  8
SJC2
  5
1D3D7
 10
885.921
 20
236.432
 30
0.000000
  70
    32
  0
VERTEX
  8
SJC2
  5
1D3D8
 10
885.613
 20
238.174
 30
0.000000
  70
    32
  0
VERTEX
  8
SJC2
  5
1D3D9
 10
885.219
 20
239.829
 30
0.000000
  70
    32
  0
VERTEX
  8
SJC2
  5
1D3DA
 10
884.740
 20
241.391
 30
0.000000
  70
    32
  0
VERTEX
  8
SJC2
  5
1D3DB
 10
884.178
 20
242.858
 30
0.000000
  70
    32
  0
VERTEX
  8
SJC2
  5
1D3DC
 10
883.534
 20
244.226
 30
0.000000
  70
    32
  0
VERTEX
  8
SJC2
  5
1D3DD
 10
882.809
 20
245.491
 30
0.000000
  70
    32
  0
VERTEX
  8
SJC2
  5
1D3DE
 10
882.005
 20
246.650
 30
0.000000
  70
    32
  0
VERTEX
  8
SJC2
  5
1D3DF
 10
881.124
 20
247.702
 30
0.000000
  70
    32
  0
VERTEX
  8
SJC2
  5
1D3E0
 10
880.168
 20
248.642
 30
0.000000
  70
    32
  0
VERTEX
  8
SJC2
  5
1D3E1
 10
879.139
 20
249.469
 30
0.000000
  70
    32
  0
VERTEX
  8
SJC2
  5
1D3E2
 10
878.041
 20
250.182
 30
0.000000
  70
    32
  0
VERTEX
  8
SJC2
  5
1D3E3
 10
876.875
 20
250.777
 30
0.000000
  70
    32
  0
VERTEX
  8
SJC2
  5
1D3E4
 10
875.644
 20
251.254
 30
0.000000
  70
    32
  0
VERTEX
  8
SJC2
  5
1D3E5
 10
874.352
 20
251.612
 30
0.000000
  70
    32
  0
VERTEX
  8
SJC2
  5
1D3E6
 10
873.001
 20
251.849
 30
0.000000
  70
    32
  0
VERTEX
  8
SJC2
  5
1D3E7
 10
871.594
 20
251.966
 30
0.000000
  70
    32
  0
VERTEX
  8
SJC2
  5
1D3E8
 10
870.136
 20
251.961
 30
0.000000
  70
    32
  0
VERTEX
  8
SJC2
  5
1D3E9
 10
868.630
 20
251.835
 30
0.000000
  70
    32
  0
VERTEX
  8
SJC2
  5
1D3EA
 10
867.078
 20
251.589
 30
0.000000
  70
    32
  0
VERTEX
  8
SJC2
  5
1D3EB
 10
865.486
 20
251.222
 30
0.000000
  70
    32
  0
VERTEX
  8
SJC2
  5
1D3EC
 10
863.856
 20
250.736
 30
0.000000
  70
    32
  0
VERTEX
  8
SJC2
  5
1D3ED
 10
862.193
 20
250.131
 30
0.000000
  70
    32
  0
VERTEX
  8
SJC2
  5
1D3EE
 10
860.501
 20
249.410
 30
0.000000
  70
    32
  0
VERTEX
  8
SJC2
  5
1D3EF
 10
858.783
 20
248.574
 30
0.000000
  70
    32
  0
VERTEX
  8
SJC2
  5
1D3F0
 10
857.045
 20
247.625
 30
0.000000
  70
    32
  0
VERTEX
  8
SJC2
  5
1D3F1
 10
855.290
 20
246.565
 30
0.000000
  70
    32
  0
VERTEX
  8
SJC2
  5
1D3F2
 10
853.522
 20
245.398
 30
0.000000
  70
    32
  0
VERTEX
  8
SJC2
  5
1D3F3
 10
851.745
 20
244.125
 30
0.000000
  70
    32
  0
VERTEX
  8
SJC2
  5
1D3F4
 10
849.965
 20
242.749
 30
0.000000
  70
    32
  0
VERTEX
  8
SJC2
  5
1D3F5
 10
848.184
 20
241.275
 30
0.000000
  70
    32
  0
VERTEX
  8
SJC2
  5
1D3F6
 10
846.408
 20
239.705
 30
0.000000
  70
    32
  0
VERTEX
  8
SJC2
  5
1D3F7
 10
844.641
 20
238.044
 30
0.000000
  70
    32
  0
VERTEX
  8
SJC2
  5
1D3F8
 10
842.887
 20
236.295
 30
0.000000
  70
    32
  0
VERTEX
  8
SJC2
  5
1D3F9
 10
841.150
 20
234.463
 30
0.000000
  70
    32
  0
VERTEX
  8
SJC2
  5
1D3FA
 10
839.435
 20
232.552
 30
0.000000
  70
    32
  0
VERTEX
  8
SJC2
  5
1D3FB
 10
837.745
 20
230.566
 30
0.000000
  70
    32
  0
VERTEX
  8
SJC2
  5
1D3FC
 10
836.085
 20
228.511
 30
0.000000
  70
    32
  0
VERTEX
  8
SJC2
  5
1D3FD
 10
834.458
 20
226.391
 30
0.000000
  70
    32
  0
VERTEX
  8
SJC2
  5
1D3FE
 10
832.869
 20
224.212
 30
0.000000
  70
    32
  0
VERTEX
  8
SJC2
  5
1D3FF
 10
831.321
 20
221.978
 30
0.000000
  70
    32
  0
VERTEX
  8
SJC2
  5
1D400
 10
829.819
 20
219.696
 30
0.000000
  70
    32
  0
VERTEX
  8
SJC2
  5
1D401
 10
828.365
 20
217.370
 30
0.000000
  70
    32
  0
VERTEX
  8
SJC2
  5
1D402
 10
826.963
 20
215.006
 30
0.000000
  70
    32
  0
VERTEX
  8
SJC2
  5
1D403
 10
825.617
 20
212.610
 30
0.000000
  70
    32
  0
VERTEX
  8
SJC2
  5
1D404
 10
824.329
 20
210.188
 30
0.000000
  70
    32
  0
VERTEX
  8
SJC2
  5
1D405
 10
823.104
 20
207.745
 30
0.000000
  70
    32
  0
VERTEX
  8
SJC2
  5
1D406
 10
821.943
 20
205.288
 30
0.000000
  70
    32
  0
VERTEX
  8
SJC2
  5
1D407
 10
820.851
 20
202.822
 30
0.000000
  70
    32
  0
VERTEX
  8
SJC2
  5
1D408
 10
819.828
 20
200.354
 30
0.000000
  70
    32
  0
VERTEX
  8
SJC2
  5
1D409
 10
818.879
 20
197.888
 30
0.000000
  70
    32
  0
VERTEX
  8
SJC2
  5
1D40A
 10
818.004
 20
195.432
 30
0.000000
  70
    32
  0
VERTEX
  8
SJC2
  5
1D40B
 10
817.206
 20
192.991
 30
0.000000
  70
    32
  0
VERTEX
  8
SJC2
  5
1D40C
 10
816.488
 20
190.570
 30
0.000000
  70
    32
  0
VERTEX
  8
SJC2
  5
1D40D
 10
815.851
 20
188.177
 30
0.000000
  70
    32
  0
VERTEX
  8
SJC2
  5
1D40E
 10
815.295
 20
185.816
 30
0.000000
  70
    32
  0
VERTEX
  8
SJC2
  5
1D40F
 10
814.824
 20
183.493
 30
0.000000
  70
    32
  0
VERTEX
  8
SJC2
  5
1D410
 10
814.437
 20
181.214
 30
0.000000
  70
    32
  0
VERTEX
  8
SJC2
  5
1D411
 10
814.137
 20
178.984
 30
0.000000
  70
    32
  0
VERTEX
  8
SJC2
  5
1D412
 10
813.922
 20
176.809
 30
0.000000
  70
    32
  0
VERTEX
  8
SJC2
  5
1D413
 10
813.795
 20
174.694
 30
0.000000
  70
    32
  0
VERTEX
  8
SJC2
  5
1D414
 10
813.755
 20
172.644
 30
0.000000
  70
    32
  0
VERTEX
  8
SJC2
  5
1D415
 10
813.802
 20
170.664
 30
0.000000
  70
    32
  0
VERTEX
  8
SJC2
  5
1D416
 10
813.937
 20
168.759
 30
0.000000
  70
    32
  0
VERTEX
  8
SJC2
  5
1D417
 10
814.159
 20
166.933
 30
0.000000
  70
    32
  0
VERTEX
  8
SJC2
  5
1D418
 10
814.467
 20
165.191
 30
0.000000
  70
    32
  0
VERTEX
  8
SJC2
  5
1D419
 10
814.860
 20
163.536
 30
0.000000
  70
    32
  0
VERTEX
  8
SJC2
  5
1D41A
 10
815.339
 20
161.974
 30
0.000000
  70
    32
  0
VERTEX
  8
SJC2
  5
1D41B
 10
815.901
 20
160.507
 30
0.000000
  70
    32
  0
VERTEX
  8
SJC2
  5
1D41C
 10
816.546
 20
159.139
 30
0.000000
  70
    32
  0
VERTEX
  8
SJC2
  5
1D41D
 10
817.271
 20
157.874
 30
0.000000
  70
    32
  0
VERTEX
  8
SJC2
  5
1D41E
 10
818.075
 20
156.714
 30
0.000000
  70
    32
  0
VERTEX
  8
SJC2
  5
1D41F
 10
818.956
 20
155.663
 30
0.000000
  70
    32
  0
VERTEX
  8
SJC2
  5
1D420
 10
819.912
 20
154.723
 30
0.000000
  70
    32
  0
VERTEX
  8
SJC2
  5
1D421
 10
820.940
 20
153.895
 30
0.000000
  70
    32
  0
VERTEX
  8
SJC2
  5
1D422
 10
822.039
 20
153.183
 30
0.000000
  70
    32
  0
SEQEND
  8
SJC2
  5
1D423
  0
POLYLINE
  5
1BAAB
  8
SJC2
 10
1227.6413489234048
 20
153.18326869756513
 30
0.0
 66
     1
 70
     8
  0
VERTEX
  8
SJC2
  5
1D424
 10
1227.64
 20
153.183
 30
0.000000
  70
    32
  0
VERTEX
  8
SJC2
  5
1D425
 10
1228.81
 20
152.588
 30
0.000000
  70
    32
  0
VERTEX
  8
SJC2
  5
1D426
 10
1230.04
 20
152.111
 30
0.000000
  70
    32
  0
VERTEX
  8
SJC2
  5
1D427
 10
1231.33
 20
151.753
 30
0.000000
  70
    32
  0
VERTEX
  8
SJC2
  5
1D428
 10
1232.68
 20
151.516
 30
0.000000
  70
    32
  0
VERTEX
  8
SJC2
  5
1D429
 10
1234.09
 20
151.399
 30
0.000000
  70
    32
  0
VERTEX
  8
SJC2
  5
1D42A
 10
1235.55
 20
151.404
 30
0.000000
  70
    32
  0
VERTEX
  8
SJC2
  5
1D42B
 10
1237.05
 20
151.530
 30
0.000000
  70
    32
  0
VERTEX
  8
SJC2
  5
1D42C
 10
1238.60
 20
151.776
 30
0.000000
  70
    32
  0
VERTEX
  8
SJC2
  5
1D42D
 10
1240.20
 20
152.143
 30
0.000000
  70
    32
  0
VERTEX
  8
SJC2
  5
1D42E
 10
1241.83
 20
152.629
 30
0.000000
  70
    32
  0
VERTEX
  8
SJC2
  5
1D42F
 10
1243.49
 20
153.234
 30
0.000000
  70
    32
  0
VERTEX
  8
SJC2
  5
1D430
 10
1245.18
 20
153.955
 30
0.000000
  70
    32
  0
VERTEX
  8
SJC2
  5
1D431
 10
1246.90
 20
154.791
 30
0.000000
  70
    32
  0
VERTEX
  8
SJC2
  5
1D432
 10
1248.64
 20
155.740
 30
0.000000
  70
    32
  0
VERTEX
  8
SJC2
  5
1D433
 10
1250.39
 20
156.799
 30
0.000000
  70
    32
  0
VERTEX
  8
SJC2
  5
1D434
 10
1252.16
 20
157.967
 30
0.000000
  70
    32
  0
VERTEX
  8
SJC2
  5
1D435
 10
1253.94
 20
159.240
 30
0.000000
  70
    32
  0
VERTEX
  8
SJC2
  5
1D436
 10
1255.72
 20
160.616
 30
0.000000
  70
    32
  0
VERTEX
  8
SJC2
  5
1D437
 10
1257.50
 20
162.090
 30
0.000000
  70
    32
  0
VERTEX
  8
SJC2
  5
1D438
 10
1259.27
 20
163.660
 30
0.000000
  70
    32
  0
VERTEX
  8
SJC2
  5
1D439
 10
1261.04
 20
165.321
 30
0.000000
  70
    32
  0
VERTEX
  8
SJC2
  5
1D43A
 10
1262.79
 20
167.070
 30
0.000000
  70
    32
  0
VERTEX
  8
SJC2
  5
1D43B
 10
1264.53
 20
168.902
 30
0.000000
  70
    32
  0
VERTEX
  8
SJC2
  5
1D43C
 10
1266.25
 20
170.813
 30
0.000000
  70
    32
  0
VERTEX
  8
SJC2
  5
1D43D
 10
1267.94
 20
172.799
 30
0.000000
  70
    32
  0
VERTEX
  8
SJC2
  5
1D43E
 10
1269.60
 20
174.854
 30
0.000000
  70
    32
  0
VERTEX
  8
SJC2
  5
1D43F
 10
1271.22
 20
176.974
 30
0.000000
  70
    32
  0
VERTEX
  8
SJC2
  5
1D440
 10
1272.81
 20
179.153
 30
0.000000
  70
    32
  0
VERTEX
  8
SJC2
  5
1D441
 10
1274.36
 20
181.387
 30
0.000000
  70
    32
  0
VERTEX
  8
SJC2
  5
1D442
 10
1275.86
 20
183.669
 30
0.000000
  70
    32
  0
VERTEX
  8
SJC2
  5
1D443
 10
1277.32
 20
185.995
 30
0.000000
  70
    32
  0
VERTEX
  8
SJC2
  5
1D444
 10
1278.72
 20
188.359
 30
0.000000
  70
    32
  0
VERTEX
  8
SJC2
  5
1D445
 10
1280.07
 20
190.755
 30
0.000000
  70
    32
  0
VERTEX
  8
SJC2
  5
1D446
 10
1281.35
 20
193.177
 30
0.000000
  70
    32
  0
VERTEX
  8
SJC2
  5
1D447
 10
1282.58
 20
195.620
 30
0.000000
  70
    32
  0
VERTEX
  8
SJC2
  5
1D448
 10
1283.74
 20
198.077
 30
0.000000
  70
    32
  0
VERTEX
  8
SJC2
  5
1D449
 10
1284.83
 20
200.543
 30
0.000000
  70
    32
  0
VERTEX
  8
SJC2
  5
1D44A
 10
1285.85
 20
203.011
 30
0.000000
  70
    32
  0
VERTEX
  8
SJC2
  5
1D44B
 10
1286.80
 20
205.477
 30
0.000000
  70
    32
  0
VERTEX
  8
SJC2
  5
1D44C
 10
1287.68
 20
207.933
 30
0.000000
  70
    32
  0
VERTEX
  8
SJC2
  5
1D44D
 10
1288.48
 20
210.374
 30
0.000000
  70
    32
  0
VERTEX
  8
SJC2
  5
1D44E
 10
1289.19
 20
212.795
 30
0.000000
  70
    32
  0
VERTEX
  8
SJC2
  5
1D44F
 10
1289.83
 20
215.188
 30
0.000000
  70
    32
  0
VERTEX
  8
SJC2
  5
1D450
 10
1290.39
 20
217.549
 30
0.000000
  70
    32
  0
VERTEX
  8
SJC2
  5
1D451
 10
1290.86
 20
219.872
 30
0.000000
  70
    32
  0
VERTEX
  8
SJC2
  5
1D452
 10
1291.24
 20
222.151
 30
0.000000
  70
    32
  0
VERTEX
  8
SJC2
  5
1D453
 10
1291.55
 20
224.380
 30
0.000000
  70
    32
  0
VERTEX
  8
SJC2
  5
1D454
 10
1291.76
 20
226.555
 30
0.000000
  70
    32
  0
VERTEX
  8
SJC2
  5
1D455
 10
1291.89
 20
228.671
 30
0.000000
  70
    32
  0
VERTEX
  8
SJC2
  5
1D456
 10
1291.93
 20
230.721
 30
0.000000
  70
    32
  0
VERTEX
  8
SJC2
  5
1D457
 10
1291.88
 20
232.701
 30
0.000000
  70
    32
  0
VERTEX
  8
SJC2
  5
1D458
 10
1291.75
 20
234.606
 30
0.000000
  70
    32
  0
VERTEX
  8
SJC2
  5
1D459
 10
1291.52
 20
236.432
 30
0.000000
  70
    32
  0
VERTEX
  8
SJC2
  5
1D45A
 10
1291.22
 20
238.174
 30
0.000000
  70
    32
  0
VERTEX
  8
SJC2
  5
1D45B
 10
1290.82
 20
239.829
 30
0.000000
  70
    32
  0
VERTEX
  8
SJC2
  5
1D45C
 10
1290.34
 20
241.391
 30
0.000000
  70
    32
  0
VERTEX
  8
SJC2
  5
1D45D
 10
1289.78
 20
242.858
 30
0.000000
  70
    32
  0
VERTEX
  8
SJC2
  5
1D45E
 10
1289.14
 20
244.226
 30
0.000000
  70
    32
  0
VERTEX
  8
SJC2
  5
1D45F
 10
1288.41
 20
245.491
 30
0.000000
  70
    32
  0
VERTEX
  8
SJC2
  5
1D460
 10
1287.61
 20
246.650
 30
0.000000
  70
    32
  0
VERTEX
  8
SJC2
  5
1D461
 10
1286.73
 20
247.702
 30
0.000000
  70
    32
  0
VERTEX
  8
SJC2
  5
1D462
 10
1285.77
 20
248.642
 30
0.000000
  70
    32
  0
VERTEX
  8
SJC2
  5
1D463
 10
1284.74
 20
249.469
 30
0.000000
  70
    32
  0
VERTEX
  8
SJC2
  5
1D464
 10
1283.64
 20
250.182
 30
0.000000
  70
    32
  0
VERTEX
  8
SJC2
  5
1D465
 10
1282.48
 20
250.777
 30
0.000000
  70
    32
  0
VERTEX
  8
SJC2
  5
1D466
 10
1281.25
 20
251.254
 30
0.000000
  70
    32
  0
VERTEX
  8
SJC2
  5
1D467
 10
1279.95
 20
251.612
 30
0.000000
  70
    32
  0
VERTEX
  8
SJC2
  5
1D468
 10
1278.60
 20
251.849
 30
0.000000
  70
    32
  0
VERTEX
  8
SJC2
  5
1D469
 10
1277.20
 20
251.966
 30
0.000000
  70
    32
  0
VERTEX
  8
SJC2
  5
1D46A
 10
1275.74
 20
251.961
 30
0.000000
  70
    32
  0
VERTEX
  8
SJC2
  5
1D46B
 10
1274.23
 20
251.835
 30
0.000000
  70
    32
  0
VERTEX
  8
SJC2
  5
1D46C
 10
1272.68
 20
251.589
 30
0.000000
  70
    32
  0
VERTEX
  8
SJC2
  5
1D46D
 10
1271.09
 20
251.222
 30
0.000000
  70
    32
  0
VERTEX
  8
SJC2
  5
1D46E
 10
1269.46
 20
250.736
 30
0.000000
  70
    32
  0
VERTEX
  8
SJC2
  5
1D46F
 10
1267.80
 20
250.131
 30
0.000000
  70
    32
  0
VERTEX
  8
SJC2
  5
1D470
 10
1266.10
 20
249.410
 30
0.000000
  70
    32
  0
VERTEX
  8
SJC2
  5
1D471
 10
1264.39
 20
248.574
 30
0.000000
  70
    32
  0
VERTEX
  8
SJC2
  5
1D472
 10
1262.65
 20
247.625
 30
0.000000
  70
    32
  0
VERTEX
  8
SJC2
  5
1D473
 10
1260.89
 20
246.565
 30
0.000000
  70
    32
  0
VERTEX
  8
SJC2
  5
1D474
 10
1259.12
 20
245.398
 30
0.000000
  70
    32
  0
VERTEX
  8
SJC2
  5
1D475
 10
1257.35
 20
244.125
 30
0.000000
  70
    32
  0
VERTEX
  8
SJC2
  5
1D476
 10
1255.57
 20
242.749
 30
0.000000
  70
    32
  0
VERTEX
  8
SJC2
  5
1D477
 10
1253.79
 20
241.275
 30
0.000000
  70
    32
  0
VERTEX
  8
SJC2
  5
1D478
 10
1252.01
 20
239.705
 30
0.000000
  70
    32
  0
VERTEX
  8
SJC2
  5
1D479
 10
1250.24
 20
238.044
 30
0.000000
  70
    32
  0
VERTEX
  8
SJC2
  5
1D47A
 10
1248.49
 20
236.295
 30
0.000000
  70
    32
  0
VERTEX
  8
SJC2
  5
1D47B
 10
1246.75
 20
234.463
 30
0.000000
  70
    32
  0
VERTEX
  8
SJC2
  5
1D47C
 10
1245.04
 20
232.552
 30
0.000000
  70
    32
  0
VERTEX
  8
SJC2
  5
1D47D
 10
1243.35
 20
230.566
 30
0.000000
  70
    32
  0
VERTEX
  8
SJC2
  5
1D47E
 10
1241.69
 20
228.511
 30
0.000000
  70
    32
  0
VERTEX
  8
SJC2
  5
1D47F
 10
1240.06
 20
226.391
 30
0.000000
  70
    32
  0
VERTEX
  8
SJC2
  5
1D480
 10
1238.47
 20
224.212
 30
0.000000
  70
    32
  0
VERTEX
  8
SJC2
  5
1D481
 10
1236.92
 20
221.978
 30
0.000000
  70
    32
  0
VERTEX
  8
SJC2
  5
1D482
 10
1235.42
 20
219.696
 30
0.000000
  70
    32
  0
VERTEX
  8
SJC2
  5
1D483
 10
1233.97
 20
217.370
 30
0.000000
  70
    32
  0
VERTEX
  8
SJC2
  5
1D484
 10
1232.57
 20
215.006
 30
0.000000
  70
    32
  0
VERTEX
  8
SJC2
  5
1D485
 10
1231.22
 20
212.610
 30
0.000000
  70
    32
  0
VERTEX
  8
SJC2
  5
1D486
 10
1229.93
 20
210.188
 30
0.000000
  70
    32
  0
VERTEX
  8
SJC2
  5
1D487
 10
1228.71
 20
207.745
 30
0.000000
  70
    32
  0
VERTEX
  8
SJC2
  5
1D488
 10
1227.55
 20
205.288
 30
0.000000
  70
    32
  0
VERTEX
  8
SJC2
  5
1D489
 10
1226.45
 20
202.822
 30
0.000000
  70
    32
  0
VERTEX
  8
SJC2
  5
1D48A
 10
1225.43
 20
200.354
 30
0.000000
  70
    32
  0
VERTEX
  8
SJC2
  5
1D48B
 10
1224.48
 20
197.888
 30
0.000000
  70
    32
  0
VERTEX
  8
SJC2
  5
1D48C
 10
1223.61
 20
195.432
 30
0.000000
  70
    32
  0
VERTEX
  8
SJC2
  5
1D48D
 10
1222.81
 20
192.991
 30
0.000000
  70
    32
  0
VERTEX
  8
SJC2
  5
1D48E
 10
1222.09
 20
190.570
 30
0.000000
  70
    32
  0
VERTEX
  8
SJC2
  5
1D48F
 10
1221.45
 20
188.177
 30
0.000000
  70
    32
  0
VERTEX
  8
SJC2
  5
1D490
 10
1220.90
 20
185.816
 30
0.000000
  70
    32
  0
VERTEX
  8
SJC2
  5
1D491
 10
1220.43
 20
183.493
 30
0.000000
  70
    32
  0
VERTEX
  8
SJC2
  5
1D492
 10
1220.04
 20
181.214
 30
0.000000
  70
    32
  0
VERTEX
  8
SJC2
  5
1D493
 10
1219.74
 20
178.984
 30
0.000000
  70
    32
  0
VERTEX
  8
SJC2
  5
1D494
 10
1219.52
 20
176.809
 30
0.000000
  70
    32
  0
VERTEX
  8
SJC2
  5
1D495
 10
1219.40
 20
174.694
 30
0.000000
  70
    32
  0
VERTEX
  8
SJC2
  5
1D496
 10
1219.36
 20
172.644
 30
0.000000
  70
    32
  0
VERTEX
  8
SJC2
  5
1D497
 10
1219.40
 20
170.664
 30
0.000000
  70
    32
  0
VERTEX
  8
SJC2
  5
1D498
 10
1219.54
 20
168.759
 30
0.000000
  70
    32
  0
VERTEX
  8
SJC2
  5
1D499
 10
1219.76
 20
166.933
 30
0.000000
  70
    32
  0
VERTEX
  8
SJC2
  5
1D49A
 10
1220.07
 20
165.191
 30
0.000000
  70
    32
  0
VERTEX
  8
SJC2
  5
1D49B
 10
1220.46
 20
163.536
 30
0.000000
  70
    32
  0
VERTEX
  8
SJC2
  5
1D49C
 10
1220.94
 20
161.974
 30
0.000000
  70
    32
  0
VERTEX
  8
SJC2
  5
1D49D
 10
1221.50
 20
160.507
 30
0.000000
  70
    32
  0
VERTEX
  8
SJC2
  5
1D49E
 10
1222.15
 20
159.139
 30
0.000000
  70
    32
  0
VERTEX
  8
SJC2
  5
1D49F
 10
1222.87
 20
157.874
 30
0.000000
  70
    32
  0
VERTEX
  8
SJC2
  5
1D4A0
 10
1223.68
 20
156.714
 30
0.000000
  70
    32
  0
VERTEX
  8
SJC2
  5
1D4A1
 10
1224.56
 20
155.663
 30
0.000000
  70
    32
  0
VERTEX
  8
SJC2
  5
1D4A2
 10
1225.51
 20
154.723
 30
0.000000
  70
    32
  0
VERTEX
  8
SJC2
  5
1D4A3
 10
1226.54
 20
153.895
 30
0.000000
  70
    32
  0
VERTEX
  8
SJC2
  5
1D4A4
 10
1227.64
 20
153.183
 30
0.000000
  70
    32
  0
SEQEND
  8
SJC2
  5
1D4A5
  0
POLYLINE
  5
1BAAC
  8
SJC2
 10
1289.9010636160619
 20
153.18326869756513
 30
0.0
 66
     1
 70
     8
  0
VERTEX
  8
SJC2
  5
1D4A6
 10
1289.90
 20
153.183
 30
0.000000
  70
    32
  0
VERTEX
  8
SJC2
  5
1D4A7
 10
1291.07
 20
152.588
 30
0.000000
  70
    32
  0
VERTEX
  8
SJC2
  5
1D4A8
 10
1292.30
 20
152.111
 30
0.000000
  70
    32
  0
VERTEX
  8
SJC2
  5
1D4A9
 10
1293.59
 20
151.753
 30
0.000000
  70
    32
  0
VERTEX
  8
SJC2
  5
1D4AA
 10
1294.94
 20
151.516
 30
0.000000
  70
    32
  0
VERTEX
  8
SJC2
  5
1D4AB
 10
1296.35
 20
151.399
 30
0.000000
  70
    32
  0
VERTEX
  8
SJC2
  5
1D4AC
 10
1297.81
 20
151.404
 30
0.000000
  70
    32
  0
VERTEX
  8
SJC2
  5
1D4AD
 10
1299.31
 20
151.530
 30
0.000000
  70
    32
  0
VERTEX
  8
SJC2
  5
1D4AE
 10
1300.86
 20
151.776
 30
0.000000
  70
    32
  0
VERTEX
  8
SJC2
  5
1D4AF
 10
1302.46
 20
152.143
 30
0.000000
  70
    32
  0
VERTEX
  8
SJC2
  5
1D4B0
 10
1304.09
 20
152.629
 30
0.000000
  70
    32
  0
VERTEX
  8
SJC2
  5
1D4B1
 10
1305.75
 20
153.234
 30
0.000000
  70
    32
  0
VERTEX
  8
SJC2
  5
1D4B2
 10
1307.44
 20
153.955
 30
0.000000
  70
    32
  0
VERTEX
  8
SJC2
  5
1D4B3
 10
1309.16
 20
154.791
 30
0.000000
  70
    32
  0
VERTEX
  8
SJC2
  5
1D4B4
 10
1310.90
 20
155.740
 30
0.000000
  70
    32
  0
VERTEX
  8
SJC2
  5
1D4B5
 10
1312.65
 20
156.799
 30
0.000000
  70
    32
  0
VERTEX
  8
SJC2
  5
1D4B6
 10
1314.42
 20
157.967
 30
0.000000
  70
    32
  0
VERTEX
  8
SJC2
  5
1D4B7
 10
1316.20
 20
159.240
 30
0.000000
  70
    32
  0
VERTEX
  8
SJC2
  5
1D4B8
 10
1317.98
 20
160.616
 30
0.000000
  70
    32
  0
VERTEX
  8
SJC2
  5
1D4B9
 10
1319.76
 20
162.090
 30
0.000000
  70
    32
  0
VERTEX
  8
SJC2
  5
1D4BA
 10
1321.53
 20
163.660
 30
0.000000
  70
    32
  0
VERTEX
  8
SJC2
  5
1D4BB
 10
1323.30
 20
165.321
 30
0.000000
  70
    32
  0
VERTEX
  8
SJC2
  5
1D4BC
 10
1325.05
 20
167.070
 30
0.000000
  70
    32
  0
VERTEX
  8
SJC2
  5
1D4BD
 10
1326.79
 20
168.902
 30
0.000000
  70
    32
  0
VERTEX
  8
SJC2
  5
1D4BE
 10
1328.51
 20
170.813
 30
0.000000
  70
    32
  0
VERTEX
  8
SJC2
  5
1D4BF
 10
1330.20
 20
172.799
 30
0.000000
  70
    32
  0
VERTEX
  8
SJC2
  5
1D4C0
 10
1331.86
 20
174.854
 30
0.000000
  70
    32
  0
VERTEX
  8
SJC2
  5
1D4C1
 10
1333.48
 20
176.974
 30
0.000000
  70
    32
  0
VERTEX
  8
SJC2
  5
1D4C2
 10
1335.07
 20
179.153
 30
0.000000
  70
    32
  0
VERTEX
  8
SJC2
  5
1D4C3
 10
1336.62
 20
181.387
 30
0.000000
  70
    32
  0
VERTEX
  8
SJC2
  5
1D4C4
 10
1338.12
 20
183.669
 30
0.000000
  70
    32
  0
VERTEX
  8
SJC2
  5
1D4C5
 10
1339.58
 20
185.995
 30
0.000000
  70
    32
  0
VERTEX
  8
SJC2
  5
1D4C6
 10
1340.98
 20
188.359
 30
0.000000
  70
    32
  0
VERTEX
  8
SJC2
  5
1D4C7
 10
1342.33
 20
190.755
 30
0.000000
  70
    32
  0
VERTEX
  8
SJC2
  5
1D4C8
 10
1343.61
 20
193.177
 30
0.000000
  70
    32
  0
VERTEX
  8
SJC2
  5
1D4C9
 10
1344.84
 20
195.620
 30
0.000000
  70
    32
  0
VERTEX
  8
SJC2
  5
1D4CA
 10
1346.00
 20
198.077
 30
0.000000
  70
    32
  0
VERTEX
  8
SJC2
  5
1D4CB
 10
1347.09
 20
200.543
 30
0.000000
  70
    32
  0
VERTEX
  8
SJC2
  5
1D4CC
 10
1348.11
 20
203.011
 30
0.000000
  70
    32
  0
VERTEX
  8
SJC2
  5
1D4CD
 10
1349.06
 20
205.477
 30
0.000000
  70
    32
  0
VERTEX
  8
SJC2
  5
1D4CE
 10
1349.94
 20
207.933
 30
0.000000
  70
    32
  0
VERTEX
  8
SJC2
  5
1D4CF
 10
1350.74
 20
210.374
 30
0.000000
  70
    32
  0
VERTEX
  8
SJC2
  5
1D4D0
 10
1351.45
 20
212.795
 30
0.000000
  70
    32
  0
VERTEX
  8
SJC2
  5
1D4D1
 10
1352.09
 20
215.188
 30
0.000000
  70
    32
  0
VERTEX
  8
SJC2
  5
1D4D2
 10
1352.65
 20
217.549
 30
0.000000
  70
    32
  0
VERTEX
  8
SJC2
  5
1D4D3
 10
1353.12
 20
219.872
 30
0.000000
  70
    32
  0
VERTEX
  8
SJC2
  5
1D4D4
 10
1353.50
 20
222.151
 30
0.000000
  70
    32
  0
VERTEX
  8
SJC2
  5
1D4D5
 10
1353.81
 20
224.380
 30
0.000000
  70
    32
  0
VERTEX
  8
SJC2
  5
1D4D6
 10
1354.02
 20
226.555
 30
0.000000
  70
    32
  0
VERTEX
  8
SJC2
  5
1D4D7
 10
1354.15
 20
228.671
 30
0.000000
  70
    32
  0
VERTEX
  8
SJC2
  5
1D4D8
 10
1354.19
 20
230.721
 30
0.000000
  70
    32
  0
VERTEX
  8
SJC2
  5
1D4D9
 10
1354.14
 20
232.701
 30
0.000000
  70
    32
  0
VERTEX
  8
SJC2
  5
1D4DA
 10
1354.00
 20
234.606
 30
0.000000
  70
    32
  0
VERTEX
  8
SJC2
  5
1D4DB
 10
1353.78
 20
236.432
 30
0.000000
  70
    32
  0
VERTEX
  8
SJC2
  5
1D4DC
 10
1353.48
 20
238.174
 30
0.000000
  70
    32
  0
VERTEX
  8
SJC2
  5
1D4DD
 10
1353.08
 20
239.829
 30
0.000000
  70
    32
  0
VERTEX
  8
SJC2
  5
1D4DE
 10
1352.60
 20
241.391
 30
0.000000
  70
    32
  0
VERTEX
  8
SJC2
  5
1D4DF
 10
1352.04
 20
242.858
 30
0.000000
  70
    32
  0
VERTEX
  8
SJC2
  5
1D4E0
 10
1351.40
 20
244.226
 30
0.000000
  70
    32
  0
VERTEX
  8
SJC2
  5
1D4E1
 10
1350.67
 20
245.491
 30
0.000000
  70
    32
  0
VERTEX
  8
SJC2
  5
1D4E2
 10
1349.87
 20
246.650
 30
0.000000
  70
    32
  0
VERTEX
  8
SJC2
  5
1D4E3
 10
1348.99
 20
247.702
 30
0.000000
  70
    32
  0
VERTEX
  8
SJC2
  5
1D4E4
 10
1348.03
 20
248.642
 30
0.000000
  70
    32
  0
VERTEX
  8
SJC2
  5
1D4E5
 10
1347.00
 20
249.469
 30
0.000000
  70
    32
  0
VERTEX
  8
SJC2
  5
1D4E6
 10
1345.90
 20
250.182
 30
0.000000
  70
    32
  0
VERTEX
  8
SJC2
  5
1D4E7
 10
1344.74
 20
250.777
 30
0.000000
  70
    32
  0
VERTEX
  8
SJC2
  5
1D4E8
 10
1343.51
 20
251.254
 30
0.000000
  70
    32
  0
VERTEX
  8
SJC2
  5
1D4E9
 10
1342.21
 20
251.612
 30
0.000000
  70
    32
  0
VERTEX
  8
SJC2
  5
1D4EA
 10
1340.86
 20
251.849
 30
0.000000
  70
    32
  0
VERTEX
  8
SJC2
  5
1D4EB
 10
1339.46
 20
251.966
 30
0.000000
  70
    32
  0
VERTEX
  8
SJC2
  5
1D4EC
 10
1338.00
 20
251.961
 30
0.000000
  70
    32
  0
VERTEX
  8
SJC2
  5
1D4ED
 10
1336.49
 20
251.835
 30
0.000000
  70
    32
  0
VERTEX
  8
SJC2
  5
1D4EE
 10
1334.94
 20
251.589
 30
0.000000
  70
    32
  0
VERTEX
  8
SJC2
  5
1D4EF
 10
1333.35
 20
251.222
 30
0.000000
  70
    32
  0
VERTEX
  8
SJC2
  5
1D4F0
 10
1331.72
 20
250.736
 30
0.000000
  70
    32
  0
VERTEX
  8
SJC2
  5
1D4F1
 10
1330.06
 20
250.131
 30
0.000000
  70
    32
  0
VERTEX
  8
SJC2
  5
1D4F2
 10
1328.36
 20
249.410
 30
0.000000
  70
    32
  0
VERTEX
  8
SJC2
  5
1D4F3
 10
1326.65
 20
248.574
 30
0.000000
  70
    32
  0
VERTEX
  8
SJC2
  5
1D4F4
 10
1324.91
 20
247.625
 30
0.000000
  70
    32
  0
VERTEX
  8
SJC2
  5
1D4F5
 10
1323.15
 20
246.565
 30
0.000000
  70
    32
  0
VERTEX
  8
SJC2
  5
1D4F6
 10
1321.38
 20
245.398
 30
0.000000
  70
    32
  0
VERTEX
  8
SJC2
  5
1D4F7
 10
1319.61
 20
244.125
 30
0.000000
  70
    32
  0
VERTEX
  8
SJC2
  5
1D4F8
 10
1317.83
 20
242.749
 30
0.000000
  70
    32
  0
VERTEX
  8
SJC2
  5
1D4F9
 10
1316.05
 20
241.275
 30
0.000000
  70
    32
  0
VERTEX
  8
SJC2
  5
1D4FA
 10
1314.27
 20
239.705
 30
0.000000
  70
    32
  0
VERTEX
  8
SJC2
  5
1D4FB
 10
1312.50
 20
238.044
 30
0.000000
  70
    32
  0
VERTEX
  8
SJC2
  5
1D4FC
 10
1310.75
 20
236.295
 30
0.000000
  70
    32
  0
VERTEX
  8
SJC2
  5
1D4FD
 10
1309.01
 20
234.463
 30
0.000000
  70
    32
  0
VERTEX
  8
SJC2
  5
1D4FE
 10
1307.30
 20
232.552
 30
0.000000
  70
    32
  0
VERTEX
  8
SJC2
  5
1D4FF
 10
1305.61
 20
230.566
 30
0.000000
  70
    32
  0
VERTEX
  8
SJC2
  5
1D500
 10
1303.95
 20
228.511
 30
0.000000
  70
    32
  0
VERTEX
  8
SJC2
  5
1D501
 10
1302.32
 20
226.391
 30
0.000000
  70
    32
  0
VERTEX
  8
SJC2
  5
1D502
 10
1300.73
 20
224.212
 30
0.000000
  70
    32
  0
VERTEX
  8
SJC2
  5
1D503
 10
1299.18
 20
221.978
 30
0.000000
  70
    32
  0
VERTEX
  8
SJC2
  5
1D504
 10
1297.68
 20
219.696
 30
0.000000
  70
    32
  0
VERTEX
  8
SJC2
  5
1D505
 10
1296.23
 20
217.370
 30
0.000000
  70
    32
  0
VERTEX
  8
SJC2
  5
1D506
 10
1294.83
 20
215.006
 30
0.000000
  70
    32
  0
VERTEX
  8
SJC2
  5
1D507
 10
1293.48
 20
212.610
 30
0.000000
  70
    32
  0
VERTEX
  8
SJC2
  5
1D508
 10
1292.19
 20
210.188
 30
0.000000
  70
    32
  0
VERTEX
  8
SJC2
  5
1D509
 10
1290.97
 20
207.745
 30
0.000000
  70
    32
  0
VERTEX
  8
SJC2
  5
1D50A
 10
1289.81
 20
205.288
 30
0.000000
  70
    32
  0
VERTEX
  8
SJC2
  5
1D50B
 10
1288.71
 20
202.822
 30
0.000000
  70
    32
  0
VERTEX
  8
SJC2
  5
1D50C
 10
1287.69
 20
200.354
 30
0.000000
  70
    32
  0
VERTEX
  8
SJC2
  5
1D50D
 10
1286.74
 20
197.888
 30
0.000000
  70
    32
  0
VERTEX
  8
SJC2
  5
1D50E
 10
1285.87
 20
195.432
 30
0.000000
  70
    32
  0
VERTEX
  8
SJC2
  5
1D50F
 10
1285.07
 20
192.991
 30
0.000000
  70
    32
  0
VERTEX
  8
SJC2
  5
1D510
 10
1284.35
 20
190.570
 30
0.000000
  70
    32
  0
VERTEX
  8
SJC2
  5
1D511
 10
1283.71
 20
188.177
 30
0.000000
  70
    32
  0
VERTEX
  8
SJC2
  5
1D512
 10
1283.16
 20
185.816
 30
0.000000
  70
    32
  0
VERTEX
  8
SJC2
  5
1D513
 10
1282.69
 20
183.493
 30
0.000000
  70
    32
  0
VERTEX
  8
SJC2
  5
1D514
 10
1282.30
 20
181.214
 30
0.000000
  70
    32
  0
VERTEX
  8
SJC2
  5
1D515
 10
1282.00
 20
178.984
 30
0.000000
  70
    32
  0
VERTEX
  8
SJC2
  5
1D516
 10
1281.78
 20
176.809
 30
0.000000
  70
    32
  0
VERTEX
  8
SJC2
  5
1D517
 10
1281.66
 20
174.694
 30
0.000000
  70
    32
  0
VERTEX
  8
SJC2
  5
1D518
 10
1281.62
 20
172.644
 30
0.000000
  70
    32
  0
VERTEX
  8
SJC2
  5
1D519
 10
1281.66
 20
170.664
 30
0.000000
  70
    32
  0
VERTEX
  8
SJC2
  5
1D51A
 10
1281.80
 20
168.759
 30
0.000000
  70
    32
  0
VERTEX
  8
SJC2
  5
1D51B
 10
1282.02
 20
166.933
 30
0.000000
  70
    32
  0
VERTEX
  8
SJC2
  5
1D51C
 10
1282.33
 20
165.191
 30
0.000000
  70
    32
  0
VERTEX
  8
SJC2
  5
1D51D
 10
1282.72
 20
163.536
 30
0.000000
  70
    32
  0
VERTEX
  8
SJC2
  5
1D51E
 10
1283.20
 20
161.974
 30
0.000000
  70
    32
  0
VERTEX
  8
SJC2
  5
1D51F
 10
1283.76
 20
160.507
 30
0.000000
  70
    32
  0
VERTEX
  8
SJC2
  5
1D520
 10
1284.41
 20
159.139
 30
0.000000
  70
    32
  0
VERTEX
  8
SJC2
  5
1D521
 10
1285.13
 20
157.874
 30
0.000000
  70
    32
  0
VERTEX
  8
SJC2
  5
1D522
 10
1285.94
 20
156.714
 30
0.000000
  70
    32
  0
VERTEX
  8
SJC2
  5
1D523
 10
1286.82
 20
155.663
 30
0.000000
  70
    32
  0
VERTEX
  8
SJC2
  5
1D524
 10
1287.77
 20
154.723
 30
0.000000
  70
    32
  0
VERTEX
  8
SJC2
  5
1D525
 10
1288.80
 20
153.895
 30
0.000000
  70
    32
  0
VERTEX
  8
SJC2
  5
1D526
 10
1289.90
 20
153.183
 30
0.000000
  70
    32
  0
SEQEND
  8
SJC2
  5
1D527
  0
POLYLINE
  5
1BAAD
  8
SJC2
 10
1488.9947981885068
 20
153.18326869756513
 30
0.0
 66
     1
 70
     8
  0
VERTEX
  8
SJC2
  5
1D528
 10
1488.99
 20
153.183
 30
0.000000
  70
    32
  0
VERTEX
  8
SJC2
  5
1D529
 10
1490.16
 20
152.588
 30
0.000000
  70
    32
  0
VERTEX
  8
SJC2
  5
1D52A
 10
1491.39
 20
152.111
 30
0.000000
  70
    32
  0
VERTEX
  8
SJC2
  5
1D52B
 10
1492.68
 20
151.753
 30
0.000000
  70
    32
  0
VERTEX
  8
SJC2
  5
1D52C
 10
1494.03
 20
151.516
 30
0.000000
  70
    32
  0
VERTEX
  8
SJC2
  5
1D52D
 10
1495.44
 20
151.399
 30
0.000000
  70
    32
  0
VERTEX
  8
SJC2
  5
1D52E
 10
1496.90
 20
151.404
 30
0.000000
  70
    32
  0
VERTEX
  8
SJC2
  5
1D52F
 10
1498.41
 20
151.530
 30
0.000000
  70
    32
  0
VERTEX
  8
SJC2
  5
1D530
 10
1499.96
 20
151.776
 30
0.000000
  70
    32
  0
VERTEX
  8
SJC2
  5
1D531
 10
1501.55
 20
152.143
 30
0.000000
  70
    32
  0
VERTEX
  8
SJC2
  5
1D532
 10
1503.18
 20
152.629
 30
0.000000
  70
    32
  0
VERTEX
  8
SJC2
  5
1D533
 10
1504.84
 20
153.234
 30
0.000000
  70
    32
  0
VERTEX
  8
SJC2
  5
1D534
 10
1506.53
 20
153.955
 30
0.000000
  70
    32
  0
VERTEX
  8
SJC2
  5
1D535
 10
1508.25
 20
154.791
 30
0.000000
  70
    32
  0
VERTEX
  8
SJC2
  5
1D536
 10
1509.99
 20
155.740
 30
0.000000
  70
    32
  0
VERTEX
  8
SJC2
  5
1D537
 10
1511.75
 20
156.799
 30
0.000000
  70
    32
  0
VERTEX
  8
SJC2
  5
1D538
 10
1513.51
 20
157.967
 30
0.000000
  70
    32
  0
VERTEX
  8
SJC2
  5
1D539
 10
1515.29
 20
159.240
 30
0.000000
  70
    32
  0
VERTEX
  8
SJC2
  5
1D53A
 10
1517.07
 20
160.616
 30
0.000000
  70
    32
  0
VERTEX
  8
SJC2
  5
1D53B
 10
1518.85
 20
162.090
 30
0.000000
  70
    32
  0
VERTEX
  8
SJC2
  5
1D53C
 10
1520.63
 20
163.660
 30
0.000000
  70
    32
  0
VERTEX
  8
SJC2
  5
1D53D
 10
1522.39
 20
165.321
 30
0.000000
  70
    32
  0
VERTEX
  8
SJC2
  5
1D53E
 10
1524.15
 20
167.070
 30
0.000000
  70
    32
  0
VERTEX
  8
SJC2
  5
1D53F
 10
1525.89
 20
168.902
 30
0.000000
  70
    32
  0
VERTEX
  8
SJC2
  5
1D540
 10
1527.60
 20
170.813
 30
0.000000
  70
    32
  0
VERTEX
  8
SJC2
  5
1D541
 10
1529.29
 20
172.799
 30
0.000000
  70
    32
  0
VERTEX
  8
SJC2
  5
1D542
 10
1530.95
 20
174.854
 30
0.000000
  70
    32
  0
VERTEX
  8
SJC2
  5
1D543
 10
1532.58
 20
176.974
 30
0.000000
  70
    32
  0
VERTEX
  8
SJC2
  5
1D544
 10
1534.17
 20
179.153
 30
0.000000
  70
    32
  0
VERTEX
  8
SJC2
  5
1D545
 10
1535.71
 20
181.387
 30
0.000000
  70
    32
  0
VERTEX
  8
SJC2
  5
1D546
 10
1537.22
 20
183.669
 30
0.000000
  70
    32
  0
VERTEX
  8
SJC2
  5
1D547
 10
1538.67
 20
185.995
 30
0.000000
  70
    32
  0
VERTEX
  8
SJC2
  5
1D548
 10
1540.07
 20
188.359
 30
0.000000
  70
    32
  0
VERTEX
  8
SJC2
  5
1D549
 10
1541.42
 20
190.755
 30
0.000000
  70
    32
  0
VERTEX
  8
SJC2
  5
1D54A
 10
1542.71
 20
193.177
 30
0.000000
  70
    32
  0
VERTEX
  8
SJC2
  5
1D54B
 10
1543.93
 20
195.620
 30
0.000000
  70
    32
  0
VERTEX
  8
SJC2
  5
1D54C
 10
1545.09
 20
198.077
 30
0.000000
  70
    32
  0
VERTEX
  8
SJC2
  5
1D54D
 10
1546.18
 20
200.543
 30
0.000000
  70
    32
  0
VERTEX
  8
SJC2
  5
1D54E
 10
1547.21
 20
203.011
 30
0.000000
  70
    32
  0
VERTEX
  8
SJC2
  5
1D54F
 10
1548.16
 20
205.477
 30
0.000000
  70
    32
  0
VERTEX
  8
SJC2
  5
1D550
 10
1549.03
 20
207.933
 30
0.000000
  70
    32
  0
VERTEX
  8
SJC2
  5
1D551
 10
1549.83
 20
210.374
 30
0.000000
  70
    32
  0
VERTEX
  8
SJC2
  5
1D552
 10
1550.55
 20
212.795
 30
0.000000
  70
    32
  0
VERTEX
  8
SJC2
  5
1D553
 10
1551.18
 20
215.188
 30
0.000000
  70
    32
  0
VERTEX
  8
SJC2
  5
1D554
 10
1551.74
 20
217.549
 30
0.000000
  70
    32
  0
VERTEX
  8
SJC2
  5
1D555
 10
1552.21
 20
219.872
 30
0.000000
  70
    32
  0
VERTEX
  8
SJC2
  5
1D556
 10
1552.60
 20
222.151
 30
0.000000
  70
    32
  0
VERTEX
  8
SJC2
  5
1D557
 10
1552.90
 20
224.380
 30
0.000000
  70
    32
  0
VERTEX
  8
SJC2
  5
1D558
 10
1553.11
 20
226.555
 30
0.000000
  70
    32
  0
VERTEX
  8
SJC2
  5
1D559
 10
1553.24
 20
228.671
 30
0.000000
  70
    32
  0
VERTEX
  8
SJC2
  5
1D55A
 10
1553.28
 20
230.721
 30
0.000000
  70
    32
  0
VERTEX
  8
SJC2
  5
1D55B
 10
1553.23
 20
232.701
 30
0.000000
  70
    32
  0
VERTEX
  8
SJC2
  5
1D55C
 10
1553.10
 20
234.606
 30
0.000000
  70
    32
  0
VERTEX
  8
SJC2
  5
1D55D
 10
1552.88
 20
236.432
 30
0.000000
  70
    32
  0
VERTEX
  8
SJC2
  5
1D55E
 10
1552.57
 20
238.174
 30
0.000000
  70
    32
  0
VERTEX
  8
SJC2
  5
1D55F
 10
1552.18
 20
239.829
 30
0.000000
  70
    32
  0
VERTEX
  8
SJC2
  5
1D560
 10
1551.70
 20
241.391
 30
0.000000
  70
    32
  0
VERTEX
  8
SJC2
  5
1D561
 10
1551.13
 20
242.858
 30
0.000000
  70
    32
  0
VERTEX
  8
SJC2
  5
1D562
 10
1550.49
 20
244.226
 30
0.000000
  70
    32
  0
VERTEX
  8
SJC2
  5
1D563
 10
1549.76
 20
245.491
 30
0.000000
  70
    32
  0
VERTEX
  8
SJC2
  5
1D564
 10
1548.96
 20
246.650
 30
0.000000
  70
    32
  0
VERTEX
  8
SJC2
  5
1D565
 10
1548.08
 20
247.702
 30
0.000000
  70
    32
  0
VERTEX
  8
SJC2
  5
1D566
 10
1547.12
 20
248.642
 30
0.000000
  70
    32
  0
VERTEX
  8
SJC2
  5
1D567
 10
1546.10
 20
249.469
 30
0.000000
  70
    32
  0
VERTEX
  8
SJC2
  5
1D568
 10
1545.00
 20
250.182
 30
0.000000
  70
    32
  0
VERTEX
  8
SJC2
  5
1D569
 10
1543.83
 20
250.777
 30
0.000000
  70
    32
  0
VERTEX
  8
SJC2
  5
1D56A
 10
1542.60
 20
251.254
 30
0.000000
  70
    32
  0
VERTEX
  8
SJC2
  5
1D56B
 10
1541.31
 20
251.612
 30
0.000000
  70
    32
  0
VERTEX
  8
SJC2
  5
1D56C
 10
1539.96
 20
251.849
 30
0.000000
  70
    32
  0
VERTEX
  8
SJC2
  5
1D56D
 10
1538.55
 20
251.966
 30
0.000000
  70
    32
  0
VERTEX
  8
SJC2
  5
1D56E
 10
1537.09
 20
251.961
 30
0.000000
  70
    32
  0
VERTEX
  8
SJC2
  5
1D56F
 10
1535.59
 20
251.835
 30
0.000000
  70
    32
  0
VERTEX
  8
SJC2
  5
1D570
 10
1534.03
 20
251.589
 30
0.000000
  70
    32
  0
VERTEX
  8
SJC2
  5
1D571
 10
1532.44
 20
251.222
 30
0.000000
  70
    32
  0
VERTEX
  8
SJC2
  5
1D572
 10
1530.81
 20
250.736
 30
0.000000
  70
    32
  0
VERTEX
  8
SJC2
  5
1D573
 10
1529.15
 20
250.131
 30
0.000000
  70
    32
  0
VERTEX
  8
SJC2
  5
1D574
 10
1527.46
 20
249.410
 30
0.000000
  70
    32
  0
VERTEX
  8
SJC2
  5
1D575
 10
1525.74
 20
248.574
 30
0.000000
  70
    32
  0
VERTEX
  8
SJC2
  5
1D576
 10
1524.00
 20
247.625
 30
0.000000
  70
    32
  0
VERTEX
  8
SJC2
  5
1D577
 10
1522.25
 20
246.565
 30
0.000000
  70
    32
  0
VERTEX
  8
SJC2
  5
1D578
 10
1520.48
 20
245.398
 30
0.000000
  70
    32
  0
VERTEX
  8
SJC2
  5
1D579
 10
1518.70
 20
244.125
 30
0.000000
  70
    32
  0
VERTEX
  8
SJC2
  5
1D57A
 10
1516.92
 20
242.749
 30
0.000000
  70
    32
  0
VERTEX
  8
SJC2
  5
1D57B
 10
1515.14
 20
241.275
 30
0.000000
  70
    32
  0
VERTEX
  8
SJC2
  5
1D57C
 10
1513.36
 20
239.705
 30
0.000000
  70
    32
  0
VERTEX
  8
SJC2
  5
1D57D
 10
1511.60
 20
238.044
 30
0.000000
  70
    32
  0
VERTEX
  8
SJC2
  5
1D57E
 10
1509.84
 20
236.295
 30
0.000000
  70
    32
  0
VERTEX
  8
SJC2
  5
1D57F
 10
1508.11
 20
234.463
 30
0.000000
  70
    32
  0
VERTEX
  8
SJC2
  5
1D580
 10
1506.39
 20
232.552
 30
0.000000
  70
    32
  0
VERTEX
  8
SJC2
  5
1D581
 10
1504.70
 20
230.566
 30
0.000000
  70
    32
  0
VERTEX
  8
SJC2
  5
1D582
 10
1503.04
 20
228.511
 30
0.000000
  70
    32
  0
VERTEX
  8
SJC2
  5
1D583
 10
1501.41
 20
226.391
 30
0.000000
  70
    32
  0
VERTEX
  8
SJC2
  5
1D584
 10
1499.83
 20
224.212
 30
0.000000
  70
    32
  0
VERTEX
  8
SJC2
  5
1D585
 10
1498.28
 20
221.978
 30
0.000000
  70
    32
  0
VERTEX
  8
SJC2
  5
1D586
 10
1496.77
 20
219.696
 30
0.000000
  70
    32
  0
VERTEX
  8
SJC2
  5
1D587
 10
1495.32
 20
217.370
 30
0.000000
  70
    32
  0
VERTEX
  8
SJC2
  5
1D588
 10
1493.92
 20
215.006
 30
0.000000
  70
    32
  0
VERTEX
  8
SJC2
  5
1D589
 10
1492.57
 20
212.610
 30
0.000000
  70
    32
  0
VERTEX
  8
SJC2
  5
1D58A
 10
1491.29
 20
210.188
 30
0.000000
  70
    32
  0
VERTEX
  8
SJC2
  5
1D58B
 10
1490.06
 20
207.745
 30
0.000000
  70
    32
  0
VERTEX
  8
SJC2
  5
1D58C
 10
1488.90
 20
205.288
 30
0.000000
  70
    32
  0
VERTEX
  8
SJC2
  5
1D58D
 10
1487.81
 20
202.822
 30
0.000000
  70
    32
  0
VERTEX
  8
SJC2
  5
1D58E
 10
1486.78
 20
200.354
 30
0.000000
  70
    32
  0
VERTEX
  8
SJC2
  5
1D58F
 10
1485.83
 20
197.888
 30
0.000000
  70
    32
  0
VERTEX
  8
SJC2
  5
1D590
 10
1484.96
 20
195.432
 30
0.000000
  70
    32
  0
VERTEX
  8
SJC2
  5
1D591
 10
1484.16
 20
192.991
 30
0.000000
  70
    32
  0
VERTEX
  8
SJC2
  5
1D592
 10
1483.44
 20
190.570
 30
0.000000
  70
    32
  0
VERTEX
  8
SJC2
  5
1D593
 10
1482.81
 20
188.177
 30
0.000000
  70
    32
  0
VERTEX
  8
SJC2
  5
1D594
 10
1482.25
 20
185.816
 30
0.000000
  70
    32
  0
VERTEX
  8
SJC2
  5
1D595
 10
1481.78
 20
183.493
 30
0.000000
  70
    32
  0
VERTEX
  8
SJC2
  5
1D596
 10
1481.39
 20
181.214
 30
0.000000
  70
    32
  0
VERTEX
  8
SJC2
  5
1D597
 10
1481.09
 20
178.984
 30
0.000000
  70
    32
  0
VERTEX
  8
SJC2
  5
1D598
 10
1480.88
 20
176.809
 30
0.000000
  70
    32
  0
VERTEX
  8
SJC2
  5
1D599
 10
1480.75
 20
174.694
 30
0.000000
  70
    32
  0
VERTEX
  8
SJC2
  5
1D59A
 10
1480.71
 20
172.644
 30
0.000000
  70
    32
  0
VERTEX
  8
SJC2
  5
1D59B
 10
1480.76
 20
170.664
 30
0.000000
  70
    32
  0
VERTEX
  8
SJC2
  5
1D59C
 10
1480.89
 20
168.759
 30
0.000000
  70
    32
  0
VERTEX
  8
SJC2
  5
1D59D
 10
1481.11
 20
166.933
 30
0.000000
  70
    32
  0
VERTEX
  8
SJC2
  5
1D59E
 10
1481.42
 20
165.191
 30
0.000000
  70
    32
  0
VERTEX
  8
SJC2
  5
1D59F
 10
1481.82
 20
163.536
 30
0.000000
  70
    32
  0
VERTEX
  8
SJC2
  5
1D5A0
 10
1482.30
 20
161.974
 30
0.000000
  70
    32
  0
VERTEX
  8
SJC2
  5
1D5A1
 10
1482.86
 20
160.507
 30
0.000000
  70
    32
  0
VERTEX
  8
SJC2
  5
1D5A2
 10
1483.50
 20
159.139
 30
0.000000
  70
    32
  0
VERTEX
  8
SJC2
  5
1D5A3
 10
1484.23
 20
157.874
 30
0.000000
  70
    32
  0
VERTEX
  8
SJC2
  5
1D5A4
 10
1485.03
 20
156.714
 30
0.000000
  70
    32
  0
VERTEX
  8
SJC2
  5
1D5A5
 10
1485.91
 20
155.663
 30
0.000000
  70
    32
  0
VERTEX
  8
SJC2
  5
1D5A6
 10
1486.87
 20
154.723
 30
0.000000
  70
    32
  0
VERTEX
  8
SJC2
  5
1D5A7
 10
1487.90
 20
153.895
 30
0.000000
  70
    32
  0
VERTEX
  8
SJC2
  5
1D5A8
 10
1488.99
 20
153.183
 30
0.000000
  70
    32
  0
SEQEND
  8
SJC2
  5
1D5A9
  0
POLYLINE
  5
1BAAE
  8
SJC2
 10
1551.254512881163
 20
153.18326869756513
 30
0.0
 66
     1
 70
     8
  0
VERTEX
  8
SJC2
  5
1D5AA
 10
1551.25
 20
153.183
 30
0.000000
  70
    32
  0
VERTEX
  8
SJC2
  5
1D5AB
 10
1552.42
 20
152.588
 30
0.000000
  70
    32
  0
VERTEX
  8
SJC2
  5
1D5AC
 10
1553.65
 20
152.111
 30
0.000000
  70
    32
  0
VERTEX
  8
SJC2
  5
1D5AD
 10
1554.94
 20
151.753
 30
0.000000
  70
    32
  0
VERTEX
  8
SJC2
  5
1D5AE
 10
1556.29
 20
151.516
 30
0.000000
  70
    32
  0
VERTEX
  8
SJC2
  5
1D5AF
 10
1557.70
 20
151.399
 30
0.000000
  70
    32
  0
VERTEX
  8
SJC2
  5
1D5B0
 10
1559.16
 20
151.404
 30
0.000000
  70
    32
  0
VERTEX
  8
SJC2
  5
1D5B1
 10
1560.67
 20
151.530
 30
0.000000
  70
    32
  0
VERTEX
  8
SJC2
  5
1D5B2
 10
1562.22
 20
151.776
 30
0.000000
  70
    32
  0
VERTEX
  8
SJC2
  5
1D5B3
 10
1563.81
 20
152.143
 30
0.000000
  70
    32
  0
VERTEX
  8
SJC2
  5
1D5B4
 10
1565.44
 20
152.629
 30
0.000000
  70
    32
  0
VERTEX
  8
SJC2
  5
1D5B5
 10
1567.10
 20
153.234
 30
0.000000
  70
    32
  0
VERTEX
  8
SJC2
  5
1D5B6
 10
1568.79
 20
153.955
 30
0.000000
  70
    32
  0
VERTEX
  8
SJC2
  5
1D5B7
 10
1570.51
 20
154.791
 30
0.000000
  70
    32
  0
VERTEX
  8
SJC2
  5
1D5B8
 10
1572.25
 20
155.740
 30
0.000000
  70
    32
  0
VERTEX
  8
SJC2
  5
1D5B9
 10
1574.01
 20
156.799
 30
0.000000
  70
    32
  0
VERTEX
  8
SJC2
  5
1D5BA
 10
1575.77
 20
157.967
 30
0.000000
  70
    32
  0
VERTEX
  8
SJC2
  5
1D5BB
 10
1577.55
 20
159.240
 30
0.000000
  70
    32
  0
VERTEX
  8
SJC2
  5
1D5BC
 10
1579.33
 20
160.616
 30
0.000000
  70
    32
  0
VERTEX
  8
SJC2
  5
1D5BD
 10
1581.11
 20
162.090
 30
0.000000
  70
    32
  0
VERTEX
  8
SJC2
  5
1D5BE
 10
1582.89
 20
163.660
 30
0.000000
  70
    32
  0
VERTEX
  8
SJC2
  5
1D5BF
 10
1584.65
 20
165.321
 30
0.000000
  70
    32
  0
VERTEX
  8
SJC2
  5
1D5C0
 10
1586.41
 20
167.070
 30
0.000000
  70
    32
  0
VERTEX
  8
SJC2
  5
1D5C1
 10
1588.14
 20
168.902
 30
0.000000
  70
    32
  0
VERTEX
  8
SJC2
  5
1D5C2
 10
1589.86
 20
170.813
 30
0.000000
  70
    32
  0
VERTEX
  8
SJC2
  5
1D5C3
 10
1591.55
 20
172.799
 30
0.000000
  70
    32
  0
VERTEX
  8
SJC2
  5
1D5C4
 10
1593.21
 20
174.854
 30
0.000000
  70
    32
  0
VERTEX
  8
SJC2
  5
1D5C5
 10
1594.84
 20
176.974
 30
0.000000
  70
    32
  0
VERTEX
  8
SJC2
  5
1D5C6
 10
1596.43
 20
179.153
 30
0.000000
  70
    32
  0
VERTEX
  8
SJC2
  5
1D5C7
 10
1597.97
 20
181.387
 30
0.000000
  70
    32
  0
VERTEX
  8
SJC2
  5
1D5C8
 10
1599.48
 20
183.669
 30
0.000000
  70
    32
  0
VERTEX
  8
SJC2
  5
1D5C9
 10
1600.93
 20
185.995
 30
0.000000
  70
    32
  0
VERTEX
  8
SJC2
  5
1D5CA
 10
1602.33
 20
188.359
 30
0.000000
  70
    32
  0
VERTEX
  8
SJC2
  5
1D5CB
 10
1603.68
 20
190.755
 30
0.000000
  70
    32
  0
VERTEX
  8
SJC2
  5
1D5CC
 10
1604.97
 20
193.177
 30
0.000000
  70
    32
  0
VERTEX
  8
SJC2
  5
1D5CD
 10
1606.19
 20
195.620
 30
0.000000
  70
    32
  0
VERTEX
  8
SJC2
  5
1D5CE
 10
1607.35
 20
198.077
 30
0.000000
  70
    32
  0
VERTEX
  8
SJC2
  5
1D5CF
 10
1608.44
 20
200.543
 30
0.000000
  70
    32
  0
VERTEX
  8
SJC2
  5
1D5D0
 10
1609.47
 20
203.011
 30
0.000000
  70
    32
  0
VERTEX
  8
SJC2
  5
1D5D1
 10
1610.42
 20
205.477
 30
0.000000
  70
    32
  0
VERTEX
  8
SJC2
  5
1D5D2
 10
1611.29
 20
207.933
 30
0.000000
  70
    32
  0
VERTEX
  8
SJC2
  5
1D5D3
 10
1612.09
 20
210.374
 30
0.000000
  70
    32
  0
VERTEX
  8
SJC2
  5
1D5D4
 10
1612.81
 20
212.795
 30
0.000000
  70
    32
  0
VERTEX
  8
SJC2
  5
1D5D5
 10
1613.44
 20
215.188
 30
0.000000
  70
    32
  0
VERTEX
  8
SJC2
  5
1D5D6
 10
1614.00
 20
217.549
 30
0.000000
  70
    32
  0
VERTEX
  8
SJC2
  5
1D5D7
 10
1614.47
 20
219.872
 30
0.000000
  70
    32
  0
VERTEX
  8
SJC2
  5
1D5D8
 10
1614.86
 20
222.151
 30
0.000000
  70
    32
  0
VERTEX
  8
SJC2
  5
1D5D9
 10
1615.16
 20
224.380
 30
0.000000
  70
    32
  0
VERTEX
  8
SJC2
  5
1D5DA
 10
1615.37
 20
226.555
 30
0.000000
  70
    32
  0
VERTEX
  8
SJC2
  5
1D5DB
 10
1615.50
 20
228.671
 30
0.000000
  70
    32
  0
VERTEX
  8
SJC2
  5
1D5DC
 10
1615.54
 20
230.721
 30
0.000000
  70
    32
  0
VERTEX
  8
SJC2
  5
1D5DD
 10
1615.49
 20
232.701
 30
0.000000
  70
    32
  0
VERTEX
  8
SJC2
  5
1D5DE
 10
1615.36
 20
234.606
 30
0.000000
  70
    32
  0
VERTEX
  8
SJC2
  5
1D5DF
 10
1615.14
 20
236.432
 30
0.000000
  70
    32
  0
VERTEX
  8
SJC2
  5
1D5E0
 10
1614.83
 20
238.174
 30
0.000000
  70
    32
  0
VERTEX
  8
SJC2
  5
1D5E1
 10
1614.43
 20
239.829
 30
0.000000
  70
    32
  0
VERTEX
  8
SJC2
  5
1D5E2
 10
1613.96
 20
241.391
 30
0.000000
  70
    32
  0
VERTEX
  8
SJC2
  5
1D5E3
 10
1613.39
 20
242.858
 30
0.000000
  70
    32
  0
VERTEX
  8
SJC2
  5
1D5E4
 10
1612.75
 20
244.226
 30
0.000000
  70
    32
  0
VERTEX
  8
SJC2
  5
1D5E5
 10
1612.02
 20
245.491
 30
0.000000
  70
    32
  0
VERTEX
  8
SJC2
  5
1D5E6
 10
1611.22
 20
246.650
 30
0.000000
  70
    32
  0
VERTEX
  8
SJC2
  5
1D5E7
 10
1610.34
 20
247.702
 30
0.000000
  70
    32
  0
VERTEX
  8
SJC2
  5
1D5E8
 10
1609.38
 20
248.642
 30
0.000000
  70
    32
  0
VERTEX
  8
SJC2
  5
1D5E9
 10
1608.36
 20
249.469
 30
0.000000
  70
    32
  0
VERTEX
  8
SJC2
  5
1D5EA
 10
1607.26
 20
250.182
 30
0.000000
  70
    32
  0
VERTEX
  8
SJC2
  5
1D5EB
 10
1606.09
 20
250.777
 30
0.000000
  70
    32
  0
VERTEX
  8
SJC2
  5
1D5EC
 10
1604.86
 20
251.254
 30
0.000000
  70
    32
  0
VERTEX
  8
SJC2
  5
1D5ED
 10
1603.57
 20
251.612
 30
0.000000
  70
    32
  0
VERTEX
  8
SJC2
  5
1D5EE
 10
1602.22
 20
251.849
 30
0.000000
  70
    32
  0
VERTEX
  8
SJC2
  5
1D5EF
 10
1600.81
 20
251.966
 30
0.000000
  70
    32
  0
VERTEX
  8
SJC2
  5
1D5F0
 10
1599.35
 20
251.961
 30
0.000000
  70
    32
  0
VERTEX
  8
SJC2
  5
1D5F1
 10
1597.85
 20
251.835
 30
0.000000
  70
    32
  0
VERTEX
  8
SJC2
  5
1D5F2
 10
1596.29
 20
251.589
 30
0.000000
  70
    32
  0
VERTEX
  8
SJC2
  5
1D5F3
 10
1594.70
 20
251.222
 30
0.000000
  70
    32
  0
VERTEX
  8
SJC2
  5
1D5F4
 10
1593.07
 20
250.736
 30
0.000000
  70
    32
  0
VERTEX
  8
SJC2
  5
1D5F5
 10
1591.41
 20
250.131
 30
0.000000
  70
    32
  0
VERTEX
  8
SJC2
  5
1D5F6
 10
1589.72
 20
249.410
 30
0.000000
  70
    32
  0
VERTEX
  8
SJC2
  5
1D5F7
 10
1588.00
 20
248.574
 30
0.000000
  70
    32
  0
VERTEX
  8
SJC2
  5
1D5F8
 10
1586.26
 20
247.625
 30
0.000000
  70
    32
  0
VERTEX
  8
SJC2
  5
1D5F9
 10
1584.51
 20
246.565
 30
0.000000
  70
    32
  0
VERTEX
  8
SJC2
  5
1D5FA
 10
1582.74
 20
245.398
 30
0.000000
  70
    32
  0
VERTEX
  8
SJC2
  5
1D5FB
 10
1580.96
 20
244.125
 30
0.000000
  70
    32
  0
VERTEX
  8
SJC2
  5
1D5FC
 10
1579.18
 20
242.749
 30
0.000000
  70
    32
  0
VERTEX
  8
SJC2
  5
1D5FD
 10
1577.40
 20
241.275
 30
0.000000
  70
    32
  0
VERTEX
  8
SJC2
  5
1D5FE
 10
1575.62
 20
239.705
 30
0.000000
  70
    32
  0
VERTEX
  8
SJC2
  5
1D5FF
 10
1573.86
 20
238.044
 30
0.000000
  70
    32
  0
VERTEX
  8
SJC2
  5
1D600
 10
1572.10
 20
236.295
 30
0.000000
  70
    32
  0
VERTEX
  8
SJC2
  5
1D601
 10
1570.37
 20
234.463
 30
0.000000
  70
    32
  0
VERTEX
  8
SJC2
  5
1D602
 10
1568.65
 20
232.552
 30
0.000000
  70
    32
  0
VERTEX
  8
SJC2
  5
1D603
 10
1566.96
 20
230.566
 30
0.000000
  70
    32
  0
VERTEX
  8
SJC2
  5
1D604
 10
1565.30
 20
228.511
 30
0.000000
  70
    32
  0
VERTEX
  8
SJC2
  5
1D605
 10
1563.67
 20
226.391
 30
0.000000
  70
    32
  0
VERTEX
  8
SJC2
  5
1D606
 10
1562.08
 20
224.212
 30
0.000000
  70
    32
  0
VERTEX
  8
SJC2
  5
1D607
 10
1560.54
 20
221.978
 30
0.000000
  70
    32
  0
VERTEX
  8
SJC2
  5
1D608
 10
1559.03
 20
219.696
 30
0.000000
  70
    32
  0
VERTEX
  8
SJC2
  5
1D609
 10
1557.58
 20
217.370
 30
0.000000
  70
    32
  0
VERTEX
  8
SJC2
  5
1D60A
 10
1556.18
 20
215.006
 30
0.000000
  70
    32
  0
VERTEX
  8
SJC2
  5
1D60B
 10
1554.83
 20
212.610
 30
0.000000
  70
    32
  0
VERTEX
  8
SJC2
  5
1D60C
 10
1553.55
 20
210.188
 30
0.000000
  70
    32
  0
VERTEX
  8
SJC2
  5
1D60D
 10
1552.32
 20
207.745
 30
0.000000
  70
    32
  0
VERTEX
  8
SJC2
  5
1D60E
 10
1551.16
 20
205.288
 30
0.000000
  70
    32
  0
VERTEX
  8
SJC2
  5
1D60F
 10
1550.07
 20
202.822
 30
0.000000
  70
    32
  0
VERTEX
  8
SJC2
  5
1D610
 10
1549.04
 20
200.354
 30
0.000000
  70
    32
  0
VERTEX
  8
SJC2
  5
1D611
 10
1548.09
 20
197.888
 30
0.000000
  70
    32
  0
VERTEX
  8
SJC2
  5
1D612
 10
1547.22
 20
195.432
 30
0.000000
  70
    32
  0
VERTEX
  8
SJC2
  5
1D613
 10
1546.42
 20
192.991
 30
0.000000
  70
    32
  0
VERTEX
  8
SJC2
  5
1D614
 10
1545.70
 20
190.570
 30
0.000000
  70
    32
  0
VERTEX
  8
SJC2
  5
1D615
 10
1545.07
 20
188.177
 30
0.000000
  70
    32
  0
VERTEX
  8
SJC2
  5
1D616
 10
1544.51
 20
185.816
 30
0.000000
  70
    32
  0
VERTEX
  8
SJC2
  5
1D617
 10
1544.04
 20
183.493
 30
0.000000
  70
    32
  0
VERTEX
  8
SJC2
  5
1D618
 10
1543.65
 20
181.214
 30
0.000000
  70
    32
  0
VERTEX
  8
SJC2
  5
1D619
 10
1543.35
 20
178.984
 30
0.000000
  70
    32
  0
VERTEX
  8
SJC2
  5
1D61A
 10
1543.14
 20
176.809
 30
0.000000
  70
    32
  0
VERTEX
  8
SJC2
  5
1D61B
 10
1543.01
 20
174.694
 30
0.000000
  70
    32
  0
VERTEX
  8
SJC2
  5
1D61C
 10
1542.97
 20
172.644
 30
0.000000
  70
    32
  0
VERTEX
  8
SJC2
  5
1D61D
 10
1543.02
 20
170.664
 30
0.000000
  70
    32
  0
VERTEX
  8
SJC2
  5
1D61E
 10
1543.15
 20
168.759
 30
0.000000
  70
    32
  0
VERTEX
  8
SJC2
  5
1D61F
 10
1543.37
 20
166.933
 30
0.000000
  70
    32
  0
VERTEX
  8
SJC2
  5
1D620
 10
1543.68
 20
165.191
 30
0.000000
  70
    32
  0
VERTEX
  8
SJC2
  5
1D621
 10
1544.08
 20
163.536
 30
0.000000
  70
    32
  0
VERTEX
  8
SJC2
  5
1D622
 10
1544.55
 20
161.974
 30
0.000000
  70
    32
  0
VERTEX
  8
SJC2
  5
1D623
 10
1545.12
 20
160.507
 30
0.000000
  70
    32
  0
VERTEX
  8
SJC2
  5
1D624
 10
1545.76
 20
159.139
 30
0.000000
  70
    32
  0
VERTEX
  8
SJC2
  5
1D625
 10
1546.49
 20
157.874
 30
0.000000
  70
    32
  0
VERTEX
  8
SJC2
  5
1D626
 10
1547.29
 20
156.714
 30
0.000000
  70
    32
  0
VERTEX
  8
SJC2
  5
1D627
 10
1548.17
 20
155.663
 30
0.000000
  70
    32
  0
VERTEX
  8
SJC2
  5
1D628
 10
1549.13
 20
154.723
 30
0.000000
  70
    32
  0
VERTEX
  8
SJC2
  5
1D629
 10
1550.16
 20
153.895
 30
0.000000
  70
    32
  0
VERTEX
  8
SJC2
  5
1D62A
 10
1551.25
 20
153.183
 30
0.000000
  70
    32
  0
SEQEND
  8
SJC2
  5
1D62B
  0
DIMENSION
  5
1BCC8
  8
SUNPOU
  2
*D21
 10
1728.206651558688
 20
251.200391796714
 30
0.0
 11
1701.206651558688
 21
1101.200391796714
 31
0.0
 70
     0
 13
1454.3632148796351
 23
1951.200391796714
 33
0.0
 14
1616.8632148796351
 24
251.200391796714
 34
0.0
 50
90.0
1001
ACAD
1000
DSTYLE
1002
{
1070
   287
1070
     5
1070
    40
1040
10.0
1070
    41
1040
2.0
1070
    42
1040
1.0
1070
    43
1040
6.0
1070
    44
1040
1.0
1070
    73
1070
     0
1070
    74
1070
     0
1070
    77
1070
     1
1070
    78
1070
     8
1070
   140
1040
3.0
1070
   147
1040
1.1999999999999991
1070
   172
1070
     1
1070
   179
1070
     2
1070
   271
1070
     2
1070
   279
1070
     2
1070
   340
1005
55
1002
}
  0
TEXT
  5
1BCD5
  8
MOJI
 10
2934.3431438828788
 20
2042.465333492976
 30
0.0
 40
30.0
  1
鉄製
 41
0.8
  7
EXT08
 11
2934.3431438828788
 21
2057.4653334929758
 31
0.0
 73
     2
  0
TEXT
  5
1BD0F
  8
SUNPOU
 10
409.85708168582659
 20
707.76090993457456
 30
0.0
 40
30.0
  1
φ9×150
 41
0.8
  7
EXT08
 72
     4
 11
485.05708168582657
 21
722.76090993457456
 31
0.0
  0
LINE
  5
1BE5D
  8
SJC
 10
2978.6942880838401
 20
2651.462121184511
 30
0.0
 11
3648.6942880838401
 21
2651.462121184511
 31
0.0
  0
LINE
  5
1BE5E
  8
SJC
 10
2978.6942880838401
 20
2501.462121184511
 30
0.0
 11
3648.6942880838401
 21
2501.462121184511
 31
0.0
  0
LINE
  5
1BE5F
  8
SJC
 10
2963.6942880838401
 20
2551.462121184511
 30
0.0
 11
3663.6942880838401
 21
2551.462121184511
 31
0.0
  0
LINE
  5
1BE60
  8
SJC
 10
2963.6942880838401
 20
2601.462121184511
 30
0.0
 11
3663.6942880838401
 21
2601.462121184511
 31
0.0
  0
TEXT
  5
1BE61
  8
MOJI
 10
3120.6854416030642
 20
2511.7388454641582
 30
0.0
 40
30.0
  1
KEKH00574※1
 41
0.8
  7
EXT08
  0
TEXT
  5
1BE62
  8
MOJI
 10
3120.6854416030642
 20
2611.7388454641582
 30
0.0
 40
30.0
  1
ジスロンパイプサインポール（単柱式）
 41
0.8
  7
EXT08
  0
TEXT
  5
1BE63
  8
MOJI
 10
2996.4657166552688
 20
2610.8621211845111
 30
0.0
 40
30.0
  1
タイプ
 41
0.8
  7
EXT08
 72
     4
 11
3038.6942880838401
 21
2626.462121184511
 31
0.0
  0
LINE
  5
1BE64
  8
SJC
 10
3113.6942880838401
 20
2501.462121184511
 30
0.0
 11
3113.6942880838401
 21
2651.462121184511
 31
0.0
  0
ARC
  5
1BE65
  8
SJC
 10
2978.6942880838401
 20
2636.462121184511
 30
0.0
 40
15.0
 50
90.0
 51
180.0
  0
ARC
  5
1BE66
  8
SJC
 10
2978.6942880838401
 20
2516.462121184511
 30
0.0
 40
15.0
 50
180.0
 51
270.0
  0
LINE
  5
1BE67
  8
SJC
 10
2963.6942880838401
 20
2516.462121184511
 30
0.0
 11
2963.6942880838401
 21
2636.462121184511
 31
0.0
  0
TEXT
  5
1BE68
  8
MOJI
 10
2998.6942880838401
 20
2561.4621211845101
 30
0.0
 40
30.0
  1
品  番
 41
0.8
  7
EXT08
 72
     4
 11
3038.6942880838401
 21
2576.462121184511
 31
0.0
  0
TEXT
  5
1BE69
  8
MOJI
 10
2983.4942880838398
 20
2511.462121184511
 30
0.0
 40
30.0
  1
図面番号
 41
0.8
  7
EXT08
 72
     4
 11
3038.6942880838401
 21
2526.462121184511
 31
0.0
  0
ARC
  5
1BE6A
  8
SJC
 10
3648.6942880838401
 20
2636.462121184511
 30
0.0
 40
15.0
 50
0.0
 51
90.0
  0
ARC
  5
1BE6B
  8
SJC
 10
3648.6942880838401
 20
2516.462121184511
 30
0.0
 40
15.0
 50
270.0
 51
0.0
  0
LINE
  5
1BE6C
  8
SJC
 10
3663.6942880838401
 20
2516.462121184511
 30
0.0
 11
3663.6942880838401
 21
2636.462121184511
 31
0.0
  0
TEXT
  5
1BE6D
  8
MOJI
 10
3120.6854416030642
 20
2561.7388454641582
 30
0.0
 40
30.0
  1
89SPE-LSL-C
 41
0.8
  7
EXT08
  0
INSERT
  5
1C7BD
  8
0
  2
*U37
 10
0.0
 20
0.0
 30
0.0
1001
ACAD
1000
DSTYLE
1002
{
1070
   140
1040
30.0
1070
   144
1040
0.5
1070
   147
1040
15.0
1070
    42
1040
10.0
1070
    44
1040
10.0
1070
    43
1040
60.0
1070
    41
1040
20.0
1002
}
  0
LINE
  5
1C7BE
  8
SJC
 10
619.64738174554168
 20
1946.200391796714
 30
0.0
 11
755.64738174554157
 21
1946.200391796714
 31
0.0
  0
LINE
  5
1C7BF
  8
SJC
 10
612.64738174553975
 20
2439.200391796714
 30
0.0
 11
612.64738174554248
 21
1953.200391796714
 31
0.0
  0
LINE
  5
1C7C0
  8
SJC
 10
762.64738174554338
 20
2439.200391796714
 30
0.0
 11
762.64738174554077
 21
1953.200391796714
 31
0.0
  0
LINE
  5
1C7C1
  8
HASEN
 10
650.14738174554077
 20
1951.200391796714
 30
0.0
 11
725.14738174554077
 21
1951.2003917967129
 31
0.0
  0
LINE
  5
1C7C2
  8
SJC
 10
607.64738174553975
 20
2439.200391796714
 30
0.0
 11
607.64738174554168
 21
1953.200391796714
 31
0.0
  0
LINE
  5
1C7C3
  8
SJC
 10
767.6473817455435
 20
2439.200391796714
 30
0.0
 11
767.64738174554157
 21
1953.200391796714
 31
0.0
  0
ARC
  5
1C7C4
  8
SJC
 10
755.64738174554157
 20
1953.200391796714
 30
0.0
 40
12.0
 50
270.0
 51
0.0
  0
ARC
  5
1C7C5
  8
SJC
 10
755.64738174554157
 20
1953.200391796714
 30
0.0
 40
7.0
 50
270.0
 51
0.0
  0
ARC
  5
1C7C6
  8
SJC
 10
619.64738174554168
 20
1953.200391796714
 30
0.0
 40
12.0
 50
180.0
 51
270.0
  0
ARC
  5
1C7C7
  8
SJC
 10
619.64738174554168
 20
1953.200391796714
 30
0.0
 40
7.0
 50
180.0
 51
270.0
  0
LINE
  5
1C7C8
  8
SJC
 10
755.64738174554157
 20
1941.200391796714
 30
0.0
 11
687.64738174554077
 21
1941.200391796714
 31
0.0
  0
LINE
  5
1C7C9
  8
SJC
 10
687.64738174554077
 20
1941.200391796714
 30
0.0
 11
619.64738174554168
 21
1941.200391796714
 31
0.0
  0
DIMENSION
  5
1C7CA
  8
SUNPOU
  2
*D22
 10
533.71736719745957
 20
1941.200391796714
 30
0.0
 11
506.71736719745928
 21
2196.200391796714
 31
0.0
 70
     0
 13
619.64738174553975
 23
2451.200391796714
 33
0.0
 14
619.64738174554168
 24
1941.200391796714
 34
0.0
 50
90.0
1001
ACAD
1000
DSTYLE
1002
{
1070
   287
1070
     5
1070
    40
1040
10.0
1070
    41
1040
2.0
1070
    42
1040
1.0
1070
    43
1040
6.0
1070
    44
1040
1.0
1070
    73
1070
     0
1070
    74
1070
     0
1070
    77
1070
     1
1070
    78
1070
     8
1070
   140
1040
3.0
1070
   147
1040
1.1999999999999991
1070
   172
1070
     1
1070
   179
1070
     2
1070
   271
1070
     2
1070
   279
1070
     2
1070
   340
1005
55
1002
}
  0
TEXT
  5
1C7CB
  8
SUNPOU
 10
873.97472292887039
 20
2254.5452844718538
 30
0.0
 40
30.0
  1
ＣＲゴム
 41
0.8
  7
EXT08
  0
LINE
  5
1C7CC
  8
SUNPOU
 10
871.49854215279356
 20
2289.373147728712
 30
0.0
 11
1122.981340394248
 21
2289.373147728712
 31
0.0
1001
ACAD
1000
DSTYLE
1002
{
1070
    77
1070
     0
1070
    40
1040
10.0
1070
   147
1040
1.1999999999999991
1070
   176
1070
     0
1070
   177
1070
     0
1070
   178
1070
     0
1070
   179
1070
     2
1070
   271
1070
     2
1002
}
  0
TEXT
  5
1C7CD
  8
SUNPOU
 10
873.97472292887039
 20
2295.1311682208229
 30
0.0
 40
30.0
  1
弾性サイン板（大）
 41
0.8
  7
EXT08
  0
LINE
  5
1C7CE
  8
SJC
 10
755.64738174554157
 20
1941.200391796714
 30
0.0
 11
687.64738174554077
 21
1941.200391796714
 31
0.0
  0
LINE
  5
1C7CF
  8
SJC
 10
687.64738174554077
 20
1941.200391796714
 30
0.0
 11
619.64738174554168
 21
1941.200391796714
 31
0.0
  0
LINE
  5
1C7D0
  8
SJC
 10
619.64738174553975
 20
1936.2003917967129
 30
0.0
 11
755.6473817455435
 21
1936.200391796714
 31
0.0
  0
LINE
  5
1C7D1
  8
SJC
 10
619.64738174554168
 20
1636.200391796714
 30
0.0
 11
755.64738174554157
 21
1636.200391796714
 31
0.0
  0
LINE
  5
1C7D2
  8
SJC
 10
612.64738174553975
 20
1929.200391796714
 30
0.0
 11
612.64738174554157
 21
1643.200391796714
 31
0.0
  0
LINE
  5
1C7D3
  8
SJC
 10
762.64738174554338
 20
1929.200391796714
 30
0.0
 11
762.64738174554157
 21
1643.200391796714
 31
0.0
  0
LINE
  5
1C7D4
  8
SJC
 10
607.64738174553975
 20
1929.200391796714
 30
0.0
 11
607.64738174554077
 21
1643.200391796714
 31
0.0
  0
ARC
  5
1C7D5
  8
SJC
 10
619.64738174553975
 20
1929.200391796714
 30
0.0
 40
12.0
 50
90.0
 51
180.0
  0
ARC
  5
1C7D6
  8
SJC
 10
619.64738174553975
 20
1929.200391796714
 30
0.0
 40
7.0
 50
90.0
 51
180.0
  0
LINE
  5
1C7D7
  8
SJC
 10
767.6473817455435
 20
1929.200391796714
 30
0.0
 11
767.64738174554248
 21
1643.200391796714
 31
0.0
  0
ARC
  5
1C7D8
  8
SJC
 10
755.64738174554157
 20
1643.200391796714
 30
0.0
 40
12.0
 50
270.0
 51
0.0
  0
ARC
  5
1C7D9
  8
SJC
 10
755.64738174554157
 20
1643.200391796714
 30
0.0
 40
7.0
 50
270.0
 51
0.0
  0
ARC
  5
1C7DA
  8
SJC
 10
755.6473817455435
 20
1929.200391796714
 30
0.0
 40
12.0
 50
0.0
 51
90.0
  0
ARC
  5
1C7DB
  8
SJC
 10
755.6473817455435
 20
1929.200391796714
 30
0.0
 40
7.0
 50
0.0
 51
90.0
  0
ARC
  5
1C7DC
  8
SJC
 10
619.64738174554168
 20
1643.200391796714
 30
0.0
 40
12.0
 50
180.0
 51
270.0
  0
ARC
  5
1C7DD
  8
SJC
 10
619.64738174554168
 20
1643.200391796714
 30
0.0
 40
7.0
 50
180.0
 51
270.0
  0
LINE
  5
1C7DE
  8
SJC
 10
755.64738174554157
 20
1631.200391796714
 30
0.0
 11
619.64738174554168
 21
1631.200391796714
 31
0.0
  0
DIMENSION
  5
1C7DF
  8
SUNPOU
  2
*D23
 10
533.71736719745957
 20
1631.200391796714
 30
0.0
 11
506.7173671974594
 21
1786.200391796714
 31
0.0
 70
     0
 13
619.64738174553975
 23
1941.200391796714
 33
0.0
 14
619.64738174554168
 24
1631.200391796714
 34
0.0
 50
90.0
1001
ACAD
1000
DSTYLE
1002
{
1070
   287
1070
     5
1070
    40
1040
10.0
1070
    41
1040
2.0
1070
    42
1040
1.0
1070
    43
1040
6.0
1070
    44
1040
1.0
1070
    73
1070
     0
1070
    74
1070
     0
1070
    77
1070
     1
1070
    78
1070
     8
1070
   140
1040
3.0
1070
   147
1040
1.1999999999999991
1070
   172
1070
     1
1070
   179
1070
     2
1070
   271
1070
     2
1070
   279
1070
     2
1070
   340
1005
55
1002
}
  0
INSERT
  5
1C7E0
  8
0
  2
*U38
 10
0.0
 20
0.0
 30
0.0
1001
ACAD
1000
DSTYLE
1002
{
1070
   140
1040
30.0
1070
   144
1040
0.5
1070
   147
1040
15.0
1070
    42
1040
10.0
1070
    44
1040
10.0
1070
    43
1040
60.0
1070
    41
1040
20.0
1002
}
  0
TEXT
  5
1C7E1
  8
SUNPOU
 10
873.97472292887039
 20
1839.415652590912
 30
0.0
 40
30.0
  1
ＣＲゴム
 41
0.8
  7
EXT08
  0
LINE
  5
1C7E2
  8
SUNPOU
 10
871.49854215279356
 20
1874.2435158477699
 30
0.0
 11
1122.981340394248
 21
1874.2435158477699
 31
0.0
1001
ACAD
1000
DSTYLE
1002
{
1070
    77
1070
     0
1070
    40
1040
10.0
1070
   147
1040
1.1999999999999991
1070
   176
1070
     0
1070
   177
1070
     0
1070
   178
1070
     0
1070
   179
1070
     2
1070
   271
1070
     2
1002
}
  0
TEXT
  5
1C7E3
  8
SUNPOU
 10
873.97472292887039
 20
1880.001536339882
 30
0.0
 40
30.0
  1
弾性サイン板（小）
 41
0.8
  7
EXT08
  0
LINE
  5
1C840
  8
SJC
 10
619.64738174554145
 20
1626.2003917967129
 30
0.0
 11
755.64738174554509
 21
1626.200391796714
 31
0.0
  0
ARC
  5
1C841
  8
SJC
 10
619.64738174554145
 20
1619.200391796714
 30
0.0
 40
12.0
 50
90.0
 51
180.0
  0
ARC
  5
1C842
  8
SJC
 10
619.64738174554145
 20
1619.200391796714
 30
0.0
 40
7.0
 50
90.0
 51
180.0
  0
ARC
  5
1C843
  8
SJC
 10
755.64738174554509
 20
1619.200391796714
 30
0.0
 40
12.0
 50
0.0
 51
90.0
  0
ARC
  5
1C844
  8
SJC
 10
755.64738174554509
 20
1619.200391796714
 30
0.0
 40
7.0
 50
0.0
 51
90.0
  0
LINE
  5
1C845
  8
SJC
 10
755.64738174554509
 20
1631.200391796714
 30
0.0
 11
619.64738174554145
 21
1631.200391796714
 31
0.0
  0
INSERT
  5
1C846
  8
0
  2
*U39
 10
0.0
 20
0.0
 30
0.0
1001
ACAD
1000
DSTYLE
1002
{
1070
   140
1040
30.0
1070
   144
1040
0.5
1070
   147
1040
15.0
1070
    42
1040
10.0
1070
    44
1040
10.0
1070
    43
1040
60.0
1070
    41
1040
20.0
1002
}
  0
LINE
  5
1C847
  8
SJC
 10
619.64738174554327
 20
1126.200391796714
 30
0.0
 11
755.64738174554316
 21
1126.200391796714
 31
0.0
  0
LINE
  5
1C848
  8
SJC
 10
612.64738174554145
 20
1619.200391796714
 30
0.0
 11
612.64738174554407
 21
1133.200391796714
 31
0.0
  0
LINE
  5
1C849
  8
SJC
 10
762.64738174554498
 20
1619.200391796714
 30
0.0
 11
762.64738174554236
 21
1133.200391796714
 31
0.0
  0
LINE
  5
1C84A
  8
SJC
 10
607.64738174554145
 20
1619.200391796714
 30
0.0
 11
607.64738174554327
 21
1133.200391796714
 31
0.0
  0
LINE
  5
1C84B
  8
SJC
 10
767.64738174554509
 20
1619.200391796714
 30
0.0
 11
767.64738174554316
 21
1133.200391796714
 31
0.0
  0
ARC
  5
1C84C
  8
SJC
 10
755.64738174554316
 20
1133.200391796714
 30
0.0
 40
12.0
 50
270.0
 51
0.0
  0
ARC
  5
1C84D
  8
SJC
 10
755.64738174554316
 20
1133.200391796714
 30
0.0
 40
7.0
 50
270.0
 51
0.0
  0
ARC
  5
1C84E
  8
SJC
 10
619.64738174554327
 20
1133.200391796714
 30
0.0
 40
12.0
 50
180.0
 51
270.0
  0
ARC
  5
1C84F
  8
SJC
 10
619.64738174554327
 20
1133.200391796714
 30
0.0
 40
7.0
 50
180.0
 51
270.0
  0
DIMENSION
  5
1C850
  8
SUNPOU
  2
*D24
 10
533.71736719746116
 20
1121.200391796714
 30
0.0
 11
506.7173671974611
 21
1376.200391796714
 31
0.0
 70
     0
 13
619.64738174554145
 23
1631.200391796714
 33
0.0
 14
619.64738174554327
 24
1121.200391796714
 34
0.0
 50
90.0
1001
ACAD
1000
DSTYLE
1002
{
1070
   287
1070
     5
1070
    40
1040
10.0
1070
    41
1040
2.0
1070
    42
1040
1.0
1070
    43
1040
6.0
1070
    44
1040
1.0
1070
    73
1070
     0
1070
    74
1070
     0
1070
    77
1070
     1
1070
    78
1070
     8
1070
   140
1040
3.0
1070
   147
1040
1.1999999999999991
1070
   172
1070
     1
1070
   179
1070
     2
1070
   271
1070
     2
1070
   279
1070
     2
1070
   340
1005
55
1002
}
  0
TEXT
  5
1C851
  8
SUNPOU
 10
873.97472292887198
 20
1434.5452844718541
 30
0.0
 40
30.0
  1
ＣＲゴム
 41
0.8
  7
EXT08
  0
LINE
  5
1C852
  8
SUNPOU
 10
871.49854215279515
 20
1469.373147728712
 30
0.0
 11
1122.9813403942489
 21
1469.373147728712
 31
0.0
1001
ACAD
1000
DSTYLE
1002
{
1070
    77
1070
     0
1070
    40
1040
10.0
1070
   147
1040
1.1999999999999991
1070
   176
1070
     0
1070
   177
1070
     0
1070
   178
1070
     0
1070
   179
1070
     2
1070
   271
1070
     2
1002
}
  0
TEXT
  5
1C853
  8
SUNPOU
 10
873.97472292887198
 20
1475.1311682208229
 30
0.0
 40
30.0
  1
弾性サイン板（大）
 41
0.8
  7
EXT08
  0
LINE
  5
1C854
  8
SJC
 10
755.64738174554316
 20
1121.200391796714
 30
0.0
 11
687.64738174554236
 21
1121.200391796714
 31
0.0
  0
LINE
  5
1C86A
  8
SJC
 10
687.64738174554407
 20
1121.200391796714
 30
0.0
 11
619.64738174554327
 21
1121.200391796714
 31
0.0
  0
LINE
  5
1C874
  8
SJC
 10
1364.3632148796351
 20
2446.7003917969491
 30
0.0
 11
1364.3632148796351
 21
1953.2003917967261
 31
0.0
  0
LINE
  5
1C875
  8
SJC
 10
1370.363214879799
 20
2028.700391796908
 30
0.0
 11
1370.363214879799
 21
1958.700391796893
 31
0.0
  0
LINE
  5
1C876
  8
SJC
 10
1370.363214879688
 20
2446.2003917967209
 30
0.0
 11
1370.363214879688
 21
2376.200391796709
 31
0.0
  0
LINE
  5
1C877
  8
SJC
 10
1370.363214879633
 20
2449.2003917967181
 30
0.0
 11
1370.363214879744
 21
1943.200391796674
 31
0.0
  0
LINE
  5
1C878
  8
SJC
 10
1370.3632148797999
 20
1958.700391796669
 30
0.0
 11
1370.3632148797999
 21
2028.7003917966831
 31
0.0
  0
LINE
  5
1C879
  8
SJC
 10
1364.3632148796351
 20
2449.2003917967158
 30
0.0
 11
1364.3632148796351
 21
1943.2003917966749
 31
0.0
  0
LINE
  5
1C87A
  8
SJC
 10
1368.363214879744
 20
1941.200391796674
 30
0.0
 11
1366.363214879746
 21
1941.2003917966749
 31
0.0
  0
ARC
  5
1C87B
  8
SJC
 10
1368.3632148797451
 20
1943.200391796674
 30
0.0
 40
2.0
 50
270.0
 51
359.99999999997402
  0
ARC
  5
1C87C
  8
SJC
 10
1366.3632148797451
 20
1943.2003917966749
 30
0.0
 40
2.0
 50
179.99999999998701
 51
270.0
  0
LINE
  5
1C87D
  8
SJC
 10
1426.863214880487
 20
1946.2003917966961
 30
0.0
 11
1426.8632148804811
 21
1963.2881195551561
 31
0.0
  0
ARC
  5
1C87E
  8
SJC
 10
1421.863214880487
 20
1946.200391796694
 30
0.0
 40
5.0
 50
270.0
 51
0.0000000000260551
  0
LINE
  5
1C87F
  8
SJC
 10
1421.8632148804891
 20
1941.2003917966911
 30
0.0
 11
1367.36321488049
 21
1941.200391796674
 31
0.0
  0
LINE
  5
1C880
  8
CENTER
 10
1416.8632148804861
 20
1955.700391796692
 30
0.0
 11
1416.8632148804829
 21
1964.700391796692
 31
0.0
  0
LINE
  5
1C881
  8
CENTER
 10
1421.363214880485
 20
1960.200391796694
 30
0.0
 11
1412.363214880485
 21
1960.2003917966911
 31
0.0
  0
CIRCLE
  5
1C882
  8
SJC
 10
1416.863214880485
 20
1960.200391796692
 30
0.0
 40
4.5
  0
LINE
  5
1C883
  8
SJC
 10
1423.0657847448631
 20
1968.1413479364769
 30
0.0
 11
1370.363214879756
 21
1981.200391796674
 31
0.0
  0
ARC
  5
1C884
  8
SJC
 10
1421.8632148804811
 20
1963.288119555154
 30
0.0
 40
5.0
 50
0.0000000000260551
 51
76.083122566894829
  0
LINE
  5
1C885
  8
SJC
 10
1426.863214880369
 20
2205.2881195550631
 30
0.0
 11
1426.863214880369
 21
2187.1126640381408
 31
0.0
  0
ARC
  5
1C886
  8
SJC
 10
1421.863214880369
 20
2187.1126640381431
 30
0.0
 40
5.0
 50
283.91687743310518
 51
359.99999999997402
  0
LINE
  5
1C887
  8
CENTER
 10
1416.863214880374
 20
2200.7003917966049
 30
0.0
 11
1416.863214880372
 21
2191.7003917966049
 31
0.0
  0
LINE
  5
1C888
  8
CENTER
 10
1421.3632148803731
 20
2196.2003917966031
 30
0.0
 11
1412.3632148803731
 21
2196.2003917966058
 31
0.0
  0
CIRCLE
  5
1C889
  8
SJC
 10
1416.8632148803731
 20
2196.2003917966049
 30
0.0
 40
4.5
  0
LINE
  5
1C88A
  8
SJC
 10
1423.065784744751
 20
2182.2594356568188
 30
0.0
 11
1370.3632148796439
 21
2169.2003917966231
 31
0.0
  0
ARC
  5
1C88B
  8
SJC
 10
1421.863214880369
 20
2205.2881195550631
 30
0.0
 40
5.0
 50
0.0000000000260551
 51
76.083122566894829
  0
LINE
  5
1C88C
  8
SJC
 10
1423.065784744751
 20
2210.1413479363869
 30
0.0
 11
1370.3632148796439
 21
2223.2003917965831
 31
0.0
  0
LINE
  5
1C88D
  8
SJC
 10
1400.3632148795421
 20
2418.6340201151702
 30
0.0
 11
1400.363214879633
 21
2215.7667634781069
 31
0.0
  0
LINE
  5
1C88E
  8
SJC
 10
1400.3632148796371
 20
2176.6340201151011
 30
0.0
 11
1400.3632148797331
 21
1973.7667634781999
 31
0.0
  0
CIRCLE
  5
1C88F
  8
SJC
 10
1416.8632148788961
 20
2196.2003917966049
 30
0.0
 40
4.0
  0
LINE
  5
1C890
  8
SJC2
 10
1416.4376829640021
 20
2199.17911520086
 30
0.0
 11
1417.2887467937901
 21
2199.17911520086
 31
0.0
  0
LINE
  5
1C891
  8
SJC2
 10
1419.841938283151
 20
2196.6259237114982
 30
0.0
 11
1419.841938283151
 21
2195.7748598817111
 31
0.0
  0
LINE
  5
1C892
  8
SJC2
 10
1413.8844914746401
 20
2196.6259237114982
 30
0.0
 11
1413.8844914746401
 21
2195.7748598817111
 31
0.0
  0
LINE
  5
1C893
  8
SJC2
 10
1416.4376829640021
 20
2193.2216683923498
 30
0.0
 11
1417.2887467937901
 21
2193.2216683923498
 31
0.0
  0
ARC
  5
1C894
  8
SJC2
 10
1419.841938283151
 20
2193.2216683923498
 30
0.0
 40
2.5531914893616769
 50
90.0
 51
180.0
  0
ARC
  5
1C895
  8
SJC2
 10
1413.8844914746401
 20
2193.2216683923498
 30
0.0
 40
2.5531914893616769
 50
0.0
 51
90.0
  0
ARC
  5
1C896
  8
SJC2
 10
1419.841938283151
 20
2199.17911520086
 30
0.0
 40
2.5531914893616769
 50
180.0
 51
270.0
  0
ARC
  5
1C897
  8
SJC2
 10
1413.8844914746401
 20
2199.17911520086
 30
0.0
 40
2.5531914893616769
 50
270.0
 51
0.0
  0
CIRCLE
  5
1C898
  8
SJC
 10
1416.8632148788961
 20
1960.200391796692
 30
0.0
 40
4.0
  0
LINE
  5
1C899
  8
SJC2
 10
1416.4376829640021
 20
1963.1791152009471
 30
0.0
 11
1417.2887467937901
 21
1963.1791152009471
 31
0.0
  0
LINE
  5
1C89A
  8
SJC2
 10
1419.841938283151
 20
1960.6259237115851
 30
0.0
 11
1419.841938283151
 21
1959.774859881798
 31
0.0
  0
LINE
  5
1C89B
  8
SJC2
 10
1413.8844914746401
 20
1960.6259237115851
 30
0.0
 11
1413.8844914746401
 21
1959.774859881798
 31
0.0
  0
LINE
  5
1C89C
  8
SJC2
 10
1416.4376829640021
 20
1957.2216683924371
 30
0.0
 11
1417.2887467937901
 21
1957.2216683924371
 31
0.0
  0
ARC
  5
1C89D
  8
SJC2
 10
1419.841938283151
 20
1957.2216683924371
 30
0.0
 40
2.5531914893616769
 50
90.0
 51
180.0
  0
ARC
  5
1C89E
  8
SJC2
 10
1413.8844914746401
 20
1957.2216683924371
 30
0.0
 40
2.5531914893616769
 50
0.0
 51
90.0
  0
ARC
  5
1C89F
  8
SJC2
 10
1419.841938283151
 20
1963.1791152009471
 30
0.0
 40
2.5531914893616769
 50
180.0
 51
270.0
  0
ARC
  5
1C8A0
  8
SJC2
 10
1413.8844914746401
 20
1963.1791152009471
 30
0.0
 40
2.5531914893616769
 50
270.0
 51
0.0
  0
LINE
  5
1C8A1
  8
SJC
 10
1370.3632148799111
 20
1828.7003917968541
 30
0.0
 11
1370.3632148799111
 21
1758.7003917968391
 31
0.0
  0
LINE
  5
1C8A2
  8
SJC
 10
1370.363214879912
 20
1758.7003917966149
 30
0.0
 11
1370.363214879912
 21
1828.700391796629
 31
0.0
  0
LINE
  5
1C8A3
  8
SJC
 10
1368.3632148798561
 20
1941.200391796644
 30
0.0
 11
1366.363214879746
 21
1941.2003917966449
 31
0.0
  0
LINE
  5
1C8A4
  8
SJC
 10
1421.8632148806009
 20
1941.2003917966611
 30
0.0
 11
1367.3632148806021
 21
1941.200391796644
 31
0.0
  0
LINE
  5
1C8A5
  8
SJC
 10
1364.3632148797469
 20
1936.700391796908
 30
0.0
 11
1364.3632148797469
 21
1633.2003917966581
 31
0.0
  0
ARC
  5
1C8A6
  8
SJC
 10
1368.3632148797451
 20
1939.2003917966749
 30
0.0
 40
2.0
 50
0.0000000000260551
 51
90.0
  0
ARC
  5
1C8A7
  8
SJC
 10
1366.3632148797451
 20
1939.2003917966749
 30
0.0
 40
2.0
 50
90.0
 51
180.00000000001299
  0
LINE
  5
1C8A8
  8
SJC
 10
1370.3632148797451
 20
1939.200391796677
 30
0.0
 11
1370.3632148798119
 21
1633.200391796657
 31
0.0
  0
LINE
  5
1C8A9
  8
SJC
 10
1426.863214880487
 20
1936.2003917966531
 30
0.0
 11
1426.8632148804811
 21
1919.1126640381931
 31
0.0
  0
ARC
  5
1C8AA
  8
SJC
 10
1421.863214880487
 20
1936.2003917966549
 30
0.0
 40
5.0
 50
359.99999999997402
 51
90.0
  0
LINE
  5
1C8AB
  8
CENTER
 10
1416.8632148804861
 20
1926.700391796657
 30
0.0
 11
1416.8632148804829
 21
1917.700391796657
 31
0.0
  0
LINE
  5
1C8AC
  8
CENTER
 10
1421.363214880485
 20
1922.2003917966549
 30
0.0
 11
1412.363214880485
 21
1922.2003917966581
 31
0.0
  0
CIRCLE
  5
1C8AD
  8
SJC
 10
1416.863214880485
 20
1922.200391796657
 30
0.0
 40
4.5
  0
LINE
  5
1C8AE
  8
SJC
 10
1364.3632148797469
 20
1939.2003917966749
 30
0.0
 11
1364.3632148797469
 21
1633.2003917966581
 31
0.0
  0
LINE
  5
1C8AF
  8
SJC
 10
1423.0657847448631
 20
1914.2594356568709
 30
0.0
 11
1370.363214879756
 21
1901.2003917966749
 31
0.0
  0
ARC
  5
1C8B0
  8
SJC
 10
1421.8632148804811
 20
1919.112664038194
 30
0.0
 40
5.0
 50
283.91687743310518
 51
359.99999999997402
  0
LINE
  5
1C8B1
  8
SJC
 10
1368.3632148798561
 20
1631.200391796657
 30
0.0
 11
1366.363214879857
 21
1631.2003917966581
 31
0.0
  0
ARC
  5
1C8B2
  8
SJC
 10
1368.363214879857
 20
1633.200391796657
 30
0.0
 40
2.0
 50
270.0
 51
359.99999999997402
  0
ARC
  5
1C8B3
  8
SJC
 10
1366.363214879857
 20
1633.2003917966581
 30
0.0
 40
2.0
 50
179.99999999998701
 51
270.0
  0
LINE
  5
1C8B4
  8
SJC
 10
1426.8632148805989
 20
1636.200391796679
 30
0.0
 11
1426.863214880593
 21
1653.288119555139
 31
0.0
  0
ARC
  5
1C8B5
  8
SJC
 10
1421.8632148805989
 20
1636.200391796677
 30
0.0
 40
5.0
 50
270.0
 51
0.0000000000260551
  0
LINE
  5
1C8B6
  8
SJC
 10
1421.8632148806009
 20
1631.200391796674
 30
0.0
 11
1367.3632148806021
 21
1631.200391796657
 31
0.0
  0
LINE
  5
1C8B7
  8
CENTER
 10
1416.863214880598
 20
1645.7003917966749
 30
0.0
 11
1416.863214880595
 21
1654.7003917966749
 31
0.0
  0
LINE
  5
1C8B8
  8
CENTER
 10
1421.3632148805971
 20
1650.200391796677
 30
0.0
 11
1412.3632148805971
 21
1650.200391796674
 31
0.0
  0
CIRCLE
  5
1C8B9
  8
SJC
 10
1416.8632148805971
 20
1650.2003917966749
 30
0.0
 40
4.5
  0
LINE
  5
1C8BA
  8
SJC
 10
1423.065784744975
 20
1658.1413479364601
 30
0.0
 11
1370.3632148798681
 21
1671.200391796657
 31
0.0
  0
ARC
  5
1C8BB
  8
SJC
 10
1421.8632148805921
 20
1653.288119555137
 30
0.0
 40
5.0
 50
0.0000000000260551
 51
76.083122566894829
  0
LINE
  5
1C8BC
  8
SJC
 10
1400.363214879653
 20
1908.634020115129
 30
0.0
 11
1400.3632148797669
 21
1663.7667634782019
 31
0.0
  0
CIRCLE
  5
1C8BD
  8
SJC
 10
1416.863214879746
 20
1922.200391796657
 30
0.0
 40
4.0
  0
LINE
  5
1C8BE
  8
SJC2
 10
1416.437682964852
 20
1925.1791152009121
 30
0.0
 11
1417.28874679464
 21
1925.1791152009121
 31
0.0
  0
LINE
  5
1C8BF
  8
SJC2
 10
1419.841938284002
 20
1922.6259237115501
 30
0.0
 11
1419.841938284002
 21
1921.774859881762
 31
0.0
  0
LINE
  5
1C8C0
  8
SJC2
 10
1413.8844914754909
 20
1922.6259237115501
 30
0.0
 11
1413.8844914754909
 21
1921.774859881762
 31
0.0
  0
LINE
  5
1C8C1
  8
SJC2
 10
1416.437682964852
 20
1919.2216683924009
 30
0.0
 11
1417.28874679464
 21
1919.2216683924009
 31
0.0
  0
ARC
  5
1C8C2
  8
SJC2
 10
1419.841938284002
 20
1919.2216683924009
 30
0.0
 40
2.5531914893616769
 50
90.0
 51
180.0
  0
ARC
  5
1C8C3
  8
SJC2
 10
1413.8844914754909
 20
1919.2216683924009
 30
0.0
 40
2.5531914893616769
 50
0.0
 51
90.0
  0
ARC
  5
1C8C4
  8
SJC2
 10
1419.841938284002
 20
1925.1791152009121
 30
0.0
 40
2.5531914893616769
 50
180.0
 51
270.0
  0
ARC
  5
1C8C5
  8
SJC2
 10
1413.8844914754909
 20
1925.1791152009121
 30
0.0
 40
2.5531914893616769
 50
270.0
 51
0.0
  0
CIRCLE
  5
1C8C6
  8
SJC
 10
1416.863214879007
 20
1650.2003917966749
 30
0.0
 40
4.0
  0
LINE
  5
1C8C7
  8
SJC2
 10
1416.437682964113
 20
1653.17911520093
 30
0.0
 11
1417.288746793902
 21
1653.17911520093
 31
0.0
  0
LINE
  5
1C8C8
  8
SJC2
 10
1419.8419382832631
 20
1650.6259237115689
 30
0.0
 11
1419.8419382832631
 21
1649.7748598817809
 31
0.0
  0
LINE
  5
1C8C9
  8
SJC2
 10
1413.8844914747519
 20
1650.6259237115689
 30
0.0
 11
1413.8844914747519
 21
1649.7748598817809
 31
0.0
  0
LINE
  5
1C8CA
  8
SJC2
 10
1416.437682964113
 20
1647.22166839242
 30
0.0
 11
1417.288746793902
 21
1647.22166839242
 31
0.0
  0
ARC
  5
1C8CB
  8
SJC2
 10
1419.8419382832631
 20
1647.22166839242
 30
0.0
 40
2.5531914893616769
 50
90.0
 51
180.0
  0
ARC
  5
1C8CC
  8
SJC2
 10
1413.8844914747519
 20
1647.22166839242
 30
0.0
 40
2.5531914893616769
 50
0.0
 51
90.0
  0
ARC
  5
1C8CD
  8
SJC2
 10
1419.8419382832631
 20
1653.17911520093
 30
0.0
 40
2.5531914893616769
 50
180.0
 51
270.0
  0
ARC
  5
1C8CE
  8
SJC2
 10
1413.8844914747519
 20
1653.17911520093
 30
0.0
 40
2.5531914893616769
 50
270.0
 51
0.0
  0
LINE
  5
1C8CF
  8
SJC
 10
1368.3632148796321
 20
1631.2003917966881
 30
0.0
 11
1366.363214879633
 21
1631.2003917966881
 31
0.0
  0
ARC
  5
1C8D0
  8
SJC
 10
1368.363214879633
 20
1629.2003917966881
 30
0.0
 40
2.0
 50
0.0000000000260551
 51
90.0
  0
ARC
  5
1C8D1
  8
SJC
 10
1366.363214879633
 20
1629.2003917966881
 30
0.0
 40
2.0
 50
90.0
 51
180.00000000001299
  0
LINE
  5
1C8D2
  8
SJC
 10
1426.8632148803749
 20
1626.2003917966661
 30
0.0
 11
1426.863214880369
 21
1609.112664038206
 31
0.0
  0
ARC
  5
1C8D3
  8
SJC
 10
1421.8632148803749
 20
1626.2003917966681
 30
0.0
 40
5.0
 50
359.99999999997402
 51
90.0
  0
LINE
  5
1C8D4
  8
SJC
 10
1421.863214880377
 20
1631.200391796672
 30
0.0
 11
1367.3632148803781
 21
1631.2003917966881
 31
0.0
  0
LINE
  5
1C8D5
  8
CENTER
 10
1416.863214880374
 20
1616.700391796669
 30
0.0
 11
1416.863214880372
 21
1607.700391796669
 31
0.0
  0
LINE
  5
1C8D6
  8
CENTER
 10
1421.3632148803731
 20
1612.2003917966681
 30
0.0
 11
1412.3632148803731
 21
1612.2003917966699
 31
0.0
  0
CIRCLE
  5
1C8D7
  8
SJC
 10
1416.8632148803731
 20
1612.2003917966699
 30
0.0
 40
4.5
  0
LINE
  5
1C8D8
  8
SJC
 10
1423.065784744751
 20
1604.2594356568841
 30
0.0
 11
1370.3632148796439
 21
1591.2003917966881
 31
0.0
  0
ARC
  5
1C8D9
  8
SJC
 10
1421.863214880369
 20
1609.112664038207
 30
0.0
 40
5.0
 50
283.9168774331053
 51
359.99999999997402
  0
CIRCLE
  5
1C8DA
  8
SJC
 10
1416.8632148796351
 20
1612.2003917966699
 30
0.0
 40
4.0
  0
LINE
  5
1C8DB
  8
SJC2
 10
1416.4376829647399
 20
1615.179115200925
 30
0.0
 11
1417.2887467945279
 21
1615.179115200925
 31
0.0
  0
LINE
  5
1C8DC
  8
SJC2
 10
1419.8419382838899
 20
1612.625923711563
 30
0.0
 11
1419.8419382838899
 21
1611.774859881775
 31
0.0
  0
LINE
  5
1C8DD
  8
SJC2
 10
1413.884491475379
 20
1612.625923711563
 30
0.0
 11
1413.884491475379
 21
1611.774859881775
 31
0.0
  0
LINE
  5
1C8DE
  8
SJC2
 10
1416.4376829647399
 20
1609.2216683924139
 30
0.0
 11
1417.2887467945279
 21
1609.2216683924139
 31
0.0
  0
ARC
  5
1C8DF
  8
SJC2
 10
1419.8419382838899
 20
1609.2216683924139
 30
0.0
 40
2.5531914893616769
 50
90.0
 51
180.0
  0
ARC
  5
1C8E0
  8
SJC2
 10
1413.884491475379
 20
1609.2216683924139
 30
0.0
 40
2.5531914893616769
 50
0.0
 51
90.0
  0
ARC
  5
1C8E1
  8
SJC2
 10
1419.8419382838899
 20
1615.179115200925
 30
0.0
 40
2.5531914893616769
 50
180.0
 51
270.0
  0
ARC
  5
1C8E2
  8
SJC2
 10
1413.884491475379
 20
1615.179115200925
 30
0.0
 40
2.5531914893616769
 50
270.0
 51
0.0
  0
LINE
  5
1C8E3
  8
SJC
 10
1364.3632148796351
 20
1626.7003917969209
 30
0.0
 11
1364.3632148796351
 21
1133.2003917966981
 31
0.0
  0
LINE
  5
1C8E4
  8
SJC
 10
1370.363214879799
 20
1208.70039179688
 30
0.0
 11
1370.363214879799
 21
1138.700391796865
 31
0.0
  0
LINE
  5
1C8E5
  8
SJC
 10
1370.363214879688
 20
1626.2003917966931
 30
0.0
 11
1370.363214879688
 21
1556.2003917966811
 31
0.0
  0
LINE
  5
1C8E6
  8
SJC
 10
1370.363214879633
 20
1629.2003917966899
 30
0.0
 11
1370.363214879744
 21
1123.200391796646
 31
0.0
  0
LINE
  5
1C8E7
  8
SJC
 10
1370.3632148797999
 20
1138.700391796641
 30
0.0
 11
1370.3632148797999
 21
1208.7003917966549
 31
0.0
  0
LINE
  5
1C8E8
  8
SJC
 10
1364.3632148796351
 20
1629.2003917966881
 30
0.0
 11
1364.3632148796351
 21
1123.200391796647
 31
0.0
  0
ARC
  5
1C8E9
  8
SJC
 10
1368.3632148797451
 20
1123.200391796646
 30
0.0
 40
2.0
 50
270.0
 51
359.99999999997402
  0
ARC
  5
1C8EA
  8
SJC
 10
1366.3632148797451
 20
1123.200391796647
 30
0.0
 40
2.0
 50
179.99999999998701
 51
270.0
  0
LINE
  5
1C8EB
  8
SJC
 10
1426.863214880487
 20
1126.2003917966681
 30
0.0
 11
1426.8632148804811
 21
1143.2881195551281
 31
0.0
  0
ARC
  5
1C8EC
  8
SJC
 10
1421.863214880487
 20
1126.2003917966661
 30
0.0
 40
5.0
 50
270.0
 51
0.0000000000260551
  0
LINE
  5
1C8ED
  8
CENTER
 10
1416.8632148804861
 20
1135.700391796664
 30
0.0
 11
1416.8632148804829
 21
1144.700391796664
 31
0.0
  0
LINE
  5
1C8EE
  8
CENTER
 10
1421.363214880485
 20
1140.2003917966661
 30
0.0
 11
1412.363214880485
 21
1140.2003917966631
 31
0.0
  0
CIRCLE
  5
1C8EF
  8
SJC
 10
1416.863214880485
 20
1140.200391796664
 30
0.0
 40
4.5
  0
LINE
  5
1C8F0
  8
SJC
 10
1423.0657847448631
 20
1148.1413479364489
 30
0.0
 11
1370.363214879756
 21
1161.200391796646
 31
0.0
  0
ARC
  5
1C8F1
  8
SJC
 10
1421.8632148804811
 20
1143.2881195551261
 30
0.0
 40
5.0
 50
0.0000000000260551
 51
76.083122566894829
  0
LINE
  5
1C8F2
  8
SJC
 10
1426.863214880369
 20
1385.2881195550351
 30
0.0
 11
1426.863214880369
 21
1367.1126640381131
 31
0.0
  0
ARC
  5
1C8F3
  8
SJC
 10
1421.863214880369
 20
1367.1126640381151
 30
0.0
 40
5.0
 50
283.91687743310518
 51
359.99999999997402
  0
LINE
  5
1C8F4
  8
CENTER
 10
1416.863214880374
 20
1380.7003917965769
 30
0.0
 11
1416.863214880372
 21
1371.7003917965769
 31
0.0
  0
LINE
  5
1C8F5
  8
CENTER
 10
1421.3632148803731
 20
1376.2003917965751
 30
0.0
 11
1412.3632148803731
 21
1376.2003917965781
 31
0.0
  0
CIRCLE
  5
1C8F6
  8
SJC
 10
1416.8632148803731
 20
1376.2003917965769
 30
0.0
 40
4.5
  0
LINE
  5
1C8F7
  8
SJC
 10
1423.065784744751
 20
1362.2594356567911
 30
0.0
 11
1370.3632148796439
 21
1349.2003917965951
 31
0.0
  0
ARC
  5
1C8F8
  8
SJC
 10
1421.863214880369
 20
1385.2881195550351
 30
0.0
 40
5.0
 50
0.0000000000260551
 51
76.083122566894829
  0
LINE
  5
1C8F9
  8
SJC
 10
1423.065784744751
 20
1390.1413479363589
 30
0.0
 11
1370.3632148796439
 21
1403.2003917965551
 31
0.0
  0
LINE
  5
1C8FA
  8
SJC
 10
1400.3632148795421
 20
1598.634020115142
 30
0.0
 11
1400.363214879633
 21
1395.7667634780789
 31
0.0
  0
LINE
  5
1C8FB
  8
SJC
 10
1400.3632148796371
 20
1356.6340201150731
 30
0.0
 11
1400.3632148797331
 21
1153.7667634781719
 31
0.0
  0
CIRCLE
  5
1C8FC
  8
SJC
 10
1416.8632148788961
 20
1376.2003917965769
 30
0.0
 40
4.0
  0
LINE
  5
1C8FD
  8
SJC2
 10
1416.4376829640021
 20
1379.179115200832
 30
0.0
 11
1417.2887467937901
 21
1379.179115200832
 31
0.0
  0
LINE
  5
1C8FE
  8
SJC2
 10
1419.841938283151
 20
1376.62592371147
 30
0.0
 11
1419.841938283151
 21
1375.7748598816829
 31
0.0
  0
LINE
  5
1C8FF
  8
SJC2
 10
1413.8844914746401
 20
1376.62592371147
 30
0.0
 11
1413.8844914746401
 21
1375.7748598816829
 31
0.0
  0
LINE
  5
1C900
  8
SJC2
 10
1416.4376829640021
 20
1373.221668392322
 30
0.0
 11
1417.2887467937901
 21
1373.221668392322
 31
0.0
  0
ARC
  5
1C901
  8
SJC2
 10
1419.841938283151
 20
1373.221668392322
 30
0.0
 40
2.5531914893616769
 50
90.0
 51
180.0
  0
ARC
  5
1C902
  8
SJC2
 10
1413.8844914746401
 20
1373.221668392322
 30
0.0
 40
2.5531914893616769
 50
0.0
 51
90.0
  0
ARC
  5
1C903
  8
SJC2
 10
1419.841938283151
 20
1379.179115200832
 30
0.0
 40
2.5531914893616769
 50
180.0
 51
270.0
  0
ARC
  5
1C904
  8
SJC2
 10
1413.8844914746401
 20
1379.179115200832
 30
0.0
 40
2.5531914893616769
 50
270.0
 51
0.0
  0
CIRCLE
  5
1C905
  8
SJC
 10
1416.8632148788961
 20
1140.200391796664
 30
0.0
 40
4.0
  0
LINE
  5
1C906
  8
SJC2
 10
1416.4376829640021
 20
1143.1791152009189
 30
0.0
 11
1417.2887467937901
 21
1143.1791152009189
 31
0.0
  0
LINE
  5
1C907
  8
SJC2
 10
1419.841938283151
 20
1140.6259237115571
 30
0.0
 11
1419.841938283151
 21
1139.77485988177
 31
0.0
  0
LINE
  5
1C908
  8
SJC2
 10
1413.8844914746401
 20
1140.6259237115571
 30
0.0
 11
1413.8844914746401
 21
1139.77485988177
 31
0.0
  0
LINE
  5
1C909
  8
SJC2
 10
1416.4376829640021
 20
1137.2216683924089
 30
0.0
 11
1417.2887467937901
 21
1137.2216683924089
 31
0.0
  0
ARC
  5
1C90A
  8
SJC2
 10
1419.841938283151
 20
1137.2216683924089
 30
0.0
 40
2.5531914893616769
 50
90.0
 51
180.0
  0
ARC
  5
1C90B
  8
SJC2
 10
1413.8844914746401
 20
1137.2216683924089
 30
0.0
 40
2.5531914893616769
 50
0.0
 51
90.0
  0
ARC
  5
1C90C
  8
SJC2
 10
1419.841938283151
 20
1143.1791152009189
 30
0.0
 40
2.5531914893616769
 50
180.0
 51
270.0
  0
ARC
  5
1C90D
  8
SJC2
 10
1413.8844914746401
 20
1143.1791152009189
 30
0.0
 40
2.5531914893616769
 50
270.0
 51
0.0
  0
LINE
  5
1C90E
  8
SJC
 10
1421.8632148806009
 20
1121.2003917966331
 30
0.0
 11
1367.3632148806021
 21
1121.200391796616
 31
0.0
  0
LINE
  5
1C90F
  8
SJC
 10
1368.363214880017
 20
1121.200391796616
 30
0.0
 11
1366.3632148800179
 21
1121.2003917966169
 31
0.0
  0
LINE
  5
1C910
  8
SJC
 10
1368.363214879794
 20
1121.200391796647
 30
0.0
 11
1366.3632148797949
 21
1121.200391796647
 31
0.0
  0
LINE
  5
1CDA6
  8
SJC
 10
2788.978662657225
 20
411.00717853674888
 30
0.0
 11
2788.978662657224
 21
300.50717853677492
 31
0.0
  0
LINE
  5
1CDA7
  8
SUNPOU
 10
2911.9786626571658
 20
451.00717853674831
 30
0.0
 11
2911.9786626571658
 21
421.0071785367474
 31
0.0
  0
LINE
  5
1CDA8
  8
SUNPOU
 10
2851.9786626571658
 20
481.0071785367474
 30
0.0
 11
2851.9786626571658
 21
451.00717853674831
 31
0.0
  0
LINE
  5
1CDA9
  8
SUNPOU
 10
3007.9786626571699
 20
451.00717853674922
 30
0.0
 11
2911.9786626571658
 21
451.00717853674831
 31
0.0
  0
LINE
  5
1CDAA
  8
SUNPOU
 10
2755.9786626571631
 20
451.00717853674922
 30
0.0
 11
2851.9786626571658
 21
451.00717853674831
 31
0.0
  0
LINE
  5
1CDAB
  8
SUNPOU
 10
2851.9786626571658
 20
481.0071785367474
 30
0.0
 11
2911.9786626571658
 21
421.0071785367474
 31
0.0
  0
LINE
  5
1CDAC
  8
SUNPOU
 10
2911.9786626571658
 20
411.00717853674831
 30
0.0
 11
2911.9786626571658
 21
381.00717853674752
 31
0.0
  0
LINE
  5
1CDAD
  8
SUNPOU
 10
2851.9786626571658
 20
441.0071785367474
 30
0.0
 11
2851.9786626571658
 21
411.00717853674831
 31
0.0
  0
LINE
  5
1CDAE
  8
SUNPOU
 10
3007.9786626571699
 20
411.00717853674928
 30
0.0
 11
2911.9786626571658
 21
411.00717853674831
 31
0.0
  0
LINE
  5
1CDAF
  8
SUNPOU
 10
2755.9786626571622
 20
411.00717853674928
 30
0.0
 11
2851.9786626571658
 21
411.00717853674831
 31
0.0
  0
LINE
  5
1CDB0
  8
SUNPOU
 10
2851.9786626571658
 20
441.0071785367474
 30
0.0
 11
2911.9786626571658
 21
381.00717853674752
 31
0.0
  0
LINE
  5
1CDB1
  8
SJC
 10
2848.978662657004
 20
411.00717853674848
 30
0.0
 11
2848.9786626570099
 21
361.63992189984771
 31
0.0
  0
LINE
  5
1CDB2
  8
SJC
 10
2788.9786626572022
 20
411.00717853674888
 30
0.0
 11
2788.978662657219
 21
300.50717853677651
 31
0.0
  0
LINE
  5
1CDB3
  8
SJC
 10
2776.9786626571149
 20
411.00717853674911
 30
0.0
 11
2776.9786626571149
 21
300.50717853677679
 31
0.0
  0
LINE
  5
1CDB4
  8
SJC
 10
2776.9786626571149
 20
411.00717853674888
 30
0.0
 11
2776.9786626571149
 21
300.50717853677679
 31
0.0
  0
LINE
  5
1CDB5
  8
SJC
 10
2901.978662658546
 20
549.6826340532042
 30
0.0
 11
2901.978662658546
 21
513.33172301935883
 31
0.0
  0
ARC
  5
1CDB6
  8
SJC
 10
2891.978662658546
 20
513.33172301936236
 30
0.0
 40
10.0
 50
283.9168774331053
 51
359.99999999997402
  0
LINE
  5
1CDB7
  8
CENTER
 10
2881.9786626585569
 20
540.50717853628612
 30
0.0
 11
2881.9786626585519
 21
522.50717853628612
 31
0.0
  0
LINE
  5
1CDB8
  8
CENTER
 10
2890.978662658556
 20
531.50717853628328
 30
0.0
 11
2872.978662658556
 21
531.50717853628885
 31
0.0
  0
LINE
  5
1CDB9
  8
SJC
 10
2894.3838023873109
 20
503.62526625671569
 30
0.0
 11
2788.9786626570972
 21
477.50717853632341
 31
0.0
  0
ARC
  5
1CDBA
  8
SJC
 10
2891.978662658546
 20
549.6826340532042
 30
0.0
 40
10.0
 50
0.0000000000260551
 51
76.083122566894787
  0
LINE
  5
1CDBB
  8
SJC
 10
2894.3838023873109
 20
559.38909081585098
 30
0.0
 11
2788.9786626570972
 21
585.50717853624326
 31
0.0
  0
LINE
  5
1CDBC
  8
CENTER
 10
2881.9786626585569
 20
540.50717853628612
 30
0.0
 11
2881.9786626585519
 21
522.50717853628612
 31
0.0
  0
LINE
  5
1CDBD
  8
CENTER
 10
2881.9786626585578
 20
540.50717853628612
 30
0.0
 11
2881.978662658551
 21
522.50717853628612
 31
0.0
  0
CIRCLE
  5
1CDBE
  8
SJC
 10
2881.9786626585551
 20
531.50717853628612
 30
0.0
 40
9.0
  0
CIRCLE
  5
1CDBF
  8
SJC
 10
2881.9786626585551
 20
531.50717853628612
 30
0.0
 40
8.0
  0
LINE
  5
1CDC0
  8
SJC2
 10
2881.1275988287662
 20
537.46462534479633
 30
0.0
 11
2882.8297264883422
 21
537.46462534479633
 31
0.0
  0
LINE
  5
1CDC1
  8
SJC2
 10
2887.9361094670662
 20
532.35824236607266
 30
0.0
 11
2887.9361094670662
 21
530.65611470649765
 31
0.0
  0
LINE
  5
1CDC2
  8
SJC2
 10
2876.021215850044
 20
532.35824236607266
 30
0.0
 11
2876.021215850044
 21
530.65611470649765
 31
0.0
  0
LINE
  5
1CDC3
  8
SJC2
 10
2881.1275988287662
 20
525.54973172777579
 30
0.0
 11
2882.8297264883422
 21
525.54973172777579
 31
0.0
  0
ARC
  5
1CDC4
  8
SJC2
 10
2887.9361094670662
 20
525.54973172777579
 30
0.0
 40
5.1063829787233539
 50
90.0
 51
180.0
  0
ARC
  5
1CDC5
  8
SJC2
 10
2876.021215850044
 20
525.54973172777579
 30
0.0
 40
5.1063829787233539
 50
0.0
 51
90.0
  0
ARC
  5
1CDC6
  8
SJC2
 10
2887.9361094670662
 20
537.46462534479633
 30
0.0
 40
5.1063829787233539
 50
180.0
 51
270.0
  0
ARC
  5
1CDC7
  8
SJC2
 10
2876.021215850044
 20
537.46462534479633
 30
0.0
 40
5.1063829787233539
 50
270.0
 51
0.0
  0
LINE
  5
1CDC8
  8
SJC
 10
2848.9786626569939
 20
492.37443517325642
 30
0.0
 11
2848.9786626569989
 21
451.00717853674843
 31
0.0
  0
LINE
  5
1CDC9
  8
SJC
 10
2776.9786626571172
 20
1527.507178537244
 30
0.0
 11
2776.9786626571172
 21
1422.0071785368059
 31
0.0
  0
LINE
  5
1CDCA
  8
SJC
 10
2776.9786626571172
 20
1382.007178536805
 30
0.0
 11
2776.9786626571172
 21
1226.00717853675
 31
0.0
  0
LINE
  5
1CDCB
  8
SJC
 10
2776.9786626571172
 20
1186.00717853675
 30
0.0
 11
2776.9786626571172
 21
1075.5071785367779
 31
0.0
  0
LINE
  5
1CDCC
  8
SJC
 10
2788.978662657225
 20
1532.5071785367791
 30
0.0
 11
2788.978662657224
 21
1422.007178536805
 31
0.0
  0
LINE
  5
1CDCD
  8
SJC
 10
2788.9786626571749
 20
1382.007178536805
 30
0.0
 11
2788.978662657199
 21
1226.00717853675
 31
0.0
  0
LINE
  5
1CDCE
  8
SJC
 10
2788.978662657204
 20
1186.00717853675
 30
0.0
 11
2788.9786626572218
 21
1075.507178536777
 31
0.0
  0
LINE
  5
1CDCF
  8
SJC
 10
2776.9786626571172
 20
1527.507178536775
 30
0.0
 11
2776.9786626571172
 21
1422.0071785368059
 31
0.0
  0
LINE
  5
1CDD0
  8
SJC
 10
2776.9786626571172
 20
1382.0071785368059
 30
0.0
 11
2776.9786626571172
 21
1226.00717853675
 31
0.0
  0
LINE
  5
1CDD1
  8
SJC
 10
2776.9786626571172
 20
1186.00717853675
 30
0.0
 11
2776.9786626571172
 21
1075.5071785367779
 31
0.0
  0
LINE
  5
1CDD2
  8
SJC
 10
2848.9786626569312
 20
1471.3744351736871
 30
0.0
 11
2848.9786626569639
 21
1422.007178536805
 31
0.0
  0
LINE
  5
1CDD3
  8
SJC
 10
2848.9786626569821
 20
1382.007178536805
 30
0.0
 11
2848.9786626569862
 21
1345.639921899314
 31
0.0
  0
LINE
  5
1CDD4
  8
SJC
 10
2848.9786626569962
 20
1267.3744351732571
 30
0.0
 11
2848.9786626570012
 21
1226.0071785367491
 31
0.0
  0
LINE
  5
1CDD5
  8
SUNPOU
 10
2911.9786626571181
 20
1422.007178536805
 30
0.0
 11
2911.9786626571181
 21
1392.0071785368041
 31
0.0
  0
LINE
  5
1CDD6
  8
SUNPOU
 10
2851.9786626571172
 20
1452.0071785368041
 30
0.0
 11
2851.9786626571172
 21
1422.007178536805
 31
0.0
  0
LINE
  5
1CDD7
  8
SUNPOU
 10
3007.9786626571208
 20
1422.0071785368059
 30
0.0
 11
2911.9786626571181
 21
1422.007178536805
 31
0.0
  0
LINE
  5
1CDD8
  8
SUNPOU
 10
2755.978662657114
 20
1422.0071785368059
 30
0.0
 11
2851.9786626571172
 21
1422.007178536805
 31
0.0
  0
LINE
  5
1CDD9
  8
SUNPOU
 10
2851.9786626571172
 20
1452.0071785368041
 30
0.0
 11
2911.9786626571181
 21
1392.0071785368041
 31
0.0
  0
LINE
  5
1CDDA
  8
SUNPOU
 10
2911.9786626571172
 20
1382.007178536805
 30
0.0
 11
2911.9786626571172
 21
1352.0071785368041
 31
0.0
  0
LINE
  5
1CDDB
  8
SUNPOU
 10
2851.9786626571172
 20
1412.0071785368041
 30
0.0
 11
2851.9786626571172
 21
1382.007178536805
 31
0.0
  0
LINE
  5
1CDDC
  8
SUNPOU
 10
3007.9786626571208
 20
1382.0071785368059
 30
0.0
 11
2911.9786626571172
 21
1382.007178536805
 31
0.0
  0
LINE
  5
1CDDD
  8
SUNPOU
 10
2755.9786626571131
 20
1382.0071785368059
 30
0.0
 11
2851.9786626571172
 21
1382.007178536805
 31
0.0
  0
LINE
  5
1CDDE
  8
SUNPOU
 10
2851.9786626571172
 20
1412.0071785368041
 30
0.0
 11
2911.9786626571172
 21
1352.0071785368041
 31
0.0
  0
LINE
  5
1CDDF
  8
SJC
 10
2788.9786626572268
 20
1186.00717853675
 30
0.0
 11
2788.9786626572268
 21
1075.5071785367761
 31
0.0
  0
LINE
  5
1CDE0
  8
SUNPOU
 10
2911.978662657169
 20
1226.0071785367491
 30
0.0
 11
2911.978662657169
 21
1196.0071785367479
 31
0.0
  0
LINE
  5
1CDE1
  8
SUNPOU
 10
2851.978662657169
 20
1256.0071785367479
 30
0.0
 11
2851.978662657169
 21
1226.0071785367491
 31
0.0
  0
LINE
  5
1CDE2
  8
SUNPOU
 10
3007.9786626571722
 20
1226.00717853675
 30
0.0
 11
2911.978662657169
 21
1226.0071785367491
 31
0.0
  0
LINE
  5
1CDE3
  8
SUNPOU
 10
2755.9786626571649
 20
1226.00717853675
 30
0.0
 11
2851.978662657169
 21
1226.0071785367491
 31
0.0
  0
LINE
  5
1CDE4
  8
SUNPOU
 10
2851.978662657169
 20
1256.0071785367479
 30
0.0
 11
2911.978662657169
 21
1196.0071785367479
 31
0.0
  0
LINE
  5
1CDE5
  8
SUNPOU
 10
2911.9786626571681
 20
1186.0071785367491
 30
0.0
 11
2911.9786626571681
 21
1156.0071785367479
 31
0.0
  0
LINE
  5
1CDE6
  8
SUNPOU
 10
2851.978662657169
 20
1216.0071785367479
 30
0.0
 11
2851.978662657169
 21
1186.0071785367491
 31
0.0
  0
LINE
  5
1CDE7
  8
SUNPOU
 10
3007.9786626571722
 20
1186.00717853675
 30
0.0
 11
2911.9786626571681
 21
1186.0071785367491
 31
0.0
  0
LINE
  5
1CDE8
  8
SUNPOU
 10
2755.9786626571649
 20
1186.00717853675
 30
0.0
 11
2851.978662657169
 21
1186.0071785367491
 31
0.0
  0
LINE
  5
1CDE9
  8
SUNPOU
 10
2851.978662657169
 20
1216.0071785367479
 30
0.0
 11
2911.9786626571681
 21
1156.0071785367479
 31
0.0
  0
LINE
  5
1CDEA
  8
SJC
 10
2901.9786626585492
 20
1324.682634053205
 30
0.0
 11
2901.9786626585492
 21
1288.33172301936
 31
0.0
  0
ARC
  5
1CDEB
  8
SJC
 10
2891.9786626585492
 20
1288.3317230193629
 30
0.0
 40
10.0
 50
283.9168774331053
 51
359.99999999997402
  0
LINE
  5
1CDEC
  8
CENTER
 10
2881.9786626585601
 20
1315.507178536287
 30
0.0
 11
2881.9786626585542
 21
1297.507178536287
 31
0.0
  0
LINE
  5
1CDED
  8
CENTER
 10
2890.9786626585578
 20
1306.5071785362841
 30
0.0
 11
2872.9786626585578
 21
1306.50717853629
 31
0.0
  0
LINE
  5
1CDEE
  8
SJC
 10
2894.3838023873132
 20
1278.6252662567169
 30
0.0
 11
2788.978662657099
 21
1252.5071785363241
 31
0.0
  0
ARC
  5
1CDEF
  8
SJC
 10
2891.9786626585492
 20
1324.682634053205
 30
0.0
 40
10.0
 50
0.0000000000260551
 51
76.083122566894787
  0
LINE
  5
1CDF0
  8
SJC
 10
2894.3838023873132
 20
1334.3890908158519
 30
0.0
 11
2788.978662657099
 21
1360.5071785362441
 31
0.0
  0
LINE
  5
1CDF1
  8
CENTER
 10
2881.9786626585601
 20
1315.507178536287
 30
0.0
 11
2881.9786626585542
 21
1297.507178536287
 31
0.0
  0
LINE
  5
1CDF2
  8
CENTER
 10
2881.978662658561
 20
1315.507178536287
 30
0.0
 11
2881.9786626585528
 21
1297.507178536287
 31
0.0
  0
CIRCLE
  5
1CDF3
  8
SJC
 10
2881.9786626585569
 20
1306.507178536287
 30
0.0
 40
9.0
  0
CIRCLE
  5
1CDF4
  8
SJC
 10
2881.9786626585569
 20
1306.507178536287
 30
0.0
 40
8.0
  0
LINE
  5
1CDF5
  8
SJC2
 10
2881.1275988287689
 20
1312.464625344797
 30
0.0
 11
2882.8297264883449
 21
1312.464625344797
 31
0.0
  0
LINE
  5
1CDF6
  8
SJC2
 10
2887.936109467068
 20
1307.358242366073
 30
0.0
 11
2887.936109467068
 21
1305.6561147064981
 31
0.0
  0
LINE
  5
1CDF7
  8
SJC2
 10
2876.0212158500458
 20
1307.358242366073
 30
0.0
 11
2876.0212158500458
 21
1305.6561147064981
 31
0.0
  0
LINE
  5
1CDF8
  8
SJC2
 10
2881.1275988287689
 20
1300.549731727777
 30
0.0
 11
2882.8297264883449
 21
1300.549731727777
 31
0.0
  0
ARC
  5
1CDF9
  8
SJC2
 10
2887.936109467068
 20
1300.549731727777
 30
0.0
 40
5.1063829787233539
 50
90.0
 51
180.0
  0
ARC
  5
1CDFA
  8
SJC2
 10
2876.0212158500458
 20
1300.549731727777
 30
0.0
 40
5.1063829787233539
 50
0.0
 51
90.0
  0
ARC
  5
1CDFB
  8
SJC2
 10
2887.936109467068
 20
1312.464625344797
 30
0.0
 40
5.1063829787233539
 50
180.0
 51
270.0
  0
ARC
  5
1CDFC
  8
SJC2
 10
2876.0212158500458
 20
1312.464625344797
 30
0.0
 40
5.1063829787233539
 50
270.0
 51
0.0
  0
LINE
  5
1CE08
  8
SUNPOU
 10
2159.8293558282862
 20
1226.0071785367529
 30
0.0
 11
2159.8293558282862
 21
1196.007178536752
 31
0.0
  0
LINE
  5
1CE09
  8
SUNPOU
 10
2099.8293558282871
 20
1256.007178536752
 30
0.0
 11
2099.8293558282871
 21
1226.0071785367529
 31
0.0
  0
LINE
  5
1CE0A
  8
SUNPOU
 10
2309.829355828288
 20
1226.007178536755
 30
0.0
 11
2159.8293558282862
 21
1226.0071785367529
 31
0.0
  0
LINE
  5
1CE0B
  8
SUNPOU
 10
1949.829355828284
 20
1226.007178536755
 30
0.0
 11
2099.8293558282871
 21
1226.0071785367529
 31
0.0
  0
LINE
  5
1CE0C
  8
SUNPOU
 10
2099.8293558282871
 20
1256.007178536752
 30
0.0
 11
2159.8293558282862
 21
1196.007178536752
 31
0.0
  0
LINE
  5
1CE0D
  8
SUNPOU
 10
2159.8293558282862
 20
1186.0071785367529
 30
0.0
 11
2159.8293558282862
 21
1156.007178536752
 31
0.0
  0
LINE
  5
1CE0E
  8
SUNPOU
 10
2099.8293558282871
 20
1216.007178536752
 30
0.0
 11
2099.8293558282871
 21
1186.0071785367529
 31
0.0
  0
LINE
  5
1CE0F
  8
SUNPOU
 10
2309.829355828288
 20
1186.007178536755
 30
0.0
 11
2159.8293558282862
 21
1186.0071785367529
 31
0.0
  0
LINE
  5
1CE10
  8
SUNPOU
 10
1949.829355828284
 20
1186.007178536755
 30
0.0
 11
2099.8293558282871
 21
1186.0071785367529
 31
0.0
  0
LINE
  5
1CE11
  8
SUNPOU
 10
2099.8293558282871
 20
1216.007178536752
 30
0.0
 11
2159.8293558282862
 21
1156.007178536752
 31
0.0
  0
LINE
  5
1CE12
  8
SJC
 10
2289.829355828238
 20
1186.0071785367541
 30
0.0
 11
2289.829355828238
 21
1095.5071785368079
 31
0.0
  0
LINE
  5
1CE13
  8
SJC
 10
2279.8293558282398
 20
1186.007178536755
 30
0.0
 11
2279.8293558282389
 21
1095.5071785368079
 31
0.0
  0
LINE
  5
1CE14
  8
SJC
 10
1979.829355828236
 20
1186.007178536752
 30
0.0
 11
1979.829355828236
 21
1095.507178536807
 31
0.0
  0
LINE
  5
1CE15
  8
SJC
 10
1969.8293558282339
 20
1186.0071785367511
 30
0.0
 11
1969.8293558282351
 21
1095.507178536807
 31
0.0
  0
LINE
  5
1CE16
  8
SJC
 10
1979.8293558282401
 20
737.50717853680635
 30
0.0
 11
1979.8293558282419
 21
647.0071785368109
 31
0.0
  0
LINE
  5
1CE17
  8
SJC
 10
1979.829355828243
 20
607.00717853681113
 30
0.0
 11
1979.8293558282419
 21
451.00717853675269
 31
0.0
  0
LINE
  5
1CE18
  8
SJC
 10
1979.829355828243
 20
411.00717853675269
 30
0.0
 11
1979.829355828243
 21
320.5071785368084
 31
0.0
  0
LINE
  5
1CE19
  8
SJC
 10
2279.8293558282489
 20
737.50717853680635
 30
0.0
 11
2279.8293558282489
 21
647.0071785368084
 31
0.0
  0
LINE
  5
1CE1A
  8
SJC
 10
2279.829355828248
 20
607.00717853680828
 30
0.0
 11
2279.829355828248
 21
451.00717853675542
 31
0.0
  0
LINE
  5
1CE1B
  8
SJC
 10
2279.8293558282471
 20
411.00717853675559
 30
0.0
 11
2279.8293558282462
 21
320.50717853680891
 31
0.0
  0
LINE
  5
1CE1C
  8
SJC
 10
1969.8293558282401
 20
737.50717853680635
 30
0.0
 11
1969.829355828241
 21
647.0071785368109
 31
0.0
  0
LINE
  5
1CE1D
  8
SJC
 10
1969.829355828241
 20
607.00717853681135
 30
0.0
 11
1969.829355828241
 21
451.00717853675218
 31
0.0
  0
LINE
  5
1CE1E
  8
SJC
 10
1969.829355828241
 20
411.00717853675241
 30
0.0
 11
1969.8293558282419
 21
320.5071785368084
 31
0.0
  0
LINE
  5
1CE1F
  8
SJC
 10
2289.8293558282471
 20
737.50717853680635
 30
0.0
 11
2289.8293558282471
 21
647.0071785368084
 31
0.0
  0
LINE
  5
1CE20
  8
SJC
 10
2289.8293558282471
 20
607.00717853680817
 30
0.0
 11
2289.8293558282462
 21
451.00717853675542
 31
0.0
  0
LINE
  5
1CE21
  8
SJC
 10
2289.8293558282462
 20
411.00717853675542
 30
0.0
 11
2289.8293558282462
 21
320.50717853680891
 31
0.0
  0
LINE
  5
1CE22
  8
SUNPOU
 10
2159.8293558282421
 20
647.00717853680999
 30
0.0
 11
2159.8293558282421
 21
617.00717853680896
 31
0.0
  0
LINE
  5
1CE23
  8
SUNPOU
 10
2099.829355828243
 20
677.00717853680908
 30
0.0
 11
2099.829355828243
 21
647.00717853680999
 31
0.0
  0
LINE
  5
1CE24
  8
SUNPOU
 10
2309.8293558282439
 20
647.00717853681135
 30
0.0
 11
2159.8293558282421
 21
647.00717853680999
 31
0.0
  0
LINE
  5
1CE25
  8
SUNPOU
 10
1949.8293558282401
 20
647.00717853681135
 30
0.0
 11
2099.829355828243
 21
647.00717853680999
 31
0.0
  0
LINE
  5
1CE26
  8
SUNPOU
 10
2099.829355828243
 20
677.00717853680908
 30
0.0
 11
2159.8293558282421
 21
617.00717853680896
 31
0.0
  0
LINE
  5
1CE27
  8
SUNPOU
 10
2159.8293558282421
 20
607.00717853680987
 30
0.0
 11
2159.8293558282421
 21
577.00717853680908
 31
0.0
  0
LINE
  5
1CE28
  8
SUNPOU
 10
2099.829355828243
 20
637.00717853680896
 30
0.0
 11
2099.829355828243
 21
607.00717853680987
 31
0.0
  0
LINE
  5
1CE29
  8
SUNPOU
 10
2309.8293558282439
 20
607.00717853681135
 30
0.0
 11
2159.8293558282421
 21
607.00717853680987
 31
0.0
  0
LINE
  5
1CE2A
  8
SUNPOU
 10
1949.8293558282401
 20
607.00717853681135
 30
0.0
 11
2099.829355828243
 21
607.00717853680987
 31
0.0
  0
LINE
  5
1CE2B
  8
SUNPOU
 10
2099.829355828243
 20
637.00717853680896
 30
0.0
 11
2159.8293558282421
 21
577.00717853680908
 31
0.0
  0
LINE
  5
1CE2C
  8
SUNPOU
 10
2159.829355828294
 20
451.00717853675422
 30
0.0
 11
2159.829355828294
 21
421.00717853675332
 31
0.0
  0
LINE
  5
1CE2D
  8
SUNPOU
 10
2099.829355828294
 20
481.00717853675332
 30
0.0
 11
2099.829355828294
 21
451.00717853675422
 31
0.0
  0
LINE
  5
1CE2E
  8
SUNPOU
 10
2309.8293558282949
 20
451.00717853675559
 30
0.0
 11
2159.829355828294
 21
451.00717853675422
 31
0.0
  0
LINE
  5
1CE2F
  8
SUNPOU
 10
1949.829355828291
 20
451.00717853675559
 30
0.0
 11
2099.829355828294
 21
451.00717853675422
 31
0.0
  0
LINE
  5
1CE30
  8
SUNPOU
 10
2099.829355828294
 20
481.00717853675332
 30
0.0
 11
2159.829355828294
 21
421.00717853675332
 31
0.0
  0
LINE
  5
1CE31
  8
SUNPOU
 10
2159.829355828294
 20
411.00717853675428
 30
0.0
 11
2159.829355828294
 21
381.00717853675337
 31
0.0
  0
LINE
  5
1CE32
  8
SUNPOU
 10
2099.829355828294
 20
441.00717853675332
 30
0.0
 11
2099.829355828294
 21
411.00717853675428
 31
0.0
  0
LINE
  5
1CE33
  8
SUNPOU
 10
2309.8293558282949
 20
411.00717853675559
 30
0.0
 11
2159.829355828294
 21
411.00717853675428
 31
0.0
  0
LINE
  5
1CE34
  8
SUNPOU
 10
1949.829355828291
 20
411.00717853675559
 30
0.0
 11
2099.829355828294
 21
411.00717853675428
 31
0.0
  0
LINE
  5
1CE35
  8
SUNPOU
 10
2099.829355828294
 20
441.00717853675332
 30
0.0
 11
2159.829355828294
 21
381.00717853675337
 31
0.0
  0
LINE
  5
1CF07
  8
MOJI
 10
3663.0844272244772
 20
2225.4653334509758
 30
0.0
 11
2539.8840360922268
 21
2225.4653334509758
 31
0.0
  0
TEXT
  5
1CF08
  8
MOJI
 10
2556.4144519859551
 20
2234.4653334449772
 30
0.0
 40
30.0
  1
弾性サイン板（大）
 41
0.8
  7
EXT08
 72
     4
 11
2675.6144519859549
 21
2249.4653334449772
 31
0.0
  0
TEXT
  5
1CF09
  8
MOJI
 10
2934.3431438828802
 20
2234.4653334449772
 30
0.0
 40
30.0
  1
CRゴム
 41
0.8
  7
EXT08
 11
2934.3431438828802
 21
2249.4653334449772
 31
0.0
 73
     2
  0
TEXT
  5
1CF0A
  8
MOJI
 10
2850.9145724723089
 20
2234.4653334449772
 30
0.0
 40
30.0
  1
2
 41
0.8
  7
EXT08
 72
     4
 11
2862.3431439008809
 21
2249.4653334449772
 31
0.0
  0
TEXT
  5
1CF0B
  8
MOJI
 10
3459.9976583548141
 20
2234.4653334449758
 30
0.0
 40
30.0
  1
黒 色
 41
0.8
  7
EXT08
 72
     4
 11
3492.7976583548138
 21
2249.4653334449758
 31
0.0
  0
LINE
  5
1CF0C
  8
SJC
 10
2848.9786626582581
 20
1186.00717853678
 30
0.0
 11
2848.9786626582641
 21
1136.639921899879
 31
0.0
  0
LINE
  5
1CF0D
  8
SJC
 10
2969.4786626581558
 20
607.00717853680487
 30
0.0
 11
2969.4786626581558
 21
451.00717853674888
 31
0.0
1001
ACAD
1000
ASC_BOUNDS
1002
{
1070
    19
1002
}
  0
TEXT
  5
1CFE6
  8
MOJI
 10
2593.2144519859548
 20
2138.465333468976
 30
0.0
 40
30.0
  1
サインシート
 41
0.8
  7
EXT08
 72
     4
 11
2675.6144519859549
 21
2153.465333468976
 31
0.0
  0
TEXT
  5
1CFE7
  8
MOJI
 10
2934.3431438828802
 20
2138.465333468976
 30
0.0
 40
30.0
  1
封入レンズ型反射シート
 41
0.8
  7
EXT08
 11
2934.3431438828802
 21
2153.465333468976
 31
0.0
 73
     2
  0
TEXT
  5
1CFE8
  8
MOJI
 10
2850.9145724723089
 20
2138.465333468976
 30
0.0
 40
30.0
  1
3
 41
0.8
  7
EXT08
 72
     4
 11
2862.3431439008809
 21
2153.465333468976
 31
0.0
  0
TEXT
  5
1CFE9
  8
MOJI
 10
3407.9976583548132
 20
2138.465333468976
 30
0.0
 40
30.0
  1
デジタル印刷
 41
0.8
  7
EXT08
 72
     4
 11
3492.7976583548129
 21
2153.465333468976
 31
0.0
  0
LINE
  5
1CFEA
  8
MOJI
 10
3663.0844272244772
 20
2177.4653334629761
 30
0.0
 11
2539.8840360922268
 21
2177.4653334629761
 31
0.0
  0
INSERT
  5
1CFEB
  8
0
  2
*U40
 10
0.0
 20
0.0
 30
0.0
1001
ACAD
1000
DSTYLE
1002
{
1070
   140
1040
30.0
1070
   144
1040
0.5
1070
   147
1040
15.0
1070
    42
1040
10.0
1070
    44
1040
10.0
1070
    43
1040
60.0
1070
    41
1040
20.0
1002
}
  0
TEXT
  5
1CFEC
  8
SUNPOU
 10
836.29462260241144
 20
2062.7537273195571
 30
0.0
 40
30.0
  1
封入レンズ型反射シート
 41
0.8
  7
EXT08
  0
LINE
  5
1CFED
  8
SUNPOU
 10
833.81844182633449
 20
2097.5815905764148
 30
0.0
 11
1166.044301121939
 21
2097.5815905764148
 31
0.0
1001
ACAD
1000
DSTYLE
1002
{
1070
    77
1070
     0
1070
    40
1040
10.0
1070
   147
1040
1.1999999999999991
1070
   176
1070
     0
1070
   177
1070
     0
1070
   178
1070
     0
1070
   179
1070
     2
1070
   271
1070
     2
1002
}
  0
TEXT
  5
1CFEE
  8
SUNPOU
 10
836.29462260241144
 20
2103.3396110685262
 30
0.0
 40
30.0
  1
サインシート
 41
0.8
  7
EXT08
  0
TEXT
  5
1CFEF
  8
SUNPOU
 10
841.67749407762028
 20
2017.0097870585601
 30
0.0
 40
30.0
  1
デジタル印刷
 41
0.8
  7
EXT08
  0
VIEWPORT
  5
1464C
 67
     1
  8
0
 10
128.5
 20
97.5
 30
0.0
 40
314.226
 41
243.9518146964856
 68
     1
 69
     1
1001
ACAD
1000
MVIEW
1002
{
1070
    16
1010
0.0
1020
0.0
1030
0.0
1010
0.0
1020
0.0
1030
1.0
1040
0.0
1040
243.9518146964856
1040
128.5
1040
97.5
1040
50.0
1040
0.0
1040
0.0
1070
     0
1070
   100
1070
     1
1070
     1
1070
     0
1070
     0
1070
     0
1070
     0
1040
0.0
1040
0.0
1040
0.0
1040
10.0
1040
10.0
1040
10.0
1040
10.0
1070
     0
1002
{
1002
}
1002
}
  0
VIEWPORT
  5
1464E
 67
     1
  8
SUNPOU
 10
128.5
 20
97.5
 30
0.0
 40
205.59999999999999
 41
156.0
 68
     2
 69
     2
1001
ACAD
1000
MVIEW
1002
{
1070
    16
1010
0.0
1020
0.0
1030
0.0
1010
0.0
1020
0.0
1030
1.0
1040
0.0
1040
5536.5396555471661
1040
-4689.111563369348
1040
1441.2182828350519
1040
50.0
1040
0.0
1040
0.0
1070
     0
1070
   100
1070
     1
1070
     3
1070
     0
1070
     0
1070
     0
1070
     0
1040
0.0
1040
0.0
1040
0.0
1040
10.0
1040
10.0
1040
10.0
1040
10.0
1070
     0
1002
{
1002
}
1002
}
  0
ENDSEC
  0
EOF
