  0
SECTION
  2
HEADER
  9
$ACADVER
  1
AC1009
  9
$INSBASE
 10
0.0
 20
0.0
 30
0.0
  9
$EXTMIN
 10
-0.7058929444392561
 20
37.540982692415128
 30
0.0
  9
$EXTMAX
 10
4019.2941070555598
 20
2782.5409826924151
 30
0.0
  9
$LIMMIN
 10
0.0
 20
0.0
  9
$LIMMAX
 10
4200.0
 20
2970.0
  9
$ORTHOMODE
 70
     1
  9
$REGENMODE
 70
     1
  9
$FILLMODE
 70
     1
  9
$QTEXTMODE
 70
     0
  9
$MIRRTEXT
 70
     0
  9
$DRAGMODE
 70
     2
  9
$LTSCALE
 40
100.0
  9
$OSMODE
 70
    37
  9
$ATTMODE
 70
     1
  9
$TEXTSIZE
 40
30.0
  9
$TRACEWID
 40
1.0
  9
$TEXTSTYLE
  7
EXT08
  9
$CLAYER
  8
0
  9
$CELTYPE
  6
BYLAYER
  9
$CECOLOR
 62
   256
  9
$DIMSCALE
 40
10.0
  9
$DIMASZ
 40
2.0
  9
$DIMEXO
 40
1.0
  9
$DIMDLI
 40
6.0
  9
$DIMRND
 40
0.0
  9
$DIMDLE
 40
0.0
  9
$DIMEXE
 40
1.0
  9
$DIMTP
 40
0.0
  9
$DIMTM
 40
0.0
  9
$DIMTXT
 40
3.0
  9
$DIMCEN
 40
0.09
  9
$DIMTSZ
 40
0.0
  9
$DIMTOL
 70
     0
  9
$DIMLIM
 70
     0
  9
$DIMTIH
 70
     0
  9
$DIMTOH
 70
     0
  9
$DIMSE1
 70
     0
  9
$DIMSE2
 70
     0
  9
$DIMTAD
 70
     1
  9
$DIMZIN
 70
     8
  9
$DIMBLK
  1

  9
$DIMASO
 70
     1
  9
$DIMSHO
 70
     1
  9
$DIMPOST
  1

  9
$DIMAPOST
  1

  9
$DIMALT
 70
     0
  9
$DIMALTD
 70
     2
  9
$DIMALTF
 40
25.399999999999999
  9
$DIMLFAC
 40
1.0
  9
$DIMTOFL
 70
     1
  9
$DIMTVP
 40
0.0
  9
$DIMTIX
 70
     0
  9
$DIMSOXD
 70
     0
  9
$DIMSAH
 70
     0
  9
$DIMBLK1
  1

  9
$DIMBLK2
  1

  9
$DIMSTYLE
  2
SJC
  9
$DIMCLRD
 70
     0
  9
$DIMCLRE
 70
     0
  9
$DIMCLRT
 70
     0
  9
$DIMTFAC
 40
1.0
  9
$DIMGAP
 40
1.1999999999999991
  9
$LUNITS
 70
     2
  9
$LUPREC
 70
     2
  9
$SKETCHINC
 40
1.0
  9
$FILLETRAD
 40
1.0
  9
$AUNITS
 70
     0
  9
$AUPREC
 70
     0
  9
$MENU
  1
.
  9
$ELEVATION
 40
0.0
  9
$PELEVATION
 40
0.0
  9
$THICKNESS
 40
0.0
  9
$LIMCHECK
 70
     0
  9
$BLIPMODE
 70
     0
  9
$CHAMFERA
 40
0.0
  9
$CHAMFERB
 40
0.0
  9
$SKPOLY
 70
     0
  9
$TDCREATE
 40
2453122.4465482058
  9
$TDUPDATE
 40
2456398.704512442
  9
$TDINDWG
 40
1.2952119676
  9
$TDUSRTIMER
 40
1.2952117940000001
  9
$USRTIMER
 70
     1
  9
$ANGBASE
 50
0.0
  9
$ANGDIR
 70
     0
  9
$PDMODE
 70
    33
  9
$PDSIZE
 40
5.0
  9
$PLINEWID
 40
0.0
  9
$COORDS
 70
     1
  9
$SPLFRAME
 70
     0
  9
$SPLINETYPE
 70
     6
  9
$SPLINESEGS
 70
     8
  9
$ATTDIA
 70
     0
  9
$ATTREQ
 70
     1
  9
$HANDLING
 70
     1
  9
$HANDSEED
  5
1C126
  9
$SURFTAB1
 70
     6
  9
$SURFTAB2
 70
     6
  9
$SURFTYPE
 70
     6
  9
$SURFU
 70
     6
  9
$SURFV
 70
     6
  9
$UCSNAME
  2

  9
$UCSORG
 10
0.0
 20
0.0
 30
0.0
  9
$UCSXDIR
 10
1.0
 20
0.0
 30
0.0
  9
$UCSYDIR
 10
0.0
 20
1.0
 30
0.0
  9
$PUCSNAME
  2

  9
$PUCSORG
 10
0.0
 20
0.0
 30
0.0
  9
$PUCSXDIR
 10
1.0
 20
0.0
 30
0.0
  9
$PUCSYDIR
 10
0.0
 20
1.0
 30
0.0
  9
$USERI1
 70
     3
  9
$USERI2
 70
    10
  9
$USERI3
 70
     0
  9
$USERI4
 70
     0
  9
$USERI5
 70
     0
  9
$USERR1
 40
0.0
  9
$USERR2
 40
0.0
  9
$USERR3
 40
0.0
  9
$USERR4
 40
0.0
  9
$USERR5
 40
0.0
  9
$WORLDVIEW
 70
     1
  9
$SHADEDGE
 70
     3
  9
$SHADEDIF
 70
    70
  9
$TILEMODE
 70
     1
  9
$MAXACTVP
 70
    48
  9
$PLIMCHECK
 70
     0
  9
$PEXTMIN
 10
25.699999999999989
 20
19.5
 30
0.0
  9
$PEXTMAX
 10
231.30000000000001
 20
175.5
 30
0.0
  9
$PLIMMIN
 10
-20.0
 20
-7.5
  9
$PLIMMAX
 10
277.0
 20
202.5
  9
$UNITMODE
 70
     0
  9
$VISRETAIN
 70
     1
  9
$PLINEGEN
 70
     0
  9
$PSLTSCALE
 70
     1
  0
ENDSEC
  0
SECTION
  2
TABLES
  0
TABLE
  2
VPORT
 70
     2
  0
VPORT
  2
*ACTIVE
 70
     0
 10
0.0
 20
0.0
 11
1.0
 21
1.0
 12
2841.731748721741
 22
1218.612146256108
 13
0.0
 23
0.0
 14
10.0
 24
10.0
 15
10.0
 25
10.0
 16
0.0
 26
0.0
 36
1.0
 17
0.0
 27
0.0
 37
0.0
 40
3516.3825988551698
 41
1.9010526315789471
 42
50.0
 43
0.0
 44
0.0
 50
0.0
 51
0.0
 71
     0
 72
   100
 73
     1
 74
     3
 75
     0
 76
     0
 77
     0
 78
     0
  0
ENDTAB
  0
TABLE
  2
LTYPE
 70
     4
  0
LTYPE
  2
CONTINUOUS
 70
     0
  3
Solid line
 72
    65
 73
     0
 40
0.0
  0
LTYPE
  2
CENTER
 70
     0
  3
____ _ ____ _ ____ _ ____ _ ____ _ ____ _ ____ 
 72
    65
 73
     4
 40
2.0
 49
1.25
 49
-0.25
 49
0.25
 49
-0.25
  0
LTYPE
  2
HIDDEN
 70
     0
  3
__ __ __ __ __ __ __ __ __ __ __ __ __ __ __ __
 72
    65
 73
     2
 40
0.375
 49
0.25
 49
-0.125
  0
LTYPE
  2
PHANTOM
 70
     0
  3
______  __  __  ______  __  __  ______  __  __ 
 72
    65
 73
     6
 40
2.5
 49
1.25
 49
-0.25
 49
0.25
 49
-0.25
 49
0.25
 49
-0.25
  0
ENDTAB
  0
TABLE
  2
LAYER
 70
    15
  0
LAYER
  2
0
 70
     0
 62
     7
  6
CONTINUOUS
  0
LAYER
  2
ZWAKU
 70
     1
 62
    -7
  6
CONTINUOUS
  0
LAYER
  2
CENTER
 70
     0
 62
     3
  6
CENTER
  0
LAYER
  2
HASEN
 70
     0
 62
     7
  6
HIDDEN
  0
LAYER
  2
KASOU
 70
     0
 62
     2
  6
PHANTOM
  0
LAYER
  2
MOJI
 70
     0
 62
     6
  6
CONTINUOUS
  0
LAYER
  2
WAKU
 70
     0
 62
     5
  6
CONTINUOUS
  0
LAYER
  2
HOJO
 70
     0
 62
    -8
  6
CONTINUOUS
  0
LAYER
  2
SUNPOU
 70
     0
 62
     4
  6
CONTINUOUS
  0
LAYER
  2
SJC
 70
     0
 62
     1
  6
CONTINUOUS
  0
LAYER
  2
INFORMATION
 70
     1
 62
     7
  6
CONTINUOUS
  0
LAYER
  2
SJC2
 70
     0
 62
     7
  6
CONTINUOUS
  0
LAYER
  2
MOJI2
 70
     0
 62
     1
  6
CONTINUOUS
  0
LAYER
  2
HATCH
 70
     0
 62
     2
  6
CONTINUOUS
  0
LAYER
  2
DEFPOINTS
 70
     0
 62
     7
  6
CONTINUOUS
  0
ENDTAB
  0
TABLE
  2
STYLE
 70
     9
  0
STYLE
  2
STANDARD
 70
     0
 40
0.0
 41
1.0
 50
0.0
 71
     0
 42
3.0
  3
txt
  4

  0
STYLE
  2
KANJI
 70
     0
 40
0.0
 41
1.0
 50
0.0
 71
     0
 42
0.0
  3
ROMANS.SHX
  4
BIGFONT.SHX
  0
STYLE
  2
SIMPLEX
 70
     0
 40
0.0
 41
1.0
 50
0.0
 71
     0
 42
0.0
  3
SCRIPTS.SHX
  4

  0
STYLE
  2
TATEEXT
 70
     4
 40
0.0
 41
1.0
 50
0.0
 71
     0
 42
0.0
  3
ROMANS.shx
  4
EXTFONT.shx
  0
STYLE
  2
TATEBIG
 70
     4
 40
0.0
 41
1.0
 50
0.0
 71
     0
 42
0.0
  3
ROMANS.shx
  4
BIGFONT.shx
  0
STYLE
  2
EXT08
 70
     0
 40
0.0
 41
0.8
 50
0.0
 71
     0
 42
30.0
  3
ROMANS.shx
  4
EXTFONT.shx
  0
STYLE
  2
EXT
 70
     0
 40
0.0
 41
1.0
 50
0.0
 71
     0
 42
0.0
  3
ROMANS.shx
  4
EXTFONT.shx
  0
STYLE
  2
KANJI08
 70
     0
 40
0.0
 41
0.8
 50
0.0
 71
     0
 42
0.0
  3
ROMANS.shx
  4
BIGFONT.shx
  0
STYLE
  2
MOJI1
 70
     0
 40
0.0
 41
0.8
 50
0.0
 71
     0
 42
3.0
  3
ROMANS
  4
EXTFONT
  0
ENDTAB
  0
TABLE
  2
VIEW
 70
     0
  0
ENDTAB
  0
TABLE
  2
UCS
 70
     0
  0
ENDTAB
  0
TABLE
  2
APPID
 70
     2
  0
APPID
  2
ACAD
 70
     0
  0
APPID
  2
ACAD_PSEXT
 70
     0
  0
ENDTAB
  0
TABLE
  2
DIMSTYLE
 70
     5
  0
DIMSTYLE
  2
ISO-25
 70
     0
  3

  4

  5

  6

  7

 40
1.0
 41
2.5
 42
0.625
 43
3.75
 44
1.25
 45
0.0
 46
0.0
 47
0.0
 48
0.0
140
2.5
141
2.5
142
0.0
143
0.03937007874016
144
1.0
145
0.0
146
1.0
147
0.625
 71
     0
 72
     0
 73
     0
 74
     0
 75
     0
 76
     0
 77
     1
 78
     8
170
     0
171
     3
172
     1
173
     0
174
     0
175
     0
176
     0
177
     0
178
     0
  0
DIMSTYLE
  2
STANDARD
 70
     0
  3

  4

  5

  6

  7

 40
1.0
 41
0.18
 42
0.0625
 43
0.38
 44
0.18
 45
0.0
 46
0.0
 47
0.0
 48
0.0
140
0.18
141
0.09
142
0.0
143
25.399999999999999
144
1.0
145
0.0
146
1.0
147
0.09
 71
     0
 72
     0
 73
     1
 74
     1
 75
     0
 76
     0
 77
     0
 78
     0
170
     0
171
     2
172
     0
173
     0
174
     0
175
     0
176
     0
177
     0
178
     0
  0
DIMSTYLE
  2
RUISEKI1
 70
     0
  3

  4

  5

  6
DOT
  7

 40
10.0
 41
2.0
 42
1.0
 43
6.0
 44
30.0
 45
0.0
 46
0.0
 47
0.0
 48
0.0
140
0.18
141
0.09
142
0.0
143
25.399999999999999
144
1.0
145
0.0
146
1.0
147
1.5
 71
     0
 72
     0
 73
     1
 74
     1
 75
     0
 76
     0
 77
     1
 78
     0
170
     0
171
     2
172
     0
173
     1
174
     0
175
     0
176
     0
177
     0
178
     0
  0
DIMSTYLE
  2
RUISEKI2
 70
     0
  3

  4

  5

  6
NONE
  7

 40
10.0
 41
2.0
 42
1.0
 43
6.0
 44
30.0
 45
0.0
 46
0.0
 47
0.0
 48
0.0
140
0.18
141
0.09
142
0.0
143
25.399999999999999
144
1.0
145
0.0
146
1.0
147
1.5
 71
     0
 72
     0
 73
     1
 74
     1
 75
     0
 76
     0
 77
     1
 78
     0
170
     0
171
     2
172
     0
173
     1
174
     0
175
     0
176
     0
177
     0
178
     0
  0
DIMSTYLE
  2
SJC
 70
     0
  3

  4

  5

  6

  7

 40
1.0
 41
0.18
 42
0.0625
 43
0.38
 44
0.18
 45
0.0
 46
0.0
 47
0.0
 48
0.0
140
0.18
141
0.09
142
0.0
143
25.399999999999999
144
1.0
145
0.0
146
1.0
147
0.09
 71
     0
 72
     0
 73
     1
 74
     1
 75
     0
 76
     0
 77
     0
 78
     0
170
     0
171
     2
172
     0
173
     0
174
     0
175
     0
176
     0
177
     0
178
     0
  0
ENDTAB
  0
ENDSEC
  0
SECTION
  2
BLOCKS
  0
BLOCK
  8
0
  2
$MODEL_SPACE
 70
     0
 10
0.0
 20
0.0
 30
0.0
  3
$MODEL_SPACE
  1

  0
ENDBLK
  5
21
  8
0
  0
BLOCK
 67
     1
  8
0
  2
$PAPER_SPACE
 70
     0
 10
0.0
 20
0.0
 30
0.0
  3
$PAPER_SPACE
  1

  0
ENDBLK
  5
1D
 67
     1
  8
0
  0
BLOCK
  8
0
  2
SYSTEMA3
 70
     0
 10
0.0
 20
0.0
 30
0.0
  3
SYSTEMA3
  1

  0
POLYLINE
  5
3B
  8
ZWAKU
 66
     1
 10
0.0
 20
0.0
 30
0.0
 70
     1
  0
VERTEX
  5
1BB46
  8
ZWAKU
 10
0.0
 20
0.0
 30
0.0
  0
VERTEX
  5
1BB47
  8
ZWAKU
 10
0.0
 20
274.5
 30
0.0
  0
VERTEX
  5
1BB48
  8
ZWAKU
 10
402.0
 20
274.5
 30
0.0
  0
VERTEX
  5
1BB49
  8
ZWAKU
 10
402.0
 20
0.0
 30
0.0
  0
SEQEND
  5
1BB4A
  8
ZWAKU
  0
ENDBLK
  5
3D
  8
0
  0
BLOCK
  8
0
  2
_DOT
 70
     0
 10
0.0
 20
0.0
 30
0.0
  3
_DOT
  1

  0
POLYLINE
  5
49
  8
0
  6
BYBLOCK
 62
     0
 66
     1
 10
0.0
 20
0.0
 30
0.0
 70
     1
 40
0.5
 41
0.5
  0
VERTEX
  5
1BB4B
  8
0
  6
BYBLOCK
 62
     0
 10
-0.25
 20
0.0
 30
0.0
 42
1.0
  0
VERTEX
  5
1BB4C
  8
0
  6
BYBLOCK
 62
     0
 10
0.25
 20
0.0
 30
0.0
 42
1.0
  0
SEQEND
  5
1BB4D
  8
0
  6
BYBLOCK
 62
     0
  0
LINE
  5
4A
  8
0
  6
BYBLOCK
 62
     0
 10
-0.5
 20
0.0
 30
0.0
 11
-1.0
 21
0.0
 31
0.0
  0
ENDBLK
  5
4C
  8
0
  0
BLOCK
  8
0
  2
_NONE
 70
     0
 10
0.0
 20
0.0
 30
0.0
  3
_NONE
  1

  0
ENDBLK
  5
50
  8
0
  0
BLOCK
  8
0
  2
CALCOMP_TECHJET720A3
 70
     0
 10
0.0
 20
0.0
 30
0.0
  3
CALCOMP_TECHJET720A3
  1

  0
POLYLINE
  5
5B
  8
ZWAKU
 62
     2
 66
     1
 10
0.0
 20
0.0
 30
0.0
 70
     1
  0
VERTEX
  5
1BB4E
  8
ZWAKU
 62
     2
 10
0.0
 20
0.0
 30
0.0
  0
VERTEX
  5
1BB4F
  8
ZWAKU
 62
     2
 10
0.0
 20
267.0
 30
0.0
  0
VERTEX
  5
1BB50
  8
ZWAKU
 62
     2
 10
370.0
 20
267.0
 30
0.0
  0
VERTEX
  5
1BB51
  8
ZWAKU
 62
     2
 10
370.0
 20
0.0
 30
0.0
  0
SEQEND
  5
1BB52
  8
ZWAKU
 62
     2
  0
ENDBLK
  5
5D
  8
0
  0
BLOCK
  8
0
  2
B0040007
 70
     0
 10
0.0
 20
0.0
 30
0.0
  3
B0040007
  1

  0
LINE
  5
D1
  8
HATCH
 10
9.6000000000000227
 20
-2.4000000000000901
 30
0.0
 11
10.399999999999981
 21
-1.5999999999999091
 31
0.0
  0
LINE
  5
D2
  8
HATCH
 10
8.0
 20
-2.4000000000000901
 30
0.0
 11
10.399999999999981
 21
0.0
 31
0.0
  0
LINE
  5
D3
  8
HATCH
 10
9.6000000000000227
 20
-0.7999999999999546
 30
0.0
 11
8.7999999999999545
 21
0.0
 31
0.0
  0
TEXT
  5
D4
  8
MOJI
 10
-0.1065189878078172
 20
0.6260561220324235
 30
0.0
 40
2.0
  1
G.L.
 41
0.8
  7
EXT08
  0
LINE
  5
D5
  8
HATCH
 10
6.4000000000000901
 20
-2.4000000000000901
 30
0.0
 11
7.2000000000000446
 21
-1.5999999999999091
 31
0.0
  0
LINE
  5
D6
  8
HATCH
 10
4.7999999999999536
 20
-2.4000000000000901
 30
0.0
 11
6.4000000000000901
 21
-0.7999999999999546
 31
0.0
  0
LINE
  5
D7
  8
HATCH
 10
1.6000000000000221
 20
-2.4000000000000901
 30
0.0
 11
3.200000000000045
 21
-0.7999999999999546
 31
0.0
  0
LINE
  5
D8
  8
HATCH
 10
0.7999999999999546
 20
-1.5999999999999091
 30
0.0
 11
0.0
 21
-0.8000000000001818
 31
0.0
  0
LINE
  5
D9
  8
HATCH
 10
3.200000000000045
 20
-2.4000000000000901
 30
0.0
 11
5.5999999999999091
 21
0.0
 31
0.0
  0
LINE
  5
DA
  8
HATCH
 10
4.0
 20
-1.5999999999999091
 30
0.0
 11
2.3999999999999768
 21
0.0
 31
0.0
  0
LINE
  5
DB
  8
HATCH
 10
0.0
 20
-2.4000000000000901
 30
0.0
 11
2.3999999999999768
 21
0.0
 31
0.0
  0
LINE
  5
DC
  8
HATCH
 10
1.6000000000000221
 20
-0.7999999999999546
 30
0.0
 11
0.7999999999999546
 21
0.0
 31
0.0
  0
LINE
  5
DD
  8
HATCH
 10
4.7999999999999536
 20
-0.7999999999999546
 30
0.0
 11
4.0
 21
0.0
 31
0.0
  0
LINE
  5
DE
  8
HATCH
 10
8.0
 20
-2.4000000000000901
 30
0.0
 11
5.6000000000000218
 21
0.0
 31
0.0
  0
LINE
  5
DF
  8
HATCH
 10
8.7999999999999545
 20
-1.5999999999999091
 30
0.0
 11
7.2000000000000446
 21
0.0
 31
0.0
  0
ENDBLK
  5
E1
  8
0
  0
BLOCK
  8
0
  2
B0040005
 70
     0
 10
0.0
 20
0.0
 30
0.0
  3
B0040005
  1

  0
POLYLINE
  5
1FD9
  8
SUNPOU
 66
     1
 10
0.0
 20
0.0
 30
0.0
  0
VERTEX
  5
1BB53
  8
SUNPOU
 10
10.0
 20
80.0
 30
0.0
  0
VERTEX
  5
1BB54
  8
SUNPOU
 10
10.0
 20
0.0000000000001137
 30
0.0
  0
VERTEX
  5
1BB55
  8
SUNPOU
 10
0.0
 20
0.0
 30
0.0
  0
VERTEX
  5
1BB56
  8
SUNPOU
 10
20.0
 20
-40.0
 30
0.0
  0
VERTEX
  5
1BB57
  8
SUNPOU
 10
10.0
 20
-39.99999999999995
 30
0.0
  0
VERTEX
  5
1BB58
  8
SUNPOU
 10
10.0
 20
-120.0
 30
0.0
  0
SEQEND
  5
1BB59
  8
SUNPOU
  0
ENDBLK
  5
1FDB
  8
0
  0
BLOCK
  8
0
  2
GL
 70
     0
 10
0.0
 20
0.0
 30
0.0
  3
GL
  1

  0
LINE
  5
17EC2
  8
SUNPOU
 10
2.8284271247462121
 20
0.0
 30
0.0
 11
1.4142135623728791
 21
-1.414213562373106
 31
0.0
  0
LINE
  5
17EC3
  8
SUNPOU
 10
4.9497474683057581
 20
0.0
 30
0.0
 11
2.474873734152879
 21
-2.474873734152879
 31
0.0
  0
LINE
  5
17EC4
  8
SUNPOU
 10
-2.121320343559546
 20
-2.121320343559546
 30
0.0
 11
-0.707106781186667
 21
-3.535533905932652
 31
0.0
  0
LINE
  5
17EC5
  8
SUNPOU
 10
-1.0606601717799999
 20
-1.060660171779773
 30
0.0
 11
1.4142135623728791
 21
-3.535533905932652
 31
0.0
  0
TEXT
  5
17EC6
  8
SUNPOU
 10
-3.2571428571428571
 20
0.9172380209058701
 30
0.0
 40
3.0
  1
G.L.
 41
0.8
  7
MOJI1
 72
     4
 11
0.0
 21
2.4172380209058701
 31
0.0
  0
LINE
  5
17EC7
  8
SUNPOU
 10
7.0710678118653041
 20
0.0
 30
0.0
 11
3.535533905932879
 21
-3.535533905932652
 31
0.0
  0
LINE
  5
17EC8
  8
SUNPOU
 10
0.0
 20
0.0
 30
0.0
 11
3.5355339059324251
 21
-3.535533905932652
 31
0.0
  0
LINE
  5
17EC9
  8
SUNPOU
 10
0.0
 20
0.0
 30
0.0
 11
-3.5355339059324251
 21
-3.535533905932652
 31
0.0
  0
ENDBLK
  5
17ECA
  8
0
  0
BLOCK
  8
0
  2
*D8
 70
     1
 10
0.0
 20
0.0
 30
0.0
  3
*D8
  1

  0
LINE
  5
1BB94
  8
SUNPOU
 62
     0
 10
450.11334604726449
 20
787.58889876454123
 30
0.0
 11
377.68044119141223
 21
787.58889876454123
 31
0.0
  0
LINE
  5
1BB95
  8
SUNPOU
 62
     0
 10
609.64738174553963
 20
2287.5888987645412
 30
0.0
 11
377.68044119141251
 21
2287.5888987645412
 31
0.0
  0
LINE
  5
1BB96
  8
SUNPOU
 62
     0
 10
387.68044119141223
 20
807.58889876454111
 30
0.0
 11
387.68044119141251
 21
2267.5888987645412
 31
0.0
  0
SOLID
  5
1BB97
  8
SUNPOU
 62
     0
 10
384.34710785807891
 20
807.58889876454111
 30
0.0
 11
391.01377452474549
 21
807.58889876454111
 31
0.0
 12
387.68044119141223
 22
787.58889876454123
 32
0.0
 13
387.68044119141223
 23
787.58889876454123
 33
0.0
  0
SOLID
  5
1BB98
  8
SUNPOU
 62
     0
 10
384.3471078580792
 20
2267.5888987645412
 30
0.0
 11
391.01377452474583
 21
2267.5888987645412
 31
0.0
 12
387.68044119141251
 22
2287.5888987645412
 32
0.0
 13
387.68044119141251
 23
2287.5888987645412
 33
0.0
  0
TEXT
  8
SUNPOU
  40
30
  5
1BD03
  62
0
  72
0
  71
0
 10
300.680
 20
1484.49
 30
0.000000
  1
1500
  7
EXT08
  0
POINT
  5
1BB9A
  8
DEFPOINTS
 62
     0
 10
460.11334604726437
 20
787.58889876454123
 30
0.0
  0
POINT
  5
1BB9B
  8
DEFPOINTS
 62
     0
 10
619.64738174553963
 20
2287.5888987645412
 30
0.0
  0
POINT
  5
1BB9C
  8
DEFPOINTS
 62
     0
 10
387.68044119141251
 20
2287.5888987645412
 30
0.0
  0
ENDBLK
  5
195ED
  8
0
  0
BLOCK
  8
0
  2
*D9
 70
     1
 10
0.0
 20
0.0
 30
0.0
  3
*D9
  1

  0
LINE
  5
1BB9D
  8
SUNPOU
 62
     0
 10
609.64738174553963
 20
2287.5888987645412
 30
0.0
 11
523.71736719745945
 21
2287.5888987645412
 31
0.0
  0
LINE
  5
1BB9E
  8
SUNPOU
 62
     0
 10
609.64738174554145
 20
1977.588898764541
 30
0.0
 11
523.71736719745945
 21
1977.588898764541
 31
0.0
  0
LINE
  5
1BB9F
  8
SUNPOU
 62
     0
 10
533.71736719745945
 20
2267.5888987645412
 30
0.0
 11
533.71736719745945
 21
1997.588898764541
 31
0.0
  0
SOLID
  5
1BBA0
  8
SUNPOU
 62
     0
 10
530.38403386412597
 20
2267.5888987645412
 30
0.0
 11
537.05070053079282
 21
2267.5888987645412
 31
0.0
 12
533.71736719745945
 22
2287.5888987645412
 32
0.0
 13
533.71736719745945
 23
2287.5888987645412
 33
0.0
  0
SOLID
  5
1BBA1
  8
SUNPOU
 62
     0
 10
530.38403386412597
 20
1997.588898764541
 30
0.0
 11
537.05070053079282
 21
1997.588898764541
 31
0.0
 12
533.71736719745945
 22
1977.588898764541
 32
0.0
 13
533.71736719745945
 23
1977.588898764541
 33
0.0
  0
TEXT
  8
SUNPOU
  40
30
  5
1BD04
  62
0
  72
0
  71
0
 10
446.717
 20
2079.49
 30
0.000000
  1
310
  7
EXT08
  0
POINT
  5
1BBA3
  8
DEFPOINTS
 62
     0
 10
619.64738174553963
 20
2287.5888987645412
 30
0.0
  0
POINT
  5
1BBA4
  8
DEFPOINTS
 62
     0
 10
619.64738174554145
 20
1977.588898764541
 30
0.0
  0
POINT
  5
1BBA5
  8
DEFPOINTS
 62
     0
 10
533.71736719745945
 20
1977.588898764541
 30
0.0
  0
ENDBLK
  5
195F9
  8
0
  0
BLOCK
  8
0
  2
*D10
 70
     1
 10
0.0
 20
0.0
 30
0.0
  3
*D10
  1

  0
LINE
  5
1BBA6
  8
SUNPOU
 62
     0
 10
607.64738174553963
 20
2285.5888987645412
 30
0.0
 11
607.64738174553963
 21
2451.5652057546758
 31
0.0
  0
LINE
  5
1BBA7
  8
SUNPOU
 62
     0
 10
767.64738174554316
 20
2285.5888987645412
 30
0.0
 11
767.64738174554316
 21
2451.5652057546758
 31
0.0
  0
LINE
  5
1BBA8
  8
SUNPOU
 62
     0
 10
627.64738174553963
 20
2441.5652057546758
 30
0.0
 11
747.64738174554316
 21
2441.5652057546758
 31
0.0
  0
SOLID
  5
1BBA9
  8
SUNPOU
 62
     0
 10
627.64738174553963
 20
2444.8985390880098
 30
0.0
 11
627.64738174553963
 21
2438.2318724213419
 31
0.0
 12
607.64738174553963
 22
2441.5652057546758
 32
0.0
 13
607.64738174553963
 23
2441.5652057546758
 33
0.0
  0
SOLID
  5
1BBAA
  8
SUNPOU
 62
     0
 10
747.64738174554316
 20
2444.8985390880098
 30
0.0
 11
747.64738174554316
 21
2438.2318724213419
 31
0.0
 12
767.64738174554316
 22
2441.5652057546758
 32
0.0
 13
767.64738174554316
 23
2441.5652057546758
 33
0.0
  0
TEXT
  8
SUNPOU
  40
30
  5
1BD05
  62
0
  72
0
  71
0
 10
627.647
 20
2415.47
 30
0.000000
  1
160
  7
EXT08
  0
POINT
  5
1BBAC
  8
DEFPOINTS
 62
     0
 10
607.64738174553963
 20
2275.5888987645412
 30
0.0
  0
POINT
  5
1BBAD
  8
DEFPOINTS
 62
     0
 10
767.64738174554316
 20
2275.5888987645412
 30
0.0
  0
POINT
  5
1BBAE
  8
DEFPOINTS
 62
     0
 10
767.64738174554316
 20
2441.5652057546758
 30
0.0
  0
ENDBLK
  5
19605
  8
0
  0
BLOCK
  8
0
  2
*D11
 70
     1
 10
0.0
 20
0.0
 30
0.0
  3
*D11
  1

  0
LINE
  5
1BBAF
  8
SUNPOU
 62
     0
 10
450.11334604726449
 20
787.58889876454123
 30
0.0
 11
223.93867437074721
 21
787.58889876454134
 31
0.0
  0
LINE
  5
1BBB0
  8
SUNPOU
 62
     0
 10
477.64738174554049
 20
387.58889876454123
 30
0.0
 11
223.93867437074709
 21
387.58889876454128
 31
0.0
  0
LINE
  5
1BBB1
  8
SUNPOU
 62
     0
 10
233.93867437074709
 20
767.58889876454134
 30
0.0
 11
233.93867437074709
 21
407.58889876454123
 31
0.0
  0
SOLID
  5
1BBB2
  8
SUNPOU
 62
     0
 10
230.60534103741381
 20
767.58889876454134
 30
0.0
 11
237.27200770408049
 21
767.58889876454134
 31
0.0
 12
233.93867437074709
 22
787.58889876454134
 32
0.0
 13
233.93867437074709
 23
787.58889876454134
 33
0.0
  0
SOLID
  5
1BBB3
  8
SUNPOU
 62
     0
 10
230.60534103741369
 20
407.58889876454123
 30
0.0
 11
237.27200770408041
 21
407.58889876454123
 31
0.0
 12
233.93867437074709
 22
387.58889876454128
 32
0.0
 13
233.93867437074709
 23
387.58889876454128
 33
0.0
  0
TEXT
  8
SUNPOU
  40
30
  5
1BD06
  62
0
  72
0
  71
0
 10
146.939
 20
534.489
 30
0.000000
  1
400
  7
EXT08
  0
POINT
  5
1BBB5
  8
DEFPOINTS
 62
     0
 10
460.11334604726437
 20
787.58889876454123
 30
0.0
  0
POINT
  5
1BBB6
  8
DEFPOINTS
 62
     0
 10
487.64738174554049
 20
387.58889876454123
 30
0.0
  0
POINT
  5
1BBB7
  8
DEFPOINTS
 62
     0
 10
233.93867437074709
 20
387.58889876454128
 30
0.0
  0
ENDBLK
  5
1962B
  8
0
  0
BLOCK
  8
0
  2
*D12
 70
     1
 10
0.0
 20
0.0
 30
0.0
  3
*D12
  1

  0
LINE
  5
1BBB8
  8
SUNPOU
 62
     0
 10
537.64738174554054
 20
377.58889876454123
 30
0.0
 11
537.64738174554054
 21
209.0338777080587
 31
0.0
  0
LINE
  5
1BBB9
  8
SUNPOU
 62
     0
 10
837.64738174554054
 20
377.58889876454123
 30
0.0
 11
837.64738174554054
 21
209.0338777080587
 31
0.0
  0
LINE
  5
1BBBA
  8
SUNPOU
 62
     0
 10
557.64738174554054
 20
219.0338777080587
 30
0.0
 11
817.64738174554066
 21
219.0338777080587
 31
0.0
  0
SOLID
  5
1BBBB
  8
SUNPOU
 62
     0
 10
557.64738174554054
 20
222.3672110413921
 30
0.0
 11
557.64738174554054
 21
215.70054437472541
 31
0.0
 12
537.64738174554054
 22
219.0338777080587
 32
0.0
 13
537.64738174554054
 23
219.0338777080587
 33
0.0
  0
SOLID
  5
1BBBC
  8
SUNPOU
 62
     0
 10
817.64738174554066
 20
222.3672110413921
 30
0.0
 11
817.64738174554066
 21
215.70054437472541
 31
0.0
 12
837.64738174554054
 22
219.0338777080587
 32
0.0
 13
837.64738174554054
 23
219.0338777080587
 33
0.0
  0
TEXT
  8
SUNPOU
  40
30
  5
1BD07
  62
0
  72
0
  71
0
 10
627.647
 20
192.934
 30
0.000000
  1
□300
  7
EXT08
  0
POINT
  5
1BBBE
  8
DEFPOINTS
 62
     0
 10
537.64738174554054
 20
387.58889876454123
 30
0.0
  0
POINT
  5
1BBBF
  8
DEFPOINTS
 62
     0
 10
837.64738174554054
 20
387.58889876454123
 30
0.0
  0
POINT
  5
1BBC0
  8
DEFPOINTS
 62
     0
 10
837.64738174554054
 20
219.0338777080587
 30
0.0
  0
ENDBLK
  5
19683
  8
0
  0
BLOCK
  8
0
  2
*D13
 70
     1
 10
0.0
 20
0.0
 30
0.0
  3
*D13
  1

  0
LINE
  5
1BBD3
  8
SUNPOU
 62
     0
 10
1983.829355828233
 20
1536.507178536805
 30
0.0
 11
1880.500388950459
 21
1536.507178536805
 31
0.0
  0
LINE
  5
1BBD4
  8
SUNPOU
 62
     0
 10
1983.829355828236
 20
916.50717853680544
 30
0.0
 11
1880.500388950459
 21
916.50717853680544
 31
0.0
  0
LINE
  5
1BBD5
  8
SUNPOU
 62
     0
 10
1890.500388950458
 20
1516.507178536805
 30
0.0
 11
1890.500388950458
 21
936.50717853680555
 31
0.0
  0
SOLID
  5
1BBD6
  8
SUNPOU
 62
     0
 10
1887.1670556171259
 20
1516.507178536805
 30
0.0
 11
1893.833722283792
 21
1516.507178536805
 31
0.0
 12
1890.500388950459
 22
1536.507178536805
 32
0.0
 13
1890.500388950459
 23
1536.507178536805
 33
0.0
  0
SOLID
  5
1BBD7
  8
SUNPOU
 62
     0
 10
1887.1670556171259
 20
936.50717853680555
 30
0.0
 11
1893.833722283792
 21
936.50717853680555
 31
0.0
 12
1890.500388950458
 22
916.50717853680544
 32
0.0
 13
1890.500388950458
 23
916.50717853680544
 33
0.0
  0
TEXT
  8
SUNPOU
  40
30
  5
1BD08
  62
0
  72
0
  71
0
 10
1803.50
 20
1173.41
 30
0.000000
  1
310
  7
EXT08
  0
POINT
  5
1BBD9
  8
DEFPOINTS
 62
     0
 10
1993.829355828233
 20
1536.507178536805
 30
0.0
  0
POINT
  5
1BBDA
  8
DEFPOINTS
 62
     0
 10
1993.8293558282371
 20
916.50717853680544
 30
0.0
  0
POINT
  5
1BBDB
  8
DEFPOINTS
 62
     0
 10
1890.500388950458
 20
916.50717853680544
 30
0.0
  0
ENDBLK
  5
1969B
  8
0
  0
BLOCK
  8
0
  2
*D14
 70
     1
 10
0.0
 20
0.0
 30
0.0
  3
*D14
  1

  0
LINE
  5
1BBDC
  8
SUNPOU
 62
     0
 10
1969.829355828233
 20
1522.507178536805
 30
0.0
 11
1969.829355828233
 21
1709.019615007488
 31
0.0
  0
LINE
  5
1BBDD
  8
SUNPOU
 62
     0
 10
2289.8293558282398
 20
1522.507178536805
 30
0.0
 11
2289.8293558282398
 21
1709.019615007488
 31
0.0
  0
LINE
  5
1BBDE
  8
SUNPOU
 62
     0
 10
1989.829355828233
 20
1699.019615007488
 30
0.0
 11
2269.8293558282412
 21
1699.019615007488
 31
0.0
  0
SOLID
  5
1BBDF
  8
SUNPOU
 62
     0
 10
1989.829355828233
 20
1702.3529483408211
 30
0.0
 11
1989.829355828233
 21
1695.686281674155
 31
0.0
 12
1969.829355828233
 22
1699.019615007488
 32
0.0
 13
1969.829355828233
 23
1699.019615007488
 33
0.0
  0
SOLID
  5
1BBE0
  8
SUNPOU
 62
     0
 10
2269.8293558282412
 20
1702.3529483408211
 30
0.0
 11
2269.8293558282412
 21
1695.686281674155
 31
0.0
 12
2289.8293558282398
 22
1699.019615007488
 32
0.0
 13
2289.8293558282398
 23
1699.019615007488
 33
0.0
  0
TEXT
  8
SUNPOU
  40
30
  5
1BD09
  62
0
  72
0
  71
0
 10
2069.83
 20
1672.92
 30
0.000000
  1
160
  7
EXT08
  0
POINT
  5
1BBE2
  8
DEFPOINTS
 62
     0
 10
1969.829355828233
 20
1512.507178536805
 30
0.0
  0
POINT
  5
1BBE3
  8
DEFPOINTS
 62
     0
 10
2289.8293558282398
 20
1512.507178536805
 30
0.0
  0
POINT
  5
1BBE4
  8
DEFPOINTS
 62
     0
 10
2289.8293558282398
 20
1699.019615007488
 30
0.0
  0
ENDBLK
  5
196A7
  8
0
  0
BLOCK
  8
0
  2
*D15
 70
     1
 10
0.0
 20
0.0
 30
0.0
  3
*D15
  1

  0
LINE
  5
1BBE5
  8
SUNPOU
 62
     0
 10
1969.8293558282351
 20
1246.507178536805
 30
0.0
 11
1969.8293558282351
 21
1290.1788519081931
 31
0.0
  0
LINE
  5
1BBE6
  8
SUNPOU
 62
     0
 10
1979.829355828236
 20
1246.507178536805
 30
0.0
 11
1979.829355828236
 21
1290.1788519081931
 31
0.0
  0
LINE
  5
1BBE7
  8
SUNPOU
 62
     0
 10
1949.8293558282351
 20
1280.1788519081931
 30
0.0
 11
1929.8293558282351
 21
1280.1788519081931
 31
0.0
  0
LINE
  5
1BBE8
  8
SUNPOU
 62
     0
 10
1999.829355828236
 20
1280.1788519081931
 30
0.0
 11
2019.829355828236
 21
1280.1788519081931
 31
0.0
  0
TEXT
  8
SUNPOU
  40
30
  5
1BD0A
  62
0
  72
0
  71
0
 10
1889.31
 20
1253.96
 30
0.000000
  1
5
  7
EXT08
  0
LINE
  5
1BBEA
  8
SUNPOU
 62
     0
 10
1969.8293558282351
 20
1280.1788519081931
 30
0.0
 11
1979.829355828236
 21
1280.1788519081931
 31
0.0
  0
SOLID
  5
1BBEB
  8
SUNPOU
 62
     0
 10
1949.8293558282351
 20
1283.5121852415259
 30
0.0
 11
1949.8293558282351
 21
1276.8455185748589
 31
0.0
 12
1969.8293558282351
 22
1280.1788519081931
 32
0.0
 13
1969.8293558282351
 23
1280.1788519081931
 33
0.0
  0
SOLID
  5
1BBEC
  8
SUNPOU
 62
     0
 10
1999.829355828236
 20
1283.5121852415259
 30
0.0
 11
1999.829355828236
 21
1276.8455185748589
 31
0.0
 12
1979.829355828236
 22
1280.1788519081931
 32
0.0
 13
1979.829355828236
 23
1280.1788519081931
 33
0.0
  0
POINT
  5
1BBED
  8
DEFPOINTS
 62
     0
 10
1969.8293558282351
 20
1236.507178536805
 30
0.0
  0
POINT
  5
1BBEE
  8
DEFPOINTS
 62
     0
 10
1979.829355828236
 20
1236.507178536805
 30
0.0
  0
POINT
  5
1BBEF
  8
DEFPOINTS
 62
     0
 10
1979.829355828236
 20
1280.1788519081931
 30
0.0
  0
ENDBLK
  5
196C7
  8
0
  0
BLOCK
  8
0
  2
*D16
 70
     1
 10
0.0
 20
0.0
 30
0.0
  3
*D16
  1

  0
LINE
  5
1BBF0
  8
SUNPOU
 62
     0
 10
2788.9786626568889
 20
1542.5071785368109
 30
0.0
 11
2788.9786626568889
 21
1655.1350931014349
 31
0.0
  0
LINE
  5
1BBF1
  8
SUNPOU
 62
     0
 10
2776.9786626568889
 20
1542.507178536805
 30
0.0
 11
2776.9786626568889
 21
1655.1350931014349
 31
0.0
  0
LINE
  5
1BBF2
  8
SUNPOU
 62
     0
 10
2808.9786626568898
 20
1645.1350931014349
 30
0.0
 11
2828.9786626568898
 21
1645.1350931014349
 31
0.0
  0
LINE
  5
1BBF3
  8
SUNPOU
 62
     0
 10
2756.9786626568889
 20
1645.1350931014349
 30
0.0
 11
2736.9786626568898
 21
1645.1350931014349
 31
0.0
  0
TEXT
  8
SUNPOU
  40
30
  5
1BD0B
  62
0
  72
0
  71
0
 10
2691.73
 20
1622.03
 30
0.000000
  1
6
  7
EXT08
  0
LINE
  5
1BBF5
  8
SUNPOU
 62
     0
 10
2788.9786626568889
 20
1645.1350931014349
 30
0.0
 11
2776.9786626568889
 21
1645.1350931014349
 31
0.0
  0
SOLID
  5
1BBF6
  8
SUNPOU
 62
     0
 10
2808.9786626568898
 20
1648.4684264347679
 30
0.0
 11
2808.9786626568898
 21
1641.8017597681021
 31
0.0
 12
2788.9786626568889
 22
1645.1350931014349
 32
0.0
 13
2788.9786626568889
 23
1645.1350931014349
 33
0.0
  0
SOLID
  5
1BBF7
  8
SUNPOU
 62
     0
 10
2756.9786626568889
 20
1648.4684264347679
 30
0.0
 11
2756.9786626568889
 21
1641.8017597681021
 31
0.0
 12
2776.9786626568889
 22
1645.1350931014349
 32
0.0
 13
2776.9786626568889
 23
1645.1350931014349
 33
0.0
  0
POINT
  5
1BBF8
  8
DEFPOINTS
 62
     0
 10
2788.9786626568889
 20
1532.5071785368109
 30
0.0
  0
POINT
  5
1BBF9
  8
DEFPOINTS
 62
     0
 10
2776.9786626568889
 20
1532.507178536805
 30
0.0
  0
POINT
  5
1BBFA
  8
DEFPOINTS
 62
     0
 10
2776.9786626568889
 20
1645.1350931014349
 30
0.0
  0
ENDBLK
  5
196EA
  8
0
  0
BLOCK
  8
0
  2
*D17
 70
     1
 10
0.0
 20
0.0
 30
0.0
  3
*D17
  1

  0
LINE
  5
1BC13
  8
SUNPOU
 62
     0
 10
643.89738174553895
 20
2337.588898764544
 30
0.0
 11
643.89738174553895
 21
2388.5770522596108
 31
0.0
  0
LINE
  5
1BC14
  8
SUNPOU
 62
     0
 10
731.39738174553713
 20
2337.5888987645458
 30
0.0
 11
731.39738174553713
 21
2388.5770522596108
 31
0.0
  0
LINE
  5
1BC15
  8
SUNPOU
 62
     0
 10
663.89738174553895
 20
2378.5770522596099
 30
0.0
 11
711.39738174553713
 21
2378.5770522596099
 31
0.0
  0
TEXT
  8
SUNPOU
  40
30
  5
1BD0C
  62
0
  72
0
  71
0
 10
627.647
 20
2355.16
 30
0.000000
  1
φ89
  7
EXT08
  0
SOLID
  5
1BC17
  8
SUNPOU
 62
     0
 10
663.89738174553895
 20
2381.9103855929438
 30
0.0
 11
663.89738174553895
 21
2375.2437189262769
 31
0.0
 12
643.89738174553895
 22
2378.5770522596099
 32
0.0
 13
643.89738174553895
 23
2378.5770522596099
 33
0.0
  0
SOLID
  5
1BC18
  8
SUNPOU
 62
     0
 10
711.39738174553713
 20
2381.9103855929438
 30
0.0
 11
711.39738174553713
 21
2375.2437189262769
 31
0.0
 12
731.39738174553713
 22
2378.5770522596099
 32
0.0
 13
731.39738174553713
 23
2378.5770522596099
 33
0.0
  0
POINT
  5
1BC19
  8
DEFPOINTS
 62
     0
 10
643.89738174553895
 20
2327.588898764544
 30
0.0
  0
POINT
  5
1BC1A
  8
DEFPOINTS
 62
     0
 10
731.39738174553713
 20
2327.5888987645458
 30
0.0
  0
POINT
  5
1BC1B
  8
DEFPOINTS
 62
     0
 10
731.39738174553713
 20
2378.5770522596099
 30
0.0
  0
ENDBLK
  5
19E0E
  8
0
  0
BLOCK
  8
0
  2
*D18
 70
     1
 10
0.0
 20
0.0
 30
0.0
  3
*D18
  1

  0
LINE
  5
1BC2C
  8
SUNPOU
 62
     0
 10
609.64738174553963
 20
1977.588898764541
 30
0.0
 11
523.71736719745945
 21
1977.588898764541
 31
0.0
  0
LINE
  5
1BC2D
  8
SUNPOU
 62
     0
 10
609.64738174554145
 20
1667.588898764541
 30
0.0
 11
523.71736719745945
 21
1667.588898764541
 31
0.0
  0
LINE
  5
1BC2E
  8
SUNPOU
 62
     0
 10
533.71736719745945
 20
1957.588898764541
 30
0.0
 11
533.71736719745945
 21
1687.588898764541
 31
0.0
  0
SOLID
  5
1BC2F
  8
SUNPOU
 62
     0
 10
530.38403386412608
 20
1957.588898764541
 30
0.0
 11
537.05070053079294
 21
1957.588898764541
 31
0.0
 12
533.71736719745945
 22
1977.588898764541
 32
0.0
 13
533.71736719745945
 23
1977.588898764541
 33
0.0
  0
SOLID
  5
1BC30
  8
SUNPOU
 62
     0
 10
530.38403386412597
 20
1687.588898764541
 30
0.0
 11
537.05070053079282
 21
1687.588898764541
 31
0.0
 12
533.71736719745945
 22
1667.588898764541
 32
0.0
 13
533.71736719745945
 23
1667.588898764541
 33
0.0
  0
TEXT
  8
SUNPOU
  40
30
  5
1BD0D
  62
0
  72
0
  71
0
 10
446.717
 20
1769.49
 30
0.000000
  1
310
  7
EXT08
  0
POINT
  5
1BC32
  8
DEFPOINTS
 62
     0
 10
619.64738174553963
 20
1977.588898764541
 30
0.0
  0
POINT
  5
1BC33
  8
DEFPOINTS
 62
     0
 10
619.64738174554145
 20
1667.588898764541
 30
0.0
  0
POINT
  5
1BC34
  8
DEFPOINTS
 62
     0
 10
533.71736719745945
 20
1667.588898764541
 30
0.0
  0
ENDBLK
  5
1AAE8
  8
0
  0
BLOCK
  8
0
  2
*D19
 70
     1
 10
0.0
 20
0.0
 30
0.0
  3
*D19
  1

  0
LINE
  5
1BC35
  8
SUNPOU
 62
     0
 10
477.64738174554071
 20
287.58889876454123
 30
0.0
 11
223.93867437074701
 21
287.58889876454128
 31
0.0
  0
LINE
  5
1BC36
  8
SUNPOU
 62
     0
 10
477.64738174554071
 20
387.58889876454123
 30
0.0
 11
223.93867437074709
 21
387.58889876454128
 31
0.0
  0
LINE
  5
1BC37
  8
SUNPOU
 62
     0
 10
233.93867437074701
 20
307.58889876454128
 30
0.0
 11
233.93867437074709
 21
367.58889876454128
 31
0.0
  0
SOLID
  5
1BC38
  8
SUNPOU
 62
     0
 10
230.60534103741369
 20
307.58889876454128
 30
0.0
 11
237.27200770408041
 21
307.58889876454128
 31
0.0
 12
233.93867437074701
 22
287.58889876454128
 32
0.0
 13
233.93867437074701
 23
287.58889876454128
 33
0.0
  0
SOLID
  5
1BC39
  8
SUNPOU
 62
     0
 10
230.60534103741369
 20
367.58889876454128
 30
0.0
 11
237.27200770408041
 21
367.58889876454128
 31
0.0
 12
233.93867437074709
 22
387.58889876454128
 32
0.0
 13
233.93867437074709
 23
387.58889876454128
 33
0.0
  0
TEXT
  8
SUNPOU
  40
30
  5
1BD0E
  62
0
  72
0
  71
0
 10
146.939
 20
284.489
 30
0.000000
  1
100
  7
EXT08
  0
POINT
  5
1BC3B
  8
DEFPOINTS
 62
     0
 10
487.64738174554083
 20
287.58889876454123
 30
0.0
  0
POINT
  5
1BC3C
  8
DEFPOINTS
 62
     0
 10
487.64738174554083
 20
387.58889876454123
 30
0.0
  0
POINT
  5
1BC3D
  8
DEFPOINTS
 62
     0
 10
233.93867437074709
 20
387.58889876454128
 30
0.0
  0
ENDBLK
  5
1AC0A
  8
0
  0
BLOCK
  8
0
  2
*D20
 70
     1
 10
0.0
 20
0.0
 30
0.0
  3
*D20
  1

  0
LINE
  5
1BC3E
  8
SUNPOU
 62
     0
 10
487.64738174554083
 20
277.58889876454123
 30
0.0
 11
487.64738174554083
 21
152.41612395361059
 31
0.0
  0
LINE
  5
1BC3F
  8
SUNPOU
 62
     0
 10
887.64738174554066
 20
277.58889876454123
 30
0.0
 11
887.64738174554066
 21
152.41612395361059
 31
0.0
  0
LINE
  5
1BC40
  8
SUNPOU
 62
     0
 10
507.64738174554071
 20
162.41612395361059
 30
0.0
 11
867.64738174554066
 21
162.41612395361059
 31
0.0
  0
SOLID
  5
1BC41
  8
SUNPOU
 62
     0
 10
507.64738174554071
 20
165.74945728694391
 30
0.0
 11
507.64738174554071
 21
159.08279062027731
 31
0.0
 12
487.64738174554083
 22
162.41612395361059
 32
0.0
 13
487.64738174554083
 23
162.41612395361059
 33
0.0
  0
SOLID
  5
1BC42
  8
SUNPOU
 62
     0
 10
867.64738174554066
 20
165.74945728694391
 30
0.0
 11
867.64738174554066
 21
159.08279062027731
 31
0.0
 12
887.64738174554066
 22
162.41612395361059
 32
0.0
 13
887.64738174554066
 23
162.41612395361059
 33
0.0
  0
TEXT
  8
SUNPOU
  40
30
  5
1BD0F
  62
0
  72
0
  71
0
 10
627.647
 20
136.316
 30
0.000000
  1
□400
  7
EXT08
  0
POINT
  5
1BC44
  8
DEFPOINTS
 62
     0
 10
487.64738174554083
 20
287.58889876454123
 30
0.0
  0
POINT
  5
1BC45
  8
DEFPOINTS
 62
     0
 10
887.64738174554066
 20
287.58889876454123
 30
0.0
  0
POINT
  5
1BC46
  8
DEFPOINTS
 62
     0
 10
887.64738174554066
 20
162.41612395361059
 30
0.0
  0
ENDBLK
  5
1AC17
  8
0
  0
BLOCK
  8
0
  2
*D21
 70
     1
 10
0.0
 20
0.0
 30
0.0
  3
*D21
  1

  0
LINE
  5
1BC47
  8
SUNPOU
 62
     0
 10
609.64738174553975
 20
2287.5888987645412
 30
0.0
 11
456.59842398816369
 21
2287.5888987645412
 31
0.0
  0
LINE
  5
1BC48
  8
SUNPOU
 62
     0
 10
609.64738174554157
 20
1667.588898764541
 30
0.0
 11
456.59842398816357
 21
1667.588898764541
 31
0.0
  0
LINE
  5
1BC49
  8
SUNPOU
 62
     0
 10
466.59842398816369
 20
2267.5888987645412
 30
0.0
 11
466.59842398816357
 21
1687.588898764541
 31
0.0
  0
SOLID
  5
1BC4A
  8
SUNPOU
 62
     0
 10
463.26509065483037
 20
2267.5888987645412
 30
0.0
 11
469.931757321497
 21
2267.5888987645412
 31
0.0
 12
466.59842398816369
 22
2287.5888987645412
 32
0.0
 13
466.59842398816369
 23
2287.5888987645412
 33
0.0
  0
SOLID
  5
1BC4B
  8
SUNPOU
 62
     0
 10
463.26509065483032
 20
1687.588898764541
 30
0.0
 11
469.93175732149689
 21
1687.588898764541
 31
0.0
 12
466.59842398816357
 22
1667.588898764541
 32
0.0
 13
466.59842398816357
 23
1667.588898764541
 33
0.0
  0
TEXT
  8
SUNPOU
  40
30
  5
1BD10
  62
0
  72
0
  71
0
 10
379.598
 20
1924.49
 30
0.000000
  1
620
  7
EXT08
  0
POINT
  5
1BC4D
  8
DEFPOINTS
 62
     0
 10
619.64738174553975
 20
2287.5888987645412
 30
0.0
  0
POINT
  5
1BC4E
  8
DEFPOINTS
 62
     0
 10
619.64738174554168
 20
1667.588898764541
 30
0.0
  0
POINT
  5
1BC4F
  8
DEFPOINTS
 62
     0
 10
466.59842398816357
 20
1667.588898764541
 30
0.0
  0
ENDBLK
  5
1AF91
  8
0
  0
BLOCK
  8
0
  2
*D22
 70
     1
 10
0.0
 20
0.0
 30
0.0
  3
*D22
  1

  0
LINE
  5
1BC50
  8
SUNPOU
 62
     0
 10
1983.829355828223
 20
916.50717853680567
 30
0.0
 11
1880.500388950459
 21
916.50717853680567
 31
0.0
  0
LINE
  5
1BC51
  8
SUNPOU
 62
     0
 10
1983.8293558282289
 20
296.50717853680408
 30
0.0
 11
1880.500388950459
 21
296.50717853680408
 31
0.0
  0
LINE
  5
1BC52
  8
SUNPOU
 62
     0
 10
1890.500388950458
 20
896.50717853680578
 30
0.0
 11
1890.500388950458
 21
316.50717853680408
 31
0.0
  0
SOLID
  5
1BC53
  8
SUNPOU
 62
     0
 10
1887.1670556171259
 20
896.50717853680578
 30
0.0
 11
1893.833722283792
 21
896.50717853680578
 31
0.0
 12
1890.500388950458
 22
916.50717853680567
 32
0.0
 13
1890.500388950458
 23
916.50717853680567
 33
0.0
  0
SOLID
  5
1BC54
  8
SUNPOU
 62
     0
 10
1887.167055617125
 20
316.50717853680408
 30
0.0
 11
1893.833722283792
 21
316.50717853680408
 31
0.0
 12
1890.500388950458
 22
296.50717853680408
 32
0.0
 13
1890.500388950458
 23
296.50717853680408
 33
0.0
  0
TEXT
  8
SUNPOU
  40
30
  5
1BD11
  62
0
  72
0
  71
0
 10
1803.50
 20
553.407
 30
0.000000
  1
310
  7
EXT08
  0
POINT
  5
1BC56
  8
DEFPOINTS
 62
     0
 10
1993.829355828223
 20
916.50717853680567
 30
0.0
  0
POINT
  5
1BC57
  8
DEFPOINTS
 62
     0
 10
1993.8293558282289
 20
296.50717853680408
 30
0.0
  0
POINT
  5
1BC58
  8
DEFPOINTS
 62
     0
 10
1890.500388950458
 20
296.50717853680408
 30
0.0
  0
ENDBLK
  5
1AF9E
  8
0
  0
BLOCK
  8
0
  2
*D23
 70
     1
 10
0.0
 20
0.0
 30
0.0
  3
*D23
  1

  0
LINE
  5
1BC59
  8
SUNPOU
 62
     0
 10
1983.829355828233
 20
1536.507178536805
 30
0.0
 11
1803.805897383502
 21
1536.507178536805
 31
0.0
  0
LINE
  5
1BC5A
  8
SUNPOU
 62
     0
 10
1983.8293558282289
 20
296.50717853680408
 30
0.0
 11
1803.8058973835009
 21
296.50717853680408
 31
0.0
  0
LINE
  5
1BC5B
  8
SUNPOU
 62
     0
 10
1813.8058973835009
 20
1516.507178536805
 30
0.0
 11
1813.8058973835009
 21
316.50717853680408
 31
0.0
  0
SOLID
  5
1BC5C
  8
SUNPOU
 62
     0
 10
1810.4725640501681
 20
1516.507178536805
 30
0.0
 11
1817.1392307168351
 21
1516.507178536805
 31
0.0
 12
1813.805897383502
 22
1536.507178536805
 32
0.0
 13
1813.805897383502
 23
1536.507178536805
 33
0.0
  0
SOLID
  5
1BC5D
  8
SUNPOU
 62
     0
 10
1810.4725640501681
 20
316.50717853680408
 30
0.0
 11
1817.1392307168351
 21
316.50717853680408
 31
0.0
 12
1813.8058973835009
 22
296.50717853680408
 32
0.0
 13
1813.8058973835009
 23
296.50717853680408
 33
0.0
  0
TEXT
  8
SUNPOU
  40
30
  5
1BD12
  62
0
  72
0
  71
0
 10
1726.81
 20
863.407
 30
0.000000
  1
620
  7
EXT08
  0
POINT
  5
1BC5F
  8
DEFPOINTS
 62
     0
 10
1993.829355828233
 20
1536.507178536805
 30
0.0
  0
POINT
  5
1BC60
  8
DEFPOINTS
 62
     0
 10
1993.8293558282289
 20
296.50717853680408
 30
0.0
  0
POINT
  5
1BC61
  8
DEFPOINTS
 62
     0
 10
1813.8058973835009
 20
296.50717853680408
 30
0.0
  0
ENDBLK
  5
1B016
  8
0
  0
BLOCK
  8
0
  2
*D24
 70
     1
 10
0.0
 20
0.0
 30
0.0
  3
*D24
  1

  0
LINE
  5
1BCDE
  8
SUNPOU
 62
     0
 10
633.89738174553895
 20
2327.5888987645399
 30
0.0
 11
523.71736719745945
 21
2327.5888987645399
 31
0.0
  0
LINE
  5
1BCDF
  8
SUNPOU
 62
     0
 10
609.64738174553975
 20
2287.5888987645412
 30
0.0
 11
523.71736719745945
 21
2287.5888987645412
 31
0.0
  0
LINE
  5
1BCE0
  8
SUNPOU
 62
     0
 10
533.71736719745945
 20
2347.5888987645412
 30
0.0
 11
533.71736719745945
 21
2367.5888987645412
 31
0.0
  0
LINE
  5
1BCE1
  8
SUNPOU
 62
     0
 10
533.71736719745945
 20
2267.5888987645412
 30
0.0
 11
533.71736719745945
 21
2247.5888987645412
 31
0.0
  0
TEXT
  8
SUNPOU
  40
30
  5
1BD13
  62
0
  72
0
  71
0
 10
430.717
 20
2254.49
 30
0.000000
  1
40
  7
EXT08
  0
LINE
  5
1BCE3
  8
SUNPOU
 62
     0
 10
533.71736719745945
 20
2327.5888987645399
 30
0.0
 11
533.71736719745945
 21
2287.5888987645412
 31
0.0
  0
SOLID
  5
1BCE4
  8
SUNPOU
 62
     0
 10
530.38403386412608
 20
2347.5888987645412
 30
0.0
 11
537.05070053079294
 21
2347.5888987645412
 31
0.0
 12
533.71736719745945
 22
2327.5888987645399
 32
0.0
 13
533.71736719745945
 23
2327.5888987645399
 33
0.0
  0
SOLID
  5
1BCE5
  8
SUNPOU
 62
     0
 10
530.38403386412597
 20
2267.5888987645412
 30
0.0
 11
537.05070053079282
 21
2267.5888987645412
 31
0.0
 12
533.71736719745945
 22
2287.5888987645412
 32
0.0
 13
533.71736719745945
 23
2287.5888987645412
 33
0.0
  0
POINT
  5
1BCE6
  8
DEFPOINTS
 62
     0
 10
643.89738174553895
 20
2327.5888987645399
 30
0.0
  0
POINT
  5
1BCE7
  8
DEFPOINTS
 62
     0
 10
619.64738174553975
 20
2287.5888987645412
 30
0.0
  0
POINT
  5
1BCE8
  8
DEFPOINTS
 62
     0
 10
533.71736719745945
 20
2287.5888987645412
 30
0.0
  0
ENDBLK
  5
1B3A3
  8
0
  0
BLOCK
  8
0
  2
*D25
 70
     1
 10
0.0
 20
0.0
 30
0.0
  3
*D25
  1

  0
LINE
  5
1BCE9
  8
SUNPOU
 62
     0
 10
677.64738174554066
 20
2347.5888987645349
 30
0.0
 11
223.93867437074749
 21
2347.5888987645349
 31
0.0
  0
LINE
  5
1BCEA
  8
SUNPOU
 62
     0
 10
450.1133460472646
 20
787.58889876454123
 30
0.0
 11
223.93867437074721
 21
787.58889876454134
 31
0.0
  0
LINE
  5
1BCEB
  8
SUNPOU
 62
     0
 10
233.93867437074749
 20
2327.5888987645349
 30
0.0
 11
233.93867437074709
 21
807.58889876454134
 31
0.0
  0
SOLID
  5
1BCEC
  8
SUNPOU
 62
     0
 10
230.60534103741421
 20
2327.5888987645349
 30
0.0
 11
237.27200770408089
 21
2327.5888987645349
 31
0.0
 12
233.93867437074749
 22
2347.5888987645349
 32
0.0
 13
233.93867437074749
 23
2347.5888987645349
 33
0.0
  0
SOLID
  5
1BCED
  8
SUNPOU
 62
     0
 10
230.60534103741381
 20
807.58889876454134
 30
0.0
 11
237.27200770408049
 21
807.58889876454134
 31
0.0
 12
233.93867437074709
 22
787.58889876454134
 32
0.0
 13
233.93867437074709
 23
787.58889876454134
 33
0.0
  0
TEXT
  8
SUNPOU
  40
30
  5
1BD14
  62
0
  72
0
  71
0
 10
146.939
 20
1514.49
 30
0.000000
  1
1560
  7
EXT08
  0
POINT
  5
1BCEF
  8
DEFPOINTS
 62
     0
 10
687.64738174554077
 20
2347.5888987645349
 30
0.0
  0
POINT
  5
1BCF0
  8
DEFPOINTS
 62
     0
 10
460.11334604726471
 20
787.58889876454123
 30
0.0
  0
POINT
  5
1BCF1
  8
DEFPOINTS
 62
     0
 10
233.93867437074709
 20
787.58889876454134
 30
0.0
  0
ENDBLK
  5
1B3B0
  8
0
  0
BLOCK
  8
0
  2
*D26
 70
     1
 10
0.0
 20
0.0
 30
0.0
  3
*D26
  1

  0
LINE
  5
1BCF2
  8
SUNPOU
 62
     0
 10
1464.363214879636
 20
1787.5888987645401
 30
0.0
 11
1730.739975096295
 21
1787.5888987645401
 31
0.0
  0
LINE
  5
1BCF3
  8
SUNPOU
 62
     0
 10
1626.8632148796351
 20
387.58889876454123
 30
0.0
 11
1730.7399750962941
 21
387.58889876454123
 31
0.0
  0
LINE
  5
1BCF4
  8
SUNPOU
 62
     0
 10
1720.7399750962941
 20
1767.5888987645401
 30
0.0
 11
1720.7399750962941
 21
407.58889876454111
 31
0.0
  0
SOLID
  5
1BCF5
  8
SUNPOU
 62
     0
 10
1717.406641762961
 20
1767.5888987645401
 30
0.0
 11
1724.073308429628
 21
1767.5888987645401
 31
0.0
 12
1720.7399750962941
 22
1787.5888987645401
 32
0.0
 13
1720.7399750962941
 23
1787.5888987645401
 33
0.0
  0
SOLID
  5
1BCF6
  8
SUNPOU
 62
     0
 10
1717.4066417629599
 20
407.58889876454111
 30
0.0
 11
1724.0733084296271
 21
407.58889876454111
 31
0.0
 12
1720.7399750962941
 22
387.58889876454123
 32
0.0
 13
1720.7399750962941
 23
387.58889876454123
 33
0.0
  0
TEXT
  8
SUNPOU
  40
30
  5
1BD15
  62
0
  72
0
  71
0
 10
1633.74
 20
1034.49
 30
0.000000
  1
1400
  7
EXT08
  0
POINT
  5
1BCF8
  8
DEFPOINTS
 62
     0
 10
1454.363214879636
 20
1787.5888987645401
 30
0.0
  0
POINT
  5
1BCF9
  8
DEFPOINTS
 62
     0
 10
1616.8632148796351
 20
387.58889876454123
 30
0.0
  0
POINT
  5
1BCFA
  8
DEFPOINTS
 62
     0
 10
1720.7399750962941
 20
387.58889876454123
 30
0.0
  0
ENDBLK
  5
1B7FB
  8
0
  0
BLOCK
  8
0
  2
*U27
 70
     1
 10
0.0
 20
0.0
 30
0.0
  3
*U27
  1

  0
SOLID
  5
1BB85
  8
SUNPOU
 10
1448.5425803044591
 20
2353.9192129460771
 30
0.0
 11
1429.8085583508339
 21
2346.1637289152632
 31
0.0
 12
1445.014638351026
 22
2359.5758966050462
 32
0.0
 13
1445.014638351026
 23
2359.5758966050462
 33
0.0
  0
POLYLINE
  5
1BB86
  8
SUNPOU
 66
     1
 10
0.0
 20
0.0
 30
0.0
  0
VERTEX
  5
1BB87
  8
SUNPOU
 10
1446.778609327743
 20
2356.7475547755621
 30
0.0
  0
VERTEX
  5
1BB88
  8
SUNPOU
 10
1528.517222797858
 20
2407.7260257422781
 30
0.0
  0
SEQEND
  5
1BB89
  8
SUNPOU
  0
ENDBLK
  5
1BB8B
  8
0
  0
BLOCK
  8
0
  2
*U28
 70
     1
 10
0.0
 20
0.0
 30
0.0
  3
*U28
  1

  0
SOLID
  5
1BB8D
  8
SUNPOU
 10
787.2315338649845
 20
2173.2215916451751
 30
0.0
 11
768.72026269614776
 21
2164.9485057139818
 31
0.0
 12
783.54776160790379
 22
2178.778053325274
 32
0.0
 13
783.54776160790379
 23
2178.778053325274
 33
0.0
  0
POLYLINE
  5
1BB8E
  8
SUNPOU
 66
     1
 10
0.0
 20
0.0
 30
0.0
  0
VERTEX
  5
1BB8F
  8
SUNPOU
 10
785.38964773644409
 20
2175.9998224852238
 30
0.0
  0
VERTEX
  5
1BB90
  8
SUNPOU
 10
878.51218974222593
 20
2237.7373555592649
 30
0.0
  0
SEQEND
  5
1BB91
  8
SUNPOU
  0
ENDBLK
  5
1BB93
  8
0
  0
BLOCK
  8
0
  2
*U29
 70
     1
 10
0.0
 20
0.0
 30
0.0
  3
*U29
  1

  0
SOLID
  5
1BBC2
  8
SUNPOU
 10
2160.029281255765
 20
2093.401335608175
 30
0.0
 11
2147.722948157978
 21
2077.2872027802059
 31
0.0
 12
2154.137868819786
 22
2096.5215445681079
 32
0.0
 13
2154.137868819786
 23
2096.5215445681079
 33
0.0
  0
POLYLINE
  5
1BBC3
  8
SUNPOU
 66
     1
 10
0.0
 20
0.0
 30
0.0
  0
VERTEX
  5
1BBC4
  8
SUNPOU
 10
2157.0835750377751
 20
2094.9614400881419
 30
0.0
  0
VERTEX
  5
1BBC5
  8
SUNPOU
 10
2185.3769961024441
 20
2148.3835713803919
 30
0.0
  0
VERTEX
  5
1BBC6
  8
SUNPOU
 10
2391.0662789568469
 20
2148.3835713803919
 30
0.0
  0
SEQEND
  5
1BBC7
  8
SUNPOU
  0
ENDBLK
  5
1BBC9
  8
0
  0
BLOCK
  8
0
  2
*U30
 70
     1
 10
0.0
 20
0.0
 30
0.0
  3
*U30
  1

  0
SOLID
  5
1BBCB
  8
SUNPOU
 10
2045.407054553993
 20
2031.8842896966801
 30
0.0
 11
2049.6431739937002
 21
2012.0558655736279
 31
0.0
 12
2039.205193727041
 22
2029.4386064122859
 32
0.0
 13
2039.205193727041
 23
2029.4386064122859
 33
0.0
  0
POLYLINE
  5
1BBCC
  8
SUNPOU
 66
     1
 10
0.0
 20
0.0
 30
0.0
  0
VERTEX
  5
1BBCD
  8
SUNPOU
 10
2042.3061241405171
 20
2030.6614480544829
 30
0.0
  0
VERTEX
  5
1BBCE
  8
SUNPOU
 10
2007.920243499155
 20
2117.8585301585672
 30
0.0
  0
VERTEX
  5
1BBCF
  8
SUNPOU
 10
1860.2007199658569
 20
2117.8585301585672
 30
0.0
  0
SEQEND
  5
1BBD0
  8
SUNPOU
  0
ENDBLK
  5
1BBD2
  8
0
  0
BLOCK
  8
0
  2
*U31
 70
     1
 10
0.0
 20
0.0
 30
0.0
  3
*U31
  1

  0
SOLID
  5
1BBFC
  8
SUNPOU
 10
703.64269115791626
 20
1569.8629999366931
 30
0.0
 11
687.64738174554054
 21
1557.402615194902
 31
0.0
 12
698.73687397612571
 22
1574.3771335438539
 32
0.0
 13
698.73687397612571
 23
1574.3771335438539
 33
0.0
  0
POLYLINE
  5
1BBFD
  8
SUNPOU
 66
     1
 10
0.0
 20
0.0
 30
0.0
  0
VERTEX
  5
1BBFE
  8
SUNPOU
 10
701.18978256702087
 20
1572.1200667402729
 30
0.0
  0
VERTEX
  5
1BBFF
  8
SUNPOU
 10
753.49609912364997
 20
1628.9649120219169
 30
0.0
  0
SEQEND
  5
1BC00
  8
SUNPOU
  0
ENDBLK
  5
1BC02
  8
0
  0
BLOCK
  8
0
  2
*U32
 70
     1
 10
0.0
 20
0.0
 30
0.0
  3
*U32
  1

  0
SOLID
  5
1BC04
  8
SUNPOU
 10
1479.2767206686699
 20
2295.000088448005
 30
0.0
 11
1460.4551252960571
 21
2302.540556519732
 31
0.0
 12
1480.704894347467
 22
2301.5119825186762
 32
0.0
 13
1480.704894347467
 23
2301.5119825186762
 33
0.0
  0
POLYLINE
  5
1BC05
  8
SUNPOU
 66
     1
 10
0.0
 20
0.0
 30
0.0
  0
VERTEX
  5
1BC06
  8
SUNPOU
 10
1479.9908075080691
 20
2298.2560354833408
 30
0.0
  0
VERTEX
  5
1BC07
  8
SUNPOU
 10
1559.163789743081
 20
2280.8919985268421
 30
0.0
  0
SEQEND
  5
1BC08
  8
SUNPOU
  0
ENDBLK
  5
1BC0A
  8
0
  0
BLOCK
  8
0
  2
*U33
 70
     1
 10
0.0
 20
0.0
 30
0.0
  3
*U33
  1

  0
SOLID
  5
1BC0C
  8
SUNPOU
 10
703.64269115791626
 20
900.04928350633327
 30
0.0
 11
687.64738174554054
 21
887.58889876454168
 31
0.0
 12
698.73687397612571
 22
904.56341711349353
 32
0.0
 13
698.73687397612571
 23
904.56341711349353
 33
0.0
  0
POLYLINE
  5
1BC0D
  8
SUNPOU
 66
     1
 10
0.0
 20
0.0
 30
0.0
  0
VERTEX
  5
1BC0E
  8
SUNPOU
 10
701.18978256702087
 20
902.30635030991346
 30
0.0
  0
VERTEX
  5
1BC0F
  8
SUNPOU
 10
753.49609912364997
 20
959.1511955915571
 30
0.0
  0
SEQEND
  5
1BC10
  8
SUNPOU
  0
ENDBLK
  5
1BC12
  8
0
  0
BLOCK
  8
0
  2
*U34
 70
     1
 10
0.0
 20
0.0
 30
0.0
  3
*U34
  1

  0
SOLID
  5
1BC1D
  8
SUNPOU
 10
681.15187428380386
 20
661.29617587311645
 30
0.0
 11
687.64738174554077
 21
642.08889876454032
 31
0.0
 12
675.27359562490017
 22
658.15129360938693
 32
0.0
 13
675.27359562490017
 23
658.15129360938693
 33
0.0
  0
POLYLINE
  5
1BC1E
  8
SUNPOU
 66
     1
 10
0.0
 20
0.0
 30
0.0
  0
VERTEX
  5
1BC1F
  8
SUNPOU
 10
678.21273495435207
 20
659.72373474125163
 30
0.0
  0
VERTEX
  5
1BC20
  8
SUNPOU
 10
556.89700559416815
 20
886.48187799893014
 30
0.0
  0
SEQEND
  5
1BC21
  8
SUNPOU
  0
ENDBLK
  5
1BC23
  8
0
  0
BLOCK
  8
0
  2
*U35
 70
     1
 10
0.0
 20
0.0
 30
0.0
  3
*U35
  1

  0
SOLID
  5
1BC25
  8
SUNPOU
 10
2901.3918680063548
 20
1502.80310388612
 30
0.0
 11
2881.879462544654
 21
1497.291557441675
 31
0.0
 12
2898.549614810227
 22
1508.833530173999
 32
0.0
 13
2898.549614810227
 23
1508.833530173999
 33
0.0
  0
POLYLINE
  5
1BC26
  8
SUNPOU
 66
     1
 10
0.0
 20
0.0
 30
0.0
  0
VERTEX
  5
1BC27
  8
SUNPOU
 10
2899.9707414082909
 20
1505.8183170300599
 30
0.0
  0
VERTEX
  5
1BC28
  8
SUNPOU
 10
3019.415015896534
 20
1562.1146474579371
 30
0.0
  0
SEQEND
  5
1BC29
  8
SUNPOU
  0
ENDBLK
  5
1BC2B
  8
0
  0
BLOCK
  8
0
  2
*X36
 70
     1
 10
0.0
 20
0.0
 30
0.0
  3
*X36
  1

  0
LINE
  5
1BC63
  8
0
 62
     0
 10
2969.478662656893
 20
1610.4519590883749
 30
0.0
 11
2963.4234432084618
 21
1616.507178536807
 31
0.0
  0
LINE
  5
1BC64
  8
0
 62
     0
 10
2969.478662656893
 20
1592.4914468462371
 30
0.0
 11
2945.4629309663228
 21
1616.507178536807
 31
0.0
  0
LINE
  5
1BC65
  8
0
 62
     0
 10
2969.478662656893
 20
1574.5309346040981
 30
0.0
 11
2927.5024187241852
 21
1616.507178536807
 31
0.0
  0
LINE
  5
1BC66
  8
0
 62
     0
 10
2969.478662656893
 20
1556.57042236196
 30
0.0
 11
2909.5419064820462
 21
1616.507178536807
 31
0.0
  0
LINE
  5
1BC67
  8
0
 62
     0
 10
2969.478662656893
 20
1538.609910119822
 30
0.0
 11
2891.5813942399081
 21
1616.507178536807
 31
0.0
  0
LINE
  5
1BC68
  8
0
 62
     0
 10
2953.620881997771
 20
1536.507178536805
 30
0.0
 11
2873.6208819977692
 21
1616.507178536807
 31
0.0
  0
LINE
  5
1BC69
  8
0
 62
     0
 10
2935.6603697556329
 20
1536.507178536805
 30
0.0
 11
2855.6603697556311
 21
1616.507178536807
 31
0.0
  0
LINE
  5
1BC6A
  8
0
 62
     0
 10
2917.6998575134949
 20
1536.507178536805
 30
0.0
 11
2837.699857513493
 21
1616.507178536807
 31
0.0
  0
LINE
  5
1BC6B
  8
0
 62
     0
 10
2899.7393452713568
 20
1536.507178536805
 30
0.0
 11
2819.739345271355
 21
1616.507178536807
 31
0.0
  0
LINE
  5
1BC6C
  8
0
 62
     0
 10
2881.7788330292178
 20
1536.507178536805
 30
0.0
 11
2801.778833029216
 21
1616.507178536807
 31
0.0
  0
LINE
  5
1BC6D
  8
0
 62
     0
 10
2863.8183207870802
 20
1536.507178536805
 30
0.0
 11
2794.4786626568912
 21
1605.8468366669931
 31
0.0
  0
LINE
  5
1BC6E
  8
0
 62
     0
 10
2845.8578085449421
 20
1536.507178536805
 30
0.0
 11
2794.4786626568921
 21
1587.886324424855
 31
0.0
  0
LINE
  5
1BC6F
  8
0
 62
     0
 10
2827.8972963028032
 20
1536.507178536805
 30
0.0
 11
2794.4786626568921
 21
1569.9258121827161
 31
0.0
  0
LINE
  5
1BC70
  8
0
 62
     0
 10
2809.9367840606651
 20
1536.507178536805
 30
0.0
 11
2794.4786626568921
 21
1551.9652999405771
 31
0.0
  0
LINE
  5
1BC71
  8
0
 62
     0
 10
2955.3876456657322
 20
1536.507178536805
 30
0.0
 11
2969.478662656893
 21
1550.598195527966
 31
0.0
  0
LINE
  5
1BC72
  8
0
 62
     0
 10
2937.4271334235941
 20
1536.507178536805
 30
0.0
 11
2969.478662656893
 21
1568.558707770105
 31
0.0
  0
LINE
  5
1BC73
  8
0
 62
     0
 10
2919.466621181456
 20
1536.507178536805
 30
0.0
 11
2969.478662656893
 21
1586.5192200122431
 31
0.0
  0
LINE
  5
1BC74
  8
0
 62
     0
 10
2901.5061089393171
 20
1536.507178536805
 30
0.0
 11
2969.478662656893
 21
1604.4797322543809
 31
0.0
  0
LINE
  5
1BC75
  8
0
 62
     0
 10
2883.5455966971781
 20
1536.507178536805
 30
0.0
 11
2963.5455966971799
 21
1616.507178536807
 31
0.0
  0
LINE
  5
1BC76
  8
0
 62
     0
 10
2865.58508445504
 20
1536.507178536805
 30
0.0
 11
2945.5850844550419
 21
1616.507178536807
 31
0.0
  0
LINE
  5
1BC77
  8
0
 62
     0
 10
2847.624572212902
 20
1536.507178536805
 30
0.0
 11
2927.6245722129038
 21
1616.507178536807
 31
0.0
  0
LINE
  5
1BC78
  8
0
 62
     0
 10
2829.6640599707639
 20
1536.507178536805
 30
0.0
 11
2909.6640599707662
 21
1616.507178536807
 31
0.0
  0
LINE
  5
1BC79
  8
0
 62
     0
 10
2811.7035477286258
 20
1536.507178536805
 30
0.0
 11
2891.7035477286281
 21
1616.507178536807
 31
0.0
  0
LINE
  5
1BC7A
  8
0
 62
     0
 10
2794.478662656893
 20
1537.2428057072109
 30
0.0
 11
2873.7430354864891
 21
1616.507178536807
 31
0.0
  0
LINE
  5
1BC7B
  8
0
 62
     0
 10
2794.478662656893
 20
1555.203317949349
 30
0.0
 11
2855.7825232443502
 21
1616.507178536807
 31
0.0
  0
LINE
  5
1BC7C
  8
0
 62
     0
 10
2794.4786626568921
 20
1573.163830191487
 30
0.0
 11
2837.822011002213
 21
1616.507178536807
 31
0.0
  0
LINE
  5
1BC7D
  8
0
 62
     0
 10
2794.4786626568921
 20
1591.1243424336251
 30
0.0
 11
2819.861498760074
 21
1616.507178536807
 31
0.0
  0
LINE
  5
1BC7E
  8
0
 62
     0
 10
2794.4786626568912
 20
1609.0848546757629
 30
0.0
 11
2801.9009865179351
 21
1616.507178536807
 31
0.0
  0
ENDBLK
  5
1BC80
  8
0
  0
BLOCK
  8
0
  2
*X37
 70
     1
 10
0.0
 20
0.0
 30
0.0
  3
*X37
  1

  0
LINE
  5
1BC82
  8
0
 62
     0
 10
2217.3293558282348
 20
1610.4519590883749
 30
0.0
 11
2211.2741363798032
 21
1616.507178536807
 31
0.0
  0
LINE
  5
1BC83
  8
0
 62
     0
 10
2217.3293558282348
 20
1592.4914468462371
 30
0.0
 11
2193.3136241376642
 21
1616.507178536807
 31
0.0
  0
LINE
  5
1BC84
  8
0
 62
     0
 10
2217.3293558282348
 20
1574.5309346040981
 30
0.0
 11
2175.3531118955261
 21
1616.507178536807
 31
0.0
  0
LINE
  5
1BC85
  8
0
 62
     0
 10
2217.3293558282348
 20
1556.57042236196
 30
0.0
 11
2157.3925996533881
 21
1616.507178536807
 31
0.0
  0
LINE
  5
1BC86
  8
0
 62
     0
 10
2217.3293558282348
 20
1538.609910119822
 30
0.0
 11
2139.43208741125
 21
1616.507178536807
 31
0.0
  0
LINE
  5
1BC87
  8
0
 62
     0
 10
2201.4715751691128
 20
1536.507178536805
 30
0.0
 11
2121.471575169111
 21
1616.507178536807
 31
0.0
  0
LINE
  5
1BC88
  8
0
 62
     0
 10
2183.5110629269748
 20
1536.507178536805
 30
0.0
 11
2103.511062926973
 21
1616.507178536807
 31
0.0
  0
LINE
  5
1BC89
  8
0
 62
     0
 10
2165.5505506848372
 20
1536.507178536805
 30
0.0
 11
2085.5505506848349
 21
1616.507178536807
 31
0.0
  0
LINE
  5
1BC8A
  8
0
 62
     0
 10
2147.5900384426982
 20
1536.507178536805
 30
0.0
 11
2067.5900384426968
 21
1616.507178536807
 31
0.0
  0
LINE
  5
1BC8B
  8
0
 62
     0
 10
2129.6295262005601
 20
1536.507178536805
 30
0.0
 11
2049.6295262005578
 21
1616.507178536807
 31
0.0
  0
LINE
  5
1BC8C
  8
0
 62
     0
 10
2111.6690139584221
 20
1536.507178536805
 30
0.0
 11
2042.329355828233
 21
1605.8468366669931
 31
0.0
  0
LINE
  5
1BC8D
  8
0
 62
     0
 10
2093.7085017162831
 20
1536.507178536805
 30
0.0
 11
2042.3293558282339
 21
1587.886324424855
 31
0.0
  0
LINE
  5
1BC8E
  8
0
 62
     0
 10
2075.747989474145
 20
1536.507178536805
 30
0.0
 11
2042.3293558282339
 21
1569.9258121827161
 31
0.0
  0
LINE
  5
1BC8F
  8
0
 62
     0
 10
2057.7874772320069
 20
1536.507178536805
 30
0.0
 11
2042.3293558282339
 21
1551.9652999405771
 31
0.0
  0
LINE
  5
1BC90
  8
0
 62
     0
 10
2203.238338837074
 20
1536.507178536805
 30
0.0
 11
2217.3293558282348
 21
1550.598195527966
 31
0.0
  0
LINE
  5
1BC91
  8
0
 62
     0
 10
2185.277826594935
 20
1536.507178536805
 30
0.0
 11
2217.3293558282348
 21
1568.558707770105
 31
0.0
  0
LINE
  5
1BC92
  8
0
 62
     0
 10
2167.317314352797
 20
1536.507178536805
 30
0.0
 11
2217.3293558282348
 21
1586.5192200122431
 31
0.0
  0
LINE
  5
1BC93
  8
0
 62
     0
 10
2149.3568021106589
 20
1536.507178536805
 30
0.0
 11
2217.3293558282348
 21
1604.4797322543809
 31
0.0
  0
LINE
  5
1BC94
  8
0
 62
     0
 10
2131.3962898685199
 20
1536.507178536805
 30
0.0
 11
2211.3962898685222
 21
1616.507178536807
 31
0.0
  0
LINE
  5
1BC95
  8
0
 62
     0
 10
2113.4357776263819
 20
1536.507178536805
 30
0.0
 11
2193.4357776263842
 21
1616.507178536807
 31
0.0
  0
LINE
  5
1BC96
  8
0
 62
     0
 10
2095.4752653842438
 20
1536.507178536805
 30
0.0
 11
2175.4752653842461
 21
1616.507178536807
 31
0.0
  0
LINE
  5
1BC97
  8
0
 62
     0
 10
2077.5147531421062
 20
1536.507178536805
 30
0.0
 11
2157.514753142108
 21
1616.507178536807
 31
0.0
  0
LINE
  5
1BC98
  8
0
 62
     0
 10
2059.5542408999672
 20
1536.507178536805
 30
0.0
 11
2139.554240899969
 21
1616.507178536807
 31
0.0
  0
LINE
  5
1BC99
  8
0
 62
     0
 10
2042.3293558282351
 20
1537.2428057072109
 30
0.0
 11
2121.593728657831
 21
1616.507178536807
 31
0.0
  0
LINE
  5
1BC9A
  8
0
 62
     0
 10
2042.3293558282339
 20
1555.203317949349
 30
0.0
 11
2103.633216415692
 21
1616.507178536807
 31
0.0
  0
LINE
  5
1BC9B
  8
0
 62
     0
 10
2042.3293558282339
 20
1573.163830191487
 30
0.0
 11
2085.6727041735548
 21
1616.507178536807
 31
0.0
  0
LINE
  5
1BC9C
  8
0
 62
     0
 10
2042.3293558282339
 20
1591.1243424336251
 30
0.0
 11
2067.7121919314159
 21
1616.507178536807
 31
0.0
  0
LINE
  5
1BC9D
  8
0
 62
     0
 10
2042.329355828233
 20
1609.0848546757629
 30
0.0
 11
2049.7516796892769
 21
1616.507178536807
 31
0.0
  0
ENDBLK
  5
1BC9F
  8
0
  0
BLOCK
  8
0
  2
*X38
 70
     1
 10
0.0
 20
0.0
 30
0.0
  3
*X38
  1

  0
LINE
  5
1BCA1
  8
0
 62
     0
 10
1460.6132148796339
 20
2320.0746120904791
 30
0.0
 11
1453.0989282055709
 21
2327.5888987645421
 31
0.0
  0
LINE
  5
1BCA2
  8
0
 62
     0
 10
1460.6132148796351
 20
2311.0943559694101
 30
0.0
 11
1444.1186720845019
 21
2327.5888987645421
 31
0.0
  0
LINE
  5
1BCA3
  8
0
 62
     0
 10
1460.6132148796339
 20
2302.1140998483411
 30
0.0
 11
1435.1384159634331
 21
2327.5888987645421
 31
0.0
  0
LINE
  5
1BCA4
  8
0
 62
     0
 10
1460.6132148796339
 20
2293.1338437272711
 30
0.0
 11
1426.1581598423641
 21
2327.5888987645421
 31
0.0
  0
LINE
  5
1BCA5
  8
0
 62
     0
 10
1457.1779037212959
 20
2287.5888987645412
 30
0.0
 11
1417.177903721295
 21
2327.5888987645421
 31
0.0
  0
LINE
  5
1BCA6
  8
0
 62
     0
 10
1448.197647600226
 20
2287.5888987645412
 30
0.0
 11
1408.1976476002251
 21
2327.5888987645421
 31
0.0
  0
LINE
  5
1BCA7
  8
0
 62
     0
 10
1439.217391479157
 20
2287.5888987645412
 30
0.0
 11
1399.217391479156
 21
2327.5888987645421
 31
0.0
  0
LINE
  5
1BCA8
  8
0
 62
     0
 10
1430.2371353580879
 20
2287.5888987645412
 30
0.0
 11
1390.237135358087
 21
2327.5888987645421
 31
0.0
  0
LINE
  5
1BCA9
  8
0
 62
     0
 10
1421.2568792370189
 20
2287.5888987645412
 30
0.0
 11
1381.256879237018
 21
2327.5888987645421
 31
0.0
  0
LINE
  5
1BCAA
  8
0
 62
     0
 10
1412.2766231159501
 20
2287.5888987645412
 30
0.0
 11
1373.1132148796339
 21
2326.7523070008569
 31
0.0
  0
LINE
  5
1BCAB
  8
0
 62
     0
 10
1403.2963669948799
 20
2287.5888987645412
 30
0.0
 11
1373.1132148796339
 21
2317.7720508797879
 31
0.0
  0
LINE
  5
1BCAC
  8
0
 62
     0
 10
1394.3161108738111
 20
2287.5888987645412
 30
0.0
 11
1373.1132148796339
 21
2308.791794758718
 31
0.0
  0
LINE
  5
1BCAD
  8
0
 62
     0
 10
1385.335854752743
 20
2287.5888987645412
 30
0.0
 11
1373.1132148796339
 21
2299.8115386376498
 31
0.0
  0
LINE
  5
1BCAE
  8
0
 62
     0
 10
1376.355598631673
 20
2287.5888987645412
 30
0.0
 11
1373.1132148796351
 21
2290.8312825165799
 31
0.0
  0
LINE
  5
1BCAF
  8
0
 62
     0
 10
1452.42507950511
 20
2287.5888987645412
 30
0.0
 11
1460.6132148796351
 21
2295.777034139066
 31
0.0
  0
LINE
  5
1BCB0
  8
0
 62
     0
 10
1443.444823384041
 20
2287.5888987645412
 30
0.0
 11
1460.6132148796339
 21
2304.7572902601351
 31
0.0
  0
LINE
  5
1BCB1
  8
0
 62
     0
 10
1434.464567262972
 20
2287.5888987645412
 30
0.0
 11
1460.6132148796339
 21
2313.7375463812041
 31
0.0
  0
LINE
  5
1BCB2
  8
0
 62
     0
 10
1425.4843111419029
 20
2287.5888987645412
 30
0.0
 11
1460.6132148796339
 21
2322.7178025022731
 31
0.0
  0
LINE
  5
1BCB3
  8
0
 62
     0
 10
1416.5040550208339
 20
2287.5888987645412
 30
0.0
 11
1456.5040550208339
 21
2327.5888987645421
 31
0.0
  0
LINE
  5
1BCB4
  8
0
 62
     0
 10
1407.523798899764
 20
2287.5888987645412
 30
0.0
 11
1447.5237988997651
 21
2327.5888987645421
 31
0.0
  0
LINE
  5
1BCB5
  8
0
 62
     0
 10
1398.5435427786949
 20
2287.5888987645412
 30
0.0
 11
1438.5435427786961
 21
2327.5888987645421
 31
0.0
  0
LINE
  5
1BCB6
  8
0
 62
     0
 10
1389.5632866576259
 20
2287.5888987645412
 30
0.0
 11
1429.563286657627
 21
2327.5888987645421
 31
0.0
  0
LINE
  5
1BCB7
  8
0
 62
     0
 10
1380.5830305365571
 20
2287.5888987645412
 30
0.0
 11
1420.583030536558
 21
2327.5888987645421
 31
0.0
  0
LINE
  5
1BCB8
  8
0
 62
     0
 10
1373.1132148796351
 20
2289.0993392286882
 30
0.0
 11
1411.602774415489
 21
2327.5888987645421
 31
0.0
  0
LINE
  5
1BCB9
  8
0
 62
     0
 10
1373.1132148796351
 20
2298.0795953497568
 30
0.0
 11
1402.6225182944199
 21
2327.5888987645421
 31
0.0
  0
LINE
  5
1BCBA
  8
0
 62
     0
 10
1373.1132148796351
 20
2307.0598514708258
 30
0.0
 11
1393.6422621733509
 21
2327.5888987645421
 31
0.0
  0
LINE
  5
1BCBB
  8
0
 62
     0
 10
1373.1132148796351
 20
2316.0401075918949
 30
0.0
 11
1384.662006052281
 21
2327.5888987645421
 31
0.0
  0
LINE
  5
1BCBC
  8
0
 62
     0
 10
1373.1132148796339
 20
2325.0203637129639
 30
0.0
 11
1375.6817499312119
 21
2327.5888987645421
 31
0.0
  0
ENDBLK
  5
1BCBE
  8
0
  0
BLOCK
  8
0
  2
*X39
 70
     1
 10
0.0
 20
0.0
 30
0.0
  3
*X39
  1

  0
LINE
  5
1BCC0
  8
0
 62
     0
 10
731.39738174554032
 20
2320.0746120904791
 30
0.0
 11
723.8830950714771
 21
2327.5888987645421
 31
0.0
  0
LINE
  5
1BCC1
  8
0
 62
     0
 10
731.39738174554054
 20
2311.0943559694101
 30
0.0
 11
714.90283895040795
 21
2327.5888987645421
 31
0.0
  0
LINE
  5
1BCC2
  8
0
 62
     0
 10
731.39738174554032
 20
2302.1140998483411
 30
0.0
 11
705.92258282933881
 21
2327.5888987645421
 31
0.0
  0
LINE
  5
1BCC3
  8
0
 62
     0
 10
731.39738174554032
 20
2293.1338437272711
 30
0.0
 11
696.94232670826955
 21
2327.5888987645421
 31
0.0
  0
LINE
  5
1BCC4
  8
0
 62
     0
 10
727.96207058720165
 20
2287.5888987645412
 30
0.0
 11
687.96207058720051
 21
2327.5888987645421
 31
0.0
  0
LINE
  5
1BCC5
  8
0
 62
     0
 10
718.98181446613216
 20
2287.5888987645412
 30
0.0
 11
678.98181446613125
 21
2327.5888987645421
 31
0.0
  0
LINE
  5
1BCC6
  8
0
 62
     0
 10
710.00155834506313
 20
2287.5888987645412
 30
0.0
 11
670.00155834506222
 21
2327.5888987645421
 31
0.0
  0
LINE
  5
1BCC7
  8
0
 62
     0
 10
701.02130222399398
 20
2287.5888987645412
 30
0.0
 11
661.02130222399296
 21
2327.5888987645421
 31
0.0
  0
LINE
  5
1BCC8
  8
0
 62
     0
 10
692.04104610292495
 20
2287.5888987645412
 30
0.0
 11
652.04104610292393
 21
2327.5888987645421
 31
0.0
  0
LINE
  5
1BCC9
  8
0
 62
     0
 10
683.06078998185569
 20
2287.5888987645412
 30
0.0
 11
643.89738174553963
 21
2326.7523070008569
 31
0.0
  0
LINE
  5
1BCCA
  8
0
 62
     0
 10
674.08053386078655
 20
2287.5888987645412
 30
0.0
 11
643.89738174553963
 21
2317.7720508797879
 31
0.0
  0
LINE
  5
1BCCB
  8
0
 62
     0
 10
665.10027773971751
 20
2287.5888987645412
 30
0.0
 11
643.89738174553975
 21
2308.791794758718
 31
0.0
  0
LINE
  5
1BCCC
  8
0
 62
     0
 10
656.12002161864848
 20
2287.5888987645412
 30
0.0
 11
643.89738174553997
 21
2299.8115386376498
 31
0.0
  0
LINE
  5
1BCCD
  8
0
 62
     0
 10
647.13976549757911
 20
2287.5888987645412
 30
0.0
 11
643.89738174553997
 21
2290.8312825165799
 31
0.0
  0
LINE
  5
1BCCE
  8
0
 62
     0
 10
723.20924637101587
 20
2287.5888987645412
 30
0.0
 11
731.39738174554088
 21
2295.777034139066
 31
0.0
  0
LINE
  5
1BCCF
  8
0
 62
     0
 10
714.22899024994683
 20
2287.5888987645412
 30
0.0
 11
731.39738174554043
 21
2304.7572902601351
 31
0.0
  0
LINE
  5
1BCD0
  8
0
 62
     0
 10
705.24873412887735
 20
2287.5888987645412
 30
0.0
 11
731.39738174554032
 21
2313.7375463812041
 31
0.0
  0
LINE
  5
1BCD1
  8
0
 62
     0
 10
696.26847800780843
 20
2287.5888987645412
 30
0.0
 11
731.39738174554032
 21
2322.7178025022731
 31
0.0
  0
LINE
  5
1BCD2
  8
0
 62
     0
 10
687.28822188673928
 20
2287.5888987645412
 30
0.0
 11
727.28822188674008
 21
2327.5888987645421
 31
0.0
  0
LINE
  5
1BCD3
  8
0
 62
     0
 10
678.30796576567013
 20
2287.5888987645412
 30
0.0
 11
718.30796576567104
 21
2327.5888987645421
 31
0.0
  0
LINE
  5
1BCD4
  8
0
 62
     0
 10
669.3277096446011
 20
2287.5888987645412
 30
0.0
 11
709.32770964460167
 21
2327.5888987645421
 31
0.0
  0
LINE
  5
1BCD5
  8
0
 62
     0
 10
660.3474535235315
 20
2287.5888987645412
 30
0.0
 11
700.34745352353275
 21
2327.5888987645421
 31
0.0
  0
LINE
  5
1BCD6
  8
0
 62
     0
 10
651.36719740246235
 20
2287.5888987645412
 30
0.0
 11
691.36719740246349
 21
2327.5888987645421
 31
0.0
  0
LINE
  5
1BCD7
  8
0
 62
     0
 10
643.89738174554054
 20
2289.0993392286882
 30
0.0
 11
682.38694128139446
 21
2327.5888987645421
 31
0.0
  0
LINE
  5
1BCD8
  8
0
 62
     0
 10
643.89738174554032
 20
2298.0795953497568
 30
0.0
 11
673.40668516032542
 21
2327.5888987645421
 31
0.0
  0
LINE
  5
1BCD9
  8
0
 62
     0
 10
643.89738174554032
 20
2307.0598514708258
 30
0.0
 11
664.42642903925594
 21
2327.5888987645421
 31
0.0
  0
LINE
  5
1BCDA
  8
0
 62
     0
 10
643.89738174554009
 20
2316.0401075918949
 30
0.0
 11
655.44617291818668
 21
2327.5888987645421
 31
0.0
  0
LINE
  5
1BCDB
  8
0
 62
     0
 10
643.89738174553997
 20
2325.0203637129639
 30
0.0
 11
646.46591679711764
 21
2327.5888987645421
 31
0.0
  0
ENDBLK
  5
1BCDD
  8
0
  0
BLOCK
  8
0
  2
*U40
 70
     1
 10
0.0
 20
0.0
 30
0.0
  3
*U40
  1

  0
SOLID
  5
1BCFC
  8
SUNPOU
 10
752.76959318058141
 20
2024.6384448638869
 30
0.0
 11
734.25832201174467
 21
2016.3653589326941
 31
0.0
 12
749.08582092350071
 22
2030.194906543986
 32
0.0
 13
749.08582092350071
 23
2030.194906543986
 33
0.0
  0
POLYLINE
  5
1BCFD
  8
SUNPOU
 66
     1
 10
0.0
 20
0.0
 30
0.0
  0
VERTEX
  5
1BCFE
  8
SUNPOU
 10
750.92770705204111
 20
2027.416675703937
 30
0.0
  0
VERTEX
  5
1BCFF
  8
SUNPOU
 10
844.05024905782295
 20
2089.1542087779771
 30
0.0
  0
SEQEND
  5
1BD00
  8
SUNPOU
  0
ENDBLK
  5
1BD02
  8
0
  0
ENDSEC
  0
SECTION
  2
ENTITIES
  0
TEXT
  5
43
  8
INFORMATION
 10
1.0
 20
2.0
 30
0.0
 40
0.8
  1
PLOTTER=SYSTEM
 41
0.8
  7
EXT08
  0
TEXT
  5
44
  8
INFORMATION
 10
1.0
 20
3.0
 30
0.0
 40
0.8
  1
PAPER=A3
 41
0.8
  7
EXT08
  0
TEXT
  5
178E9
  8
INFORMATION
 10
1.0
 20
1.0
 30
0.0
 40
0.8
  1
VERSION=3.0
  0
INSERT
  5
19380
  8
ZWAKU
  2
SYSTEMA3
 10
-0.7058929444392561
 20
37.540982692415128
 30
0.0
 41
10.0
 42
10.0
 43
10.0
  0
INSERT
  5
19381
  8
ZWAKU
  2
CALCOMP_TECHJET720A3
 10
-0.7058929444392561
 20
37.540982692415128
 30
0.0
 41
10.0
 42
10.0
 43
10.0
  0
LINE
  5
19382
  8
MOJI
 10
3663.0844272244772
 20
2465.4653333909719
 30
0.0
 11
2539.8840360922268
 21
2465.4653333909719
 31
0.0
  0
LINE
  5
19383
  8
MOJI
 10
3663.0844272244772
 20
2273.4653334389741
 30
0.0
 11
2539.8840360922268
 21
2273.4653334389741
 31
0.0
  0
LINE
  5
19384
  8
MOJI
 10
3663.0844272244772
 20
2177.4653334629761
 30
0.0
 11
2539.8840360922268
 21
2177.4653334629761
 31
0.0
  0
LINE
  5
19385
  8
MOJI
 10
3663.0844272244772
 20
2081.4653334869759
 30
0.0
 11
2539.8840360922268
 21
2081.4653334869759
 31
0.0
  0
LINE
  5
19386
  8
MOJI
 10
3663.0844272244772
 20
2129.4653334749751
 30
0.0
 11
2539.8840360922268
 21
2129.4653334749751
 31
0.0
  0
LINE
  5
19387
  8
MOJI
 10
3663.0844272244772
 20
2321.4653334269742
 30
0.0
 11
2539.8840360922268
 21
2321.4653334269728
 31
0.0
  0
LINE
  5
19388
  8
MOJI
 10
3663.0844272244772
 20
2369.4653334149721
 30
0.0
 11
2539.8840360922268
 21
2369.4653334149721
 31
0.0
  0
LINE
  5
19389
  8
MOJI
 10
3663.0844272244772
 20
2417.4653334029722
 30
0.0
 11
2539.8840360922268
 21
2417.4653334029731
 31
0.0
  0
LINE
  5
1938A
  8
MOJI
 10
3663.0844272244772
 20
2033.465333498975
 30
0.0
 11
2539.8840360922268
 21
2033.465333498975
 31
0.0
  0
TEXT
  5
1938B
  8
MOJI
 10
3060.073210921038
 20
2426.4653333969732
 30
0.0
 40
30.0
  1
材　　　質
 41
0.8
  7
EXT08
 72
     4
 11
3128.8732109210382
 21
2441.4653333969732
 31
0.0
  0
TEXT
  5
1938C
  8
MOJI
 10
2622.014451985955
 20
2426.4653333969732
 30
0.0
 40
30.0
  1
品　　名
 41
0.8
  7
EXT08
 72
     4
 11
2675.6144519859549
 21
2441.4653333969732
 31
0.0
  0
TEXT
  5
1938E
  8
MOJI
 10
2829.5431439008812
 20
2426.4653333969732
 30
0.0
 40
30.0
  1
数 量
 41
0.8
  7
EXT08
 72
     4
 11
2862.3431439008809
 21
2441.4653333969732
 31
0.0
  0
LINE
  5
1938F
  8
MOJI
 10
3322.5108894851501
 20
2465.465333390971
 30
0.0
 11
3322.510889485151
 21
2033.465333498975
 31
0.0
  0
LINE
  5
19390
  8
MOJI
 10
2910.3431438888788
 20
2465.465333390971
 30
0.0
 11
2910.3431438888779
 21
2033.465333498975
 31
0.0
  0
LINE
  5
19391
  8
MOJI
 10
2814.343143912879
 20
2465.465333390971
 30
0.0
 11
2814.3431439128781
 21
2033.465333498975
 31
0.0
  0
LINE
  5
19392
  8
MOJI
 10
2539.8840360922268
 20
2465.465333390971
 30
0.0
 11
2539.8840360922268
 21
2033.465333498975
 31
0.0
  0
TEXT
  5
19394
  8
MOJI
 10
2619.7858805573842
 20
2330.865333420973
 30
0.0
 40
30.0
  1
キャップ
 41
0.8
  7
EXT08
 72
     4
 11
2675.6144519859549
 21
2345.465333420972
 31
0.0
  0
TEXT
  5
1939C
  8
MOJI
 10
2556.4144519859551
 20
2234.4653334449749
 30
0.0
 40
30.0
  1
弾性サイン板（小）
 41
0.8
  7
EXT08
 72
     4
 11
2675.6144519859549
 21
2249.4653334449749
 31
0.0
  0
TEXT
  5
1939D
  8
MOJI
 10
2934.3431438828802
 20
2330.465333420972
 30
0.0
 40
30.0
  1
ポリエチレン樹脂
 41
0.8
  7
EXT08
 11
2934.3431438828802
 21
2345.465333420972
 31
0.0
 73
     2
  0
TEXT
  5
1939E
  8
MOJI
 10
2934.3431438828802
 20
2234.4653334449749
 30
0.0
 40
30.0
  1
CRゴム
 41
0.8
  7
EXT08
 11
2934.3431438828802
 21
2249.4653334449749
 31
0.0
 73
     2
  0
TEXT
  5
1939F
  8
MOJI
 10
2850.9145724723089
 20
2234.4653334449749
 30
0.0
 40
30.0
  1
2
 41
0.8
  7
EXT08
 72
     4
 11
2862.3431439008809
 21
2249.4653334449749
 31
0.0
  0
TEXT
  5
193A0
  8
MOJI
 10
2852.6288581865952
 20
2330.465333420972
 30
0.0
 40
30.0
  1
1
 41
0.8
  7
EXT08
 72
     4
 11
2862.3431439008809
 21
2345.465333420972
 31
0.0
  0
LINE
  5
193A1
  8
MOJI
 10
3663.0844272244772
 20
2465.465333390971
 30
0.0
 11
3663.0844272244781
 21
2033.465333498975
 31
0.0
  0
TEXT
  5
193A2
  8
MOJI
 10
3459.9976583548132
 20
2426.4653333969709
 30
0.0
 40
30.0
  1
備 考
 41
0.8
  7
EXT08
 72
     4
 11
3492.7976583548129
 21
2441.4653333969709
 31
0.0
  0
TEXT
  5
193A3
  8
MOJI
 10
3345.711944069099
 20
2042.4653334809759
 30
0.0
 40
30.0
  1
皿ドリルネジM4×35
 41
0.8
  7
EXT08
 72
     4
 11
3492.7976583548129
 21
2057.4653334809759
 31
0.0
  0
TEXT
  5
193A4
  8
MOJI
 10
3459.9976583548132
 20
2378.4653334089721
 30
0.0
 40
30.0
  1
茶 色
 41
0.8
  7
EXT08
 72
     4
 11
3492.7976583548129
 21
2393.4653334089721
 31
0.0
  0
TEXT
  5
193A5
  8
MOJI
 10
2606.8144519859552
 20
2378.4653334089721
 30
0.0
 40
30.0
  1
支　　　柱
 41
0.8
  7
EXT08
 72
     4
 11
2675.6144519859549
 21
2393.4653334089721
 31
0.0
  0
TEXT
  5
193A6
  8
MOJI
 10
2917.6675642437458
 20
2378.4653334089721
 30
0.0
 40
30.0
  1
ポリエチレン樹脂＋ガラス繊維
 41
0.8
  7
EXT08
 11
2917.6675642437458
 21
2393.4653334089721
 31
0.0
 73
     2
  0
TEXT
  5
193A7
  8
MOJI
 10
2852.6288581865952
 20
2378.4653334089721
 30
0.0
 40
30.0
  1
1
 41
0.8
  7
EXT08
 72
     4
 11
2862.3431439008809
 21
2393.4653334089721
 31
0.0
  0
TEXT
  5
193A8
  8
MOJI
 10
2606.8144519859552
 20
2282.4653334329741
 30
0.0
 40
30.0
  1
反　射　材
 41
0.8
  7
EXT08
 72
     4
 11
2675.6144519859549
 21
2297.4653334329741
 31
0.0
  0
TEXT
  5
193A9
  8
MOJI
 10
2934.3431438828802
 20
2282.4653334329741
 30
0.0
 40
30.0
  1
カプセルレンズ型反射シート
 41
0.8
  7
EXT08
 11
2934.3431438828802
 21
2297.4653334329741
 31
0.0
 73
     2
  0
TEXT
  5
193AA
  8
MOJI
 10
2852.6288581865952
 20
2282.4653334329741
 30
0.0
 40
30.0
  1
1
 41
0.8
  7
EXT08
 72
     4
 11
2862.3431439008809
 21
2297.4653334329741
 31
0.0
  0
TEXT
  5
193AB
  8
MOJI
 10
3458.3976583548128
 20
2282.4653334329741
 30
0.0
 40
30.0
  1
白 色
 41
0.8
  7
EXT08
 72
     4
 11
3492.7976583548129
 21
2297.4653334329741
 31
0.0
  0
TEXT
  5
193AC
  8
MOJI
 10
2606.8144519859552
 20
2138.4653334689779
 30
0.0
 40
30.0
  1
芯      材
 41
0.8
  7
EXT08
 72
     4
 11
2675.6144519859549
 21
2153.4653334689779
 31
0.0
  0
TEXT
  5
193AD
  8
MOJI
 10
2934.3431438828802
 20
2138.4653334689779
 30
0.0
 40
30.0
  1
A6063S-T5
 41
0.8
  7
EXT08
 11
2934.3431438828802
 21
2153.4653334689779
 31
0.0
 73
     2
  0
TEXT
  5
193AE
  8
MOJI
 10
2852.6288581865952
 20
2138.4653334689779
 30
0.0
 40
30.0
  1
1
 41
0.8
  7
EXT08
 72
     4
 11
2862.3431439008809
 21
2153.4653334689779
 31
0.0
  0
TEXT
  5
193AF
  8
MOJI
 10
2619.6144519859558
 20
2090.4653334809768
 30
0.0
 40
30.0
  1
ネカセ棒
 41
0.8
  7
EXT08
 72
     4
 11
2675.6144519859558
 21
2105.4653334809768
 31
0.0
  0
TEXT
  5
193B0
  8
MOJI
 10
2852.6288581865952
 20
2090.465333480975
 30
0.0
 40
30.0
  1
1
 41
0.8
  7
EXT08
 72
     4
 11
2862.3431439008809
 21
2105.465333480975
 31
0.0
  0
TEXT
  5
193B1
  8
MOJI
 10
2850.9145724723089
 20
2042.4653334929769
 30
0.0
 40
30.0
  1
8
 41
0.8
  7
EXT08
 72
     4
 11
2862.3431439008809
 21
2057.4653334929772
 31
0.0
  0
TEXT
  5
193B2
  8
MOJI
 10
3417.5976583548131
 20
2090.4653334809759
 30
0.0
 40
30.0
  1
φ9×150
 41
0.8
  7
EXT08
 72
     4
 11
3492.7976583548138
 21
2105.4653334809759
 31
0.0
  0
TEXT
  5
193B3
  8
MOJI
 10
3459.9976583548132
 20
2330.4653334209738
 30
0.0
 40
30.0
  1
茶 色
 41
0.8
  7
EXT08
 72
     4
 11
3492.7976583548129
 21
2345.4653334209752
 31
0.0
  0
TEXT
  5
193B4
  8
MOJI
 10
2932.8415782590441
 20
2043.1142718735091
 30
0.0
 40
30.0
  1
SUS410
 41
0.8
  7
EXT08
 11
2932.8415782590441
 21
2058.1142718735091
 31
0.0
 73
     2
  0
LINE
  5
193C8
  8
CENTER
 10
687.64738174554077
 20
2367.5888987645349
 30
0.0
 11
687.64738174554077
 21
277.58889876454123
 31
0.0
  0
LINE
  5
193C9
  8
SJC2
 10
612.64738174554077
 20
642.08889876454157
 30
0.0
 11
612.64738174554077
 21
633.08889876454157
 31
0.0
  0
LINE
  5
193CA
  8
SJC2
 10
762.64738174554077
 20
642.08889876454123
 30
0.0
 11
762.64738174554077
 21
633.08889876454123
 31
0.0
  0
LINE
  5
193CB
  8
SJC
 10
650.14738174554066
 20
487.58889876454111
 30
0.0
 11
650.14738174554066
 21
387.58889876454123
 31
0.0
  0
LINE
  5
193CC
  8
SJC
 10
725.14738174554077
 20
487.58889876454128
 30
0.0
 11
725.14738174554077
 21
387.58889876454128
 31
0.0
  0
LINE
  5
193D1
  8
SJC
 10
731.39738174554077
 20
1667.588898764541
 30
0.0
 11
731.39738174554077
 21
487.58889876454123
 31
0.0
1001
ACAD
1000
ASC_BOUNDS
1002
{
1070
    19
1005
0
1002
}
  0
LINE
  5
193D2
  8
SJC
 10
643.89738174554054
 20
1667.588898764541
 30
0.0
 11
643.89738174554077
 21
487.58889876454123
 31
0.0
1001
ACAD
1000
ASC_BOUNDS
1002
{
1070
    19
1005
0
1002
}
  0
LINE
  5
193D3
  8
SJC
 10
731.39738174554077
 20
787.58889876454123
 30
0.0
 11
976.1518485949581
 21
787.58889876454123
 31
0.0
1001
ACAD
1000
ASC_BOUNDS
1002
{
1070
    19
1005
0
1002
}
  0
LINE
  5
193D5
  8
SJC
 10
487.64738174554083
 20
387.58889876454123
 30
0.0
 11
887.64738174554066
 21
387.58889876454123
 31
0.0
1001
ACAD
1000
ASC_BOUNDS
1002
{
1070
    19
1005
0
1005
0
1005
0
1002
}
  0
LINE
  5
193D6
  8
SJC
 10
460.11334604726471
 20
787.58889876454123
 30
0.0
 11
643.89738174554077
 21
787.58889876454123
 31
0.0
1001
ACAD
1000
ASC_BOUNDS
1002
{
1070
    19
1005
0
1002
}
  0
LINE
  5
193D7
  8
SJC
 10
643.89738174554077
 20
2327.5888987645421
 30
0.0
 11
731.39738174554032
 21
2327.5888987645421
 31
0.0
  0
LINE
  5
193D8
  8
SJC
 10
887.64738174554066
 20
387.58889876454123
 30
0.0
 11
887.64738174554066
 21
287.58889876454123
 31
0.0
  0
LINE
  5
193D9
  8
SJC
 10
487.64738174554083
 20
387.58889876454123
 30
0.0
 11
487.64738174554083
 21
287.58889876454123
 31
0.0
  0
ARC
  5
193E1
  8
SJC
 10
687.64738174554077
 20
2289.7373362645212
 30
0.0
 40
57.851562500013678
 50
40.865657358811269
 51
139.13434264118931
  0
INSERT
  5
193E2
  8
SJC
  2
GL
 10
892.54864438850927
 20
787.30926014679335
 30
0.0
 41
10.0
 42
10.0
 43
10.0
  0
LINE
  5
193E3
  8
SJC
 10
837.64738174554066
 20
787.58889876454123
 30
0.0
 11
837.64738174554066
 21
387.58889876454123
 31
0.0
1001
ACAD
1000
ASC_BOUNDS
1002
{
1070
    19
1005
0
1002
}
  0
LINE
  5
193E4
  8
SJC
 10
537.64738174554077
 20
787.58889876454123
 30
0.0
 11
537.64738174554077
 21
387.58889876454123
 31
0.0
1001
ACAD
1000
ASC_BOUNDS
1002
{
1070
    19
1005
0
1002
}
  0
TEXT
  5
193E5
  8
MOJI2
 10
530.21344309199765
 20
102.1435321472127
 30
0.0
 40
40.0
  1
設置図 S=1/10
 41
0.8
  7
EXT08
 72
     1
 11
692.65153833009288
 21
102.1435321472127
 31
0.0
 73
     1
  0
LINE
  5
193E6
  8
MOJI2
 10
514.97333899584191
 20
87.143532147212696
 30
0.0
 11
870.3257199482232
 21
87.143532147212696
 31
0.0
  0
LINE
  5
193E7
  8
HATCH
 10
537.64738174554077
 20
782.64907618853795
 30
0.0
 11
542.58720432154314
 21
787.58889876454123
 31
0.0
  0
LINE
  5
193E8
  8
HATCH
 10
537.64738174554077
 20
676.5830590105561
 30
0.0
 11
643.09738174554059
 21
782.03305901055592
 31
0.0
  0
LINE
  5
193E9
  8
HATCH
 10
537.64738174554077
 20
570.5170418325738
 30
0.0
 11
643.89738174554077
 21
676.76704183257425
 31
0.0
  0
LINE
  5
193EA
  8
HATCH
 10
732.19738174554095
 20
765.06704183257443
 30
0.0
 11
754.71923867750775
 21
787.58889876454123
 31
0.0
  0
LINE
  5
193EB
  8
HATCH
 10
537.64738174554077
 20
464.45102465459189
 30
0.0
 11
643.89738174554077
 21
570.7010246545924
 31
0.0
  0
LINE
  5
193EC
  8
HATCH
 10
731.39738174554077
 20
658.20102465459252
 30
0.0
 11
837.64738174554066
 21
764.45102465459138
 31
0.0
  0
LINE
  5
193ED
  8
HATCH
 10
566.85127303347235
 20
387.58889876454123
 30
0.0
 11
650.14738174554066
 21
470.88500747660993
 31
0.0
  0
LINE
  5
193EE
  8
HATCH
 10
731.39738174554077
 20
552.13500747661021
 30
0.0
 11
837.64738174554066
 21
658.38500747660964
 31
0.0
  0
LINE
  5
193EF
  8
HATCH
 10
725.14738174554077
 20
439.8189902986278
 30
0.0
 11
837.64738174554066
 21
552.3189902986278
 31
0.0
  0
LINE
  5
193F0
  8
HATCH
 10
778.98330738943605
 20
387.58889876454123
 30
0.0
 11
837.64738174554066
 21
446.25297312064549
 31
0.0
  0
LINE
  5
193F1
  8
HATCH
 10
537.64738174554077
 20
764.97140668853808
 30
0.0
 11
560.26487382154301
 21
787.58889876454123
 31
0.0
  0
LINE
  5
193F2
  8
HATCH
 10
537.64738174554077
 20
658.90538951055623
 30
0.0
 11
643.09738174554059
 21
764.35538951055605
 31
0.0
  0
LINE
  5
193F3
  8
HATCH
 10
537.64738174554077
 20
552.83937233257427
 30
0.0
 11
617.89690817750852
 21
633.08889876454157
 31
0.0
  0
LINE
  5
193F4
  8
HATCH
 10
732.19738174554095
 20
747.389372332574
 30
0.0
 11
772.3969081775075
 21
787.58889876454123
 31
0.0
  0
LINE
  5
193F5
  8
HATCH
 10
537.64738174554077
 20
446.77335515459202
 30
0.0
 11
643.89738174554077
 21
553.02335515459197
 31
0.0
  0
LINE
  5
193F6
  8
HATCH
 10
732.96292535549014
 20
642.08889876454134
 30
0.0
 11
837.64738174554066
 21
746.77335515459163
 31
0.0
  0
LINE
  5
193F7
  8
HATCH
 10
584.52894253347222
 20
387.58889876454123
 30
0.0
 11
650.14738174554066
 21
453.20733797661012
 31
0.0
  0
LINE
  5
193F8
  8
HATCH
 10
731.39738174554077
 20
534.45733797660989
 30
0.0
 11
837.64738174554066
 21
640.70733797660978
 31
0.0
  0
LINE
  5
193F9
  8
HATCH
 10
725.14738174554077
 20
422.14132079862787
 30
0.0
 11
837.64738174554066
 21
534.64132079862736
 31
0.0
  0
LINE
  5
193FA
  8
HATCH
 10
796.6609768894358
 20
387.58889876454123
 30
0.0
 11
837.64738174554032
 21
428.57530362064512
 31
0.0
  0
LINE
  5
193FB
  8
HATCH
 10
537.64738174554077
 20
747.29373708853825
 30
0.0
 11
577.94254342154363
 21
787.58889876454123
 31
0.0
  0
LINE
  5
193FC
  8
HATCH
 10
537.64738174554077
 20
641.22771991055652
 30
0.0
 11
643.09738174554059
 21
746.67771991055588
 31
0.0
  0
LINE
  5
193FD
  8
HATCH
 10
537.64738174554077
 20
535.16170273257364
 30
0.0
 11
635.57457777750813
 21
633.08889876454145
 31
0.0
  0
LINE
  5
193FE
  8
HATCH
 10
732.19738174554095
 20
729.71170273257394
 30
0.0
 11
790.07457777750767
 21
787.58889876454123
 31
0.0
  0
LINE
  5
193FF
  8
HATCH
 10
537.64738174554077
 20
429.0956855545918
 30
0.0
 11
643.89738174554077
 21
535.34568555459225
 31
0.0
  0
LINE
  5
19400
  8
HATCH
 10
731.39738174554077
 20
622.84568555459214
 30
0.0
 11
741.64059495549452
 21
633.08889876454123
 31
0.0
  0
LINE
  5
19401
  8
HATCH
 10
602.20661213347194
 20
387.58889876454123
 30
0.0
 11
650.14738174554077
 21
435.52966837660898
 31
0.0
  0
LINE
  5
19402
  8
HATCH
 10
731.39738174554077
 20
516.77966837660995
 30
0.0
 11
837.64738174554066
 21
623.02966837660961
 31
0.0
  0
LINE
  5
19403
  8
HATCH
 10
725.14738174554077
 20
404.4636511986277
 30
0.0
 11
837.64738174554066
 21
516.9636511986273
 31
0.0
  0
LINE
  5
19404
  8
HATCH
 10
814.33864648943666
 20
387.58889876454123
 30
0.0
 11
837.64738174554032
 21
410.8976340206454
 31
0.0
  0
LINE
  5
19405
  8
HATCH
 10
537.64738174554077
 20
729.6160675885385
 30
0.0
 11
595.6202129215435
 21
787.58889876454123
 31
0.0
  0
LINE
  5
19406
  8
HATCH
 10
537.64738174554077
 20
623.55005041055608
 30
0.0
 11
643.09738174554059
 21
729.0000504105559
 31
0.0
  0
LINE
  5
19407
  8
HATCH
 10
537.64738174554077
 20
517.48403323257389
 30
0.0
 11
643.25224727750799
 21
623.08889876454145
 31
0.0
  0
LINE
  5
19408
  8
HATCH
 10
732.19738174554095
 20
712.03403323257396
 30
0.0
 11
807.7522472775081
 21
787.58889876454123
 31
0.0
  0
LINE
  5
19409
  8
HATCH
 10
537.64738174554077
 20
411.41801605459199
 30
0.0
 11
643.89738174554077
 21
517.66801605459204
 31
0.0
  0
LINE
  5
1940A
  8
HATCH
 10
731.39738174554077
 20
605.16801605459204
 30
0.0
 11
759.31826445548973
 21
633.08889876454123
 31
0.0
  0
LINE
  5
1940B
  8
HATCH
 10
619.8842816334718
 20
387.58889876454123
 30
0.0
 11
650.14738174554077
 21
417.85199887661008
 31
0.0
  0
LINE
  5
1940C
  8
HATCH
 10
731.39738174554077
 20
499.1019988766102
 30
0.0
 11
837.64738174554066
 21
605.35199887660917
 31
0.0
  0
LINE
  5
1940D
  8
HATCH
 10
725.95029881145365
 20
387.58889876454123
 30
0.0
 11
837.64738174554032
 21
499.28598169862738
 31
0.0
  0
LINE
  5
1940E
  8
HATCH
 10
832.01631598943629
 20
387.58889876454123
 30
0.0
 11
837.64738174553975
 21
393.21996452064519
 31
0.0
  0
INSERT
  5
19411
  8
0
  2
*U27
 10
0.0
 20
0.0
 30
0.0
1001
ACAD
1000
DSTYLE
1002
{
1070
   140
1040
30.0
1070
   144
1040
0.5
1070
   147
1040
15.0
1070
    42
1040
10.0
1070
    44
1040
10.0
1070
    43
1040
60.0
1070
    41
1040
20.0
1002
}
  0
INSERT
  5
19414
  8
0
  2
*U28
 10
0.0
 20
0.0
 30
0.0
1001
ACAD
1000
DSTYLE
1002
{
1070
   140
1040
30.0
1070
   144
1040
0.5
1070
   147
1040
15.0
1070
    42
1040
10.0
1070
    44
1040
10.0
1070
    43
1040
60.0
1070
    41
1040
20.0
1002
}
  0
LINE
  5
19419
  8
SJC
 10
619.64738174553975
 20
2282.5888987645399
 30
0.0
 11
755.6473817455435
 21
2282.5888987645412
 31
0.0
  0
CIRCLE
  5
1941A
  8
SJC
 10
687.64738174554077
 20
2597.2788794709109
 30
0.0
 40
43.75
  0
LINE
  5
1941B
  8
SJC
 10
643.89738174553975
 20
2327.5888987645421
 30
0.0
 11
643.89738174553975
 21
2287.5888987645412
 31
0.0
  0
LINE
  5
1941C
  8
SJC
 10
731.39738174554032
 20
2327.5888987645421
 30
0.0
 11
731.39738174554032
 21
2287.5888987645412
 31
0.0
  0
LINE
  5
1941E
  8
HATCH
 10
643.89738174554077
 20
2327.5888987645421
 30
0.0
 11
731.39738174553975
 21
2327.5888987645421
 31
0.0
  0
LINE
  5
1941F
  8
HATCH
 10
731.39738174553975
 20
2327.5888987645421
 30
0.0
 11
731.39738174554032
 21
2287.5888987645412
 31
0.0
  0
LINE
  5
19420
  8
HATCH
 10
731.39738174554032
 20
2287.5888987645412
 30
0.0
 11
643.89738174553975
 21
2287.5888987645412
 31
0.0
  0
LINE
  5
19421
  8
HATCH
 10
643.89738174553975
 20
2287.5888987645412
 30
0.0
 11
643.89738174553895
 21
2327.5888987645412
 31
0.0
  0
LINE
  5
19422
  8
SJC
 10
619.64738174554168
 20
1982.588898764541
 30
0.0
 11
755.64738174554157
 21
1982.588898764541
 31
0.0
  0
LINE
  5
19423
  8
SJC
 10
612.64738174553975
 20
2275.5888987645412
 30
0.0
 11
612.64738174554145
 21
1989.588898764541
 31
0.0
  0
LINE
  5
19424
  8
SJC
 10
762.64738174554338
 20
2275.5888987645412
 30
0.0
 11
762.64738174554168
 21
1989.588898764541
 31
0.0
  0
LINE
  5
19425
  8
HASEN
 10
650.14738174554077
 20
1787.588898764541
 30
0.0
 11
725.14738174554077
 21
1787.5888987645401
 31
0.0
  0
LINE
  5
19426
  8
SJC
 10
607.64738174553975
 20
2275.5888987645412
 30
0.0
 11
607.64738174554088
 21
1989.588898764541
 31
0.0
  0
ARC
  5
19427
  8
SJC
 10
619.64738174553975
 20
2275.5888987645412
 30
0.0
 40
12.0
 50
90.0
 51
180.0
  0
ARC
  5
19428
  8
SJC
 10
619.64738174553975
 20
2275.5888987645412
 30
0.0
 40
7.0
 50
90.0
 51
180.0
  0
LINE
  5
19429
  8
SJC
 10
767.6473817455435
 20
2275.5888987645412
 30
0.0
 11
767.64738174554225
 21
1989.588898764541
 31
0.0
  0
ARC
  5
1942A
  8
SJC
 10
755.64738174554157
 20
1989.588898764541
 30
0.0
 40
12.0
 50
270.0
 51
0.0
  0
ARC
  5
1942B
  8
SJC
 10
755.64738174554157
 20
1989.588898764541
 30
0.0
 40
7.0
 50
270.0
 51
0.0
  0
ARC
  5
1942C
  8
SJC
 10
755.6473817455435
 20
2275.5888987645412
 30
0.0
 40
12.0
 50
0.0
 51
90.0
  0
ARC
  5
1942D
  8
SJC
 10
755.6473817455435
 20
2275.5888987645412
 30
0.0
 40
7.0
 50
0.0
 51
90.0
  0
ARC
  5
1942E
  8
SJC
 10
619.64738174554168
 20
1989.588898764541
 30
0.0
 40
12.0
 50
180.0
 51
270.0
  0
ARC
  5
1942F
  8
SJC
 10
619.64738174554168
 20
1989.588898764541
 30
0.0
 40
7.0
 50
180.0
 51
270.0
  0
LINE
  5
19430
  8
SJC
 10
755.6473817455435
 20
2287.5888987645412
 30
0.0
 11
619.64738174553975
 21
2287.5888987645412
 31
0.0
  0
LINE
  5
19431
  8
SJC
 10
755.64738174554157
 20
1977.588898764541
 30
0.0
 11
687.64738174554077
 21
1977.588898764541
 31
0.0
  0
LINE
  5
19432
  8
SJC
 10
687.64738174554077
 20
1977.588898764541
 30
0.0
 11
619.64738174554168
 21
1977.588898764541
 31
0.0
  0
DIMENSION
  5
19433
  8
SUNPOU
  2
*D8
 10
387.68044119141251
 20
2287.5888987645412
 30
0.0
 11
360.68044119141211
 21
1537.588898764541
 31
0.0
 70
     0
 13
460.11334604726437
 23
787.58889876454123
 33
0.0
 14
619.64738174553963
 24
2287.5888987645412
 34
0.0
 50
90.0
1001
ACAD
1000
DSTYLE
1002
{
1070
   287
1070
     5
1070
    40
1040
10.0
1070
    41
1040
2.0
1070
    42
1040
1.0
1070
    43
1040
6.0
1070
    44
1040
1.0
1070
    73
1070
     0
1070
    74
1070
     0
1070
    77
1070
     1
1070
    78
1070
     8
1070
   140
1040
3.0
1070
   147
1040
1.1999999999999991
1070
   172
1070
     1
1070
   179
1070
     2
1070
   271
1070
     2
1070
   279
1070
     2
1070
   340
1005
55
1002
}
  0
DIMENSION
  5
19434
  8
SUNPOU
  2
*D9
 10
533.71736719745945
 20
1977.588898764541
 30
0.0
 11
506.71736719745911
 21
2132.5888987645421
 31
0.0
 70
     0
 13
619.64738174553963
 23
2287.5888987645412
 33
0.0
 14
619.64738174554145
 24
1977.588898764541
 34
0.0
 50
90.0
1001
ACAD
1000
DSTYLE
1002
{
1070
   287
1070
     5
1070
    40
1040
10.0
1070
    41
1040
2.0
1070
    42
1040
1.0
1070
    43
1040
6.0
1070
    44
1040
1.0
1070
    73
1070
     0
1070
    74
1070
     0
1070
    77
1070
     1
1070
    78
1070
     8
1070
   140
1040
3.0
1070
   147
1040
1.1999999999999991
1070
   172
1070
     1
1070
   179
1070
     2
1070
   271
1070
     2
1070
   279
1070
     2
1070
   340
1005
55
1002
}
  0
LINE
  5
19435
  8
CENTER
 10
687.64738174554077
 20
2533.2340744886792
 30
0.0
 11
687.64738174554077
 21
2653.0288794709109
 31
0.0
  0
LINE
  5
19436
  8
SJC
 10
686.64738174554066
 20
2544.7788794701692
 30
0.0
 11
686.64738174554066
 21
2553.5403095354418
 31
0.0
  0
LINE
  5
19437
  8
SJC
 10
688.64738174554066
 20
2544.7788794701692
 30
0.0
 11
688.64738174554066
 21
2553.5403095354418
 31
0.0
  0
LINE
  5
19438
  8
CENTER
 10
743.39738174553804
 20
2597.2788794709109
 30
0.0
 11
631.89738174554066
 21
2597.2788794709109
 31
0.0
  0
LINE
  5
19439
  8
SJC
 10
607.64738174554077
 20
2546.7788794701678
 30
0.0
 11
607.64738174554077
 21
2548.7788794701678
 31
0.0
  0
ARC
  5
1943A
  8
SJC
 10
609.64738174553975
 20
2546.7788794701678
 30
0.0
 40
2.0
 50
180.0
 51
270.0
  0
ARC
  5
1943B
  8
SJC
 10
609.64738174554066
 20
2548.7788794701678
 30
0.0
 40
2.0
 50
90.0
 51
180.0
  0
LINE
  5
1943C
  8
SJC
 10
609.89738174554168
 20
2550.7788794701678
 30
0.0
 11
609.64738174554157
 21
2550.7788794701678
 31
0.0
  0
ARC
  5
1943D
  8
SJC
 10
765.64738174553975
 20
2548.7788794701678
 30
0.0
 40
2.0
 50
0.0
 51
90.0
  0
LINE
  5
1943E
  8
SJC
 10
765.64738174554168
 20
2544.7788794701701
 30
0.0
 11
609.64738174554066
 21
2544.7788794701692
 31
0.0
  0
ARC
  5
1943F
  8
SJC
 10
765.64738174554066
 20
2546.7788794701692
 30
0.0
 40
2.0
 50
270.0
 51
0.0
  0
LINE
  5
19441
  8
SJC
 10
767.64738174554157
 20
2546.7788794701692
 30
0.0
 11
767.64738174554066
 21
2548.7788794701678
 31
0.0
  0
LINE
  5
19442
  8
SJC
 10
636.89738174553975
 20
2605.2788794709058
 30
0.0
 11
636.89738174554259
 21
2553.7788794701692
 31
0.0
  0
LINE
  5
19443
  8
SJC
 10
738.39738174553804
 20
2605.2788794709072
 30
0.0
 11
738.39738174553895
 21
2553.7788794701692
 31
0.0
  0
ARC
  5
19444
  8
SJC
 10
741.39738174553895
 20
2553.7788794701692
 30
0.0
 40
3.0
 50
180.0
 51
270.0
  0
LINE
  5
19445
  8
SJC
 10
741.39738174553895
 20
2550.7788794701678
 30
0.0
 11
765.64738174554066
 21
2550.7788794701678
 31
0.0
  0
LINE
  5
19446
  8
SJC
 10
643.89738174553975
 20
2607.2788794709072
 30
0.0
 11
643.89738174553975
 21
2597.2788794709099
 31
0.0
  0
LINE
  5
19447
  8
SJC
 10
731.39738174553895
 20
2607.2788794709072
 30
0.0
 11
731.39738174553895
 21
2597.2788794709109
 31
0.0
  0
LINE
  5
19450
  8
SJC
 10
736.39738174553804
 20
2607.2788794709072
 30
0.0
 11
731.39738174553895
 21
2607.2788794709072
 31
0.0
  0
ARC
  5
19451
  8
SJC
 10
736.39738174553895
 20
2605.2788794709072
 30
0.0
 40
2.0
 50
0.0
 51
90.0
  0
LINE
  5
19452
  8
SJC
 10
643.89738174553975
 20
2607.2788794709072
 30
0.0
 11
638.89738174553975
 21
2607.2788794709058
 31
0.0
  0
ARC
  5
19453
  8
SJC
 10
638.89738174554077
 20
2605.2788794709058
 30
0.0
 40
2.0
 50
90.0
 51
180.0
  0
ARC
  5
19454
  8
SJC
 10
633.8973817455435
 20
2553.7788794701692
 30
0.0
 40
3.0
 50
270.0
 51
0.0
  0
LINE
  5
19455
  8
SJC
 10
633.8973817455435
 20
2550.7788794701678
 30
0.0
 11
609.89738174554168
 21
2550.7788794701678
 31
0.0
  0
ARC
  5
1945A
  8
SJC
 10
687.64738174554077
 20
2597.2788794709109
 30
0.0
 40
43.750000000000227
 50
180.0
 51
0.0
  0
DIMENSION
  5
19465
  8
SUNPOU
  2
*D10
 10
767.64738174554316
 20
2441.5652057546758
 30
0.0
 11
687.64738174554145
 21
2468.5652057546758
 31
0.0
 70
     0
 13
607.64738174553963
 23
2275.5888987645412
 33
0.0
 14
767.64738174554316
 24
2275.5888987645412
 34
0.0
1001
ACAD
1000
DSTYLE
1002
{
1070
   287
1070
     5
1070
    40
1040
10.0
1070
    41
1040
2.0
1070
    42
1040
1.0
1070
    43
1040
6.0
1070
    44
1040
1.0
1070
    73
1070
     0
1070
    74
1070
     0
1070
    77
1070
     1
1070
    78
1070
     8
1070
   140
1040
3.0
1070
   147
1040
1.1999999999999991
1070
   172
1070
     1
1070
   179
1070
     2
1070
   271
1070
     2
1070
   279
1070
     2
1070
   340
1005
55
1002
}
  0
DIMENSION
  5
1946B
  8
SUNPOU
  2
*D11
 10
233.93867437074709
 20
387.58889876454128
 30
0.0
 11
206.93867437074701
 21
587.58889876454134
 31
0.0
 70
     0
 13
460.11334604726437
 23
787.58889876454123
 33
0.0
 14
487.64738174554049
 24
387.58889876454123
 34
0.0
 50
90.0
1001
ACAD
1000
DSTYLE
1002
{
1070
   287
1070
     5
1070
    40
1040
10.0
1070
    41
1040
2.0
1070
    42
1040
1.0
1070
    43
1040
6.0
1070
    44
1040
1.0
1070
    73
1070
     0
1070
    74
1070
     0
1070
    77
1070
     1
1070
    78
1070
     8
1070
   140
1040
3.0
1070
   147
1040
1.1999999999999991
1070
   172
1070
     1
1070
   179
1070
     2
1070
   271
1070
     2
1070
   279
1070
     2
1070
   340
1005
55
1002
}
  0
LINE
  5
1946D
  8
CENTER
 10
602.64738174554066
 20
637.58889876454123
 30
0.0
 11
772.64738174554066
 21
637.58889876454123
 31
0.0
  0
LINE
  5
1946E
  8
SJC2
 10
612.64738174554077
 20
633.08889876454157
 30
0.0
 11
762.64738174554077
 21
633.08889876454123
 31
0.0
  0
LINE
  5
1946F
  8
SJC2
 10
612.64738174554077
 20
642.08889876454157
 30
0.0
 11
762.64738174554077
 21
642.08889876454123
 31
0.0
  0
LINE
  5
19470
  8
SJC
 10
643.89738174554077
 20
487.58889876454123
 30
0.0
 11
731.39738174554077
 21
487.58889876454123
 31
0.0
  0
DIMENSION
  5
19478
  8
SUNPOU
  2
*D12
 10
837.64738174554054
 20
219.0338777080587
 30
0.0
 11
687.64738174554054
 21
246.03387770805881
 31
0.0
 70
     0
  1
□<>
 13
537.64738174554054
 23
387.58889876454123
 33
0.0
 14
837.64738174554054
 24
387.58889876454123
 34
0.0
1001
ACAD
1000
DSTYLE
1002
{
1070
   287
1070
     5
1070
    40
1040
10.0
1070
    41
1040
2.0
1070
    42
1040
1.0
1070
    43
1040
6.0
1070
    44
1040
1.0
1070
    73
1070
     0
1070
    74
1070
     0
1070
    77
1070
     1
1070
    78
1070
     8
1070
   140
1040
3.0
1070
   147
1040
1.1999999999999991
1070
   172
1070
     1
1070
   179
1070
     2
1070
   271
1070
     2
1070
   279
1070
     2
1070
   340
1005
55
1002
}
  0
LINE
  5
19479
  8
CENTER
 10
1416.8632148796351
 20
2367.5888987645349
 30
0.0
 11
1416.8632148796351
 21
277.58889876454123
 31
0.0
  0
LINE
  5
1947A
  8
SJC
 10
1379.3632148796351
 20
487.58889876454123
 30
0.0
 11
1379.3632148796351
 21
387.58889876454123
 31
0.0
  0
LINE
  5
1947B
  8
SJC
 10
1454.3632148796351
 20
487.58889876454128
 30
0.0
 11
1454.3632148796351
 21
387.58889876454128
 31
0.0
  0
LINE
  5
1947E
  8
SJC
 10
1460.6132148796351
 20
2327.5888987645421
 30
0.0
 11
1460.6132148796351
 21
487.58889876454123
 31
0.0
1001
ACAD
1000
ASC_BOUNDS
1002
{
1070
    19
1005
0
1002
}
  0
LINE
  5
1947F
  8
SJC
 10
1373.1132148796351
 20
1667.5888987645401
 30
0.0
 11
1373.1132148796351
 21
487.58889876454123
 31
0.0
1001
ACAD
1000
ASC_BOUNDS
1002
{
1070
    19
1005
0
1002
}
  0
LINE
  5
19480
  8
SJC
 10
1460.6132148796351
 20
787.58889876454123
 30
0.0
 11
1705.367681729052
 21
787.58889876454123
 31
0.0
1001
ACAD
1000
ASC_BOUNDS
1002
{
1070
    19
1005
0
1002
}
  0
LINE
  5
19482
  8
SJC
 10
1216.8632148796351
 20
387.58889876454123
 30
0.0
 11
1616.8632148796351
 21
387.58889876454123
 31
0.0
1001
ACAD
1000
ASC_BOUNDS
1002
{
1070
    19
1005
0
1005
0
1005
0
1002
}
  0
LINE
  5
19483
  8
SJC
 10
1189.329179181359
 20
787.58889876454123
 30
0.0
 11
1373.1132148796351
 21
787.58889876454123
 31
0.0
1001
ACAD
1000
ASC_BOUNDS
1002
{
1070
    19
1005
0
1002
}
  0
LINE
  5
19484
  8
SJC
 10
1373.1132148796351
 20
2327.5888987645421
 30
0.0
 11
1460.6132148796351
 21
2327.5888987645421
 31
0.0
  0
ARC
  5
1948E
  8
SJC
 10
1416.8632148796351
 20
2289.7373362645212
 30
0.0
 40
57.851562500013678
 50
40.865657358811269
 51
139.13434264118931
  0
INSERT
  5
1948F
  8
SJC
  2
GL
 10
1621.7644775226031
 20
787.30926014679335
 30
0.0
 41
10.0
 42
10.0
 43
10.0
  0
LINE
  5
19490
  8
SJC
 10
1566.8632148796351
 20
787.58889876454123
 30
0.0
 11
1566.8632148796351
 21
387.58889876454123
 31
0.0
1001
ACAD
1000
ASC_BOUNDS
1002
{
1070
    19
1005
0
1002
}
  0
LINE
  5
19491
  8
SJC
 10
1266.8632148796351
 20
787.58889876454123
 30
0.0
 11
1266.8632148796351
 21
387.58889876454123
 31
0.0
1001
ACAD
1000
ASC_BOUNDS
1002
{
1070
    19
1005
0
1002
}
  0
LINE
  5
19492
  8
HATCH
 10
1266.8632148796351
 20
782.64907618853795
 30
0.0
 11
1271.8030374556381
 21
787.58889876454123
 31
0.0
  0
LINE
  5
19493
  8
HATCH
 10
1266.8632148796351
 20
676.5830590105561
 30
0.0
 11
1372.3132148796351
 21
782.03305901055592
 31
0.0
  0
LINE
  5
19494
  8
HATCH
 10
1266.8632148796351
 20
570.5170418325738
 30
0.0
 11
1373.1132148796351
 21
676.7670418325738
 31
0.0
  0
LINE
  5
19495
  8
HATCH
 10
1461.413214879635
 20
765.06704183257443
 30
0.0
 11
1483.935071811602
 21
787.58889876454123
 31
0.0
  0
LINE
  5
19496
  8
HATCH
 10
1266.8632148796351
 20
464.45102465459189
 30
0.0
 11
1373.1132148796351
 21
570.70102465459195
 31
0.0
  0
LINE
  5
19497
  8
HATCH
 10
1460.6132148796351
 20
658.2010246545924
 30
0.0
 11
1566.8632148796351
 21
764.45102465459138
 31
0.0
  0
LINE
  5
19498
  8
HATCH
 10
1296.0671061675671
 20
387.58889876454123
 30
0.0
 11
1379.3632148796351
 21
470.88500747660942
 31
0.0
  0
LINE
  5
19499
  8
HATCH
 10
1460.6132148796351
 20
552.13500747660964
 30
0.0
 11
1566.8632148796351
 21
658.38500747660964
 31
0.0
  0
LINE
  5
1949A
  8
HATCH
 10
1454.3632148796351
 20
439.81899029862802
 30
0.0
 11
1566.8632148796351
 21
552.3189902986278
 31
0.0
  0
LINE
  5
1949B
  8
HATCH
 10
1508.199140523531
 20
387.58889876454123
 30
0.0
 11
1566.8632148796351
 21
446.25297312064549
 31
0.0
  0
LINE
  5
1949C
  8
HATCH
 10
1266.8632148796351
 20
764.97140668853808
 30
0.0
 11
1289.480706955638
 21
787.58889876454123
 31
0.0
  0
LINE
  5
1949D
  8
HATCH
 10
1266.8632148796351
 20
658.90538951055623
 30
0.0
 11
1372.3132148796351
 21
764.35538951055605
 31
0.0
  0
LINE
  5
1949E
  8
HATCH
 10
1266.8632148796351
 20
552.83937233257427
 30
0.0
 11
1373.1132148796351
 21
659.08937233257348
 31
0.0
  0
LINE
  5
1949F
  8
HATCH
 10
1461.413214879635
 20
747.389372332574
 30
0.0
 11
1501.6127413116019
 21
787.58889876454123
 31
0.0
  0
LINE
  5
194A0
  8
HATCH
 10
1266.8632148796351
 20
446.77335515459202
 30
0.0
 11
1373.1132148796351
 21
553.02335515459163
 31
0.0
  0
LINE
  5
194A1
  8
HATCH
 10
1460.6132148796351
 20
640.52335515459208
 30
0.0
 11
1566.8632148796351
 21
746.77335515459163
 31
0.0
  0
LINE
  5
194A2
  8
HATCH
 10
1313.744775667566
 20
387.58889876454123
 30
0.0
 11
1379.3632148796351
 21
453.20733797660961
 31
0.0
  0
LINE
  5
194A3
  8
HATCH
 10
1460.6132148796351
 20
534.45733797660989
 30
0.0
 11
1566.8632148796351
 21
640.70733797660978
 31
0.0
  0
LINE
  5
194A4
  8
HATCH
 10
1454.3632148796351
 20
422.14132079862861
 30
0.0
 11
1566.8632148796351
 21
534.64132079862736
 31
0.0
  0
LINE
  5
194A5
  8
HATCH
 10
1525.87681002353
 20
387.58889876454123
 30
0.0
 11
1566.8632148796351
 21
428.57530362064512
 31
0.0
  0
LINE
  5
194A6
  8
HATCH
 10
1266.8632148796351
 20
747.29373708853825
 30
0.0
 11
1307.1583765556379
 21
787.58889876454123
 31
0.0
  0
LINE
  5
194A7
  8
HATCH
 10
1266.8632148796351
 20
641.22771991055652
 30
0.0
 11
1372.3132148796351
 21
746.67771991055588
 31
0.0
  0
LINE
  5
194A8
  8
HATCH
 10
1266.8632148796351
 20
535.16170273257364
 30
0.0
 11
1373.1132148796351
 21
641.41170273257387
 31
0.0
  0
LINE
  5
194A9
  8
HATCH
 10
1461.413214879635
 20
729.71170273257394
 30
0.0
 11
1519.2904109116021
 21
787.58889876454123
 31
0.0
  0
LINE
  5
194AA
  8
HATCH
 10
1266.8632148796351
 20
429.0956855545918
 30
0.0
 11
1373.1132148796351
 21
535.34568555459214
 31
0.0
  0
LINE
  5
194AB
  8
HATCH
 10
1460.6132148796351
 20
622.84568555459225
 30
0.0
 11
1566.8632148796351
 21
729.0956855545918
 31
0.0
  0
LINE
  5
194AC
  8
HATCH
 10
1331.422445267566
 20
387.58889876454123
 30
0.0
 11
1379.3632148796351
 21
435.52966837660898
 31
0.0
  0
LINE
  5
194AD
  8
HATCH
 10
1460.6132148796351
 20
516.77966837660995
 30
0.0
 11
1566.8632148796351
 21
623.02966837660961
 31
0.0
  0
LINE
  5
194AE
  8
HATCH
 10
1454.3632148796351
 20
404.46365119862838
 30
0.0
 11
1566.8632148796351
 21
516.9636511986273
 31
0.0
  0
LINE
  5
194AF
  8
HATCH
 10
1543.5544796235311
 20
387.58889876454123
 30
0.0
 11
1566.8632148796351
 21
410.8976340206454
 31
0.0
  0
LINE
  5
194B0
  8
HATCH
 10
1266.8632148796351
 20
729.6160675885385
 30
0.0
 11
1324.836046055638
 21
787.58889876454123
 31
0.0
  0
LINE
  5
194B1
  8
HATCH
 10
1266.8632148796351
 20
623.55005041055608
 30
0.0
 11
1372.3132148796351
 21
729.0000504105559
 31
0.0
  0
LINE
  5
194B2
  8
HATCH
 10
1266.8632148796351
 20
517.48403323257389
 30
0.0
 11
1373.1132148796351
 21
623.73403323257389
 31
0.0
  0
LINE
  5
194B3
  8
HATCH
 10
1461.413214879635
 20
712.03403323257396
 30
0.0
 11
1536.9680804116019
 21
787.58889876454123
 31
0.0
  0
LINE
  5
194B4
  8
HATCH
 10
1266.8632148796351
 20
411.41801605459199
 30
0.0
 11
1373.1132148796351
 21
517.66801605459159
 31
0.0
  0
LINE
  5
194B5
  8
HATCH
 10
1460.6132148796351
 20
605.16801605459216
 30
0.0
 11
1566.8632148796351
 21
711.41801605459204
 31
0.0
  0
LINE
  5
194B6
  8
HATCH
 10
1349.1001147675661
 20
387.58889876454123
 30
0.0
 11
1379.3632148796351
 21
417.85199887660963
 31
0.0
  0
LINE
  5
194B7
  8
HATCH
 10
1460.6132148796351
 20
499.1019988766098
 30
0.0
 11
1566.8632148796351
 21
605.35199887660917
 31
0.0
  0
LINE
  5
194B8
  8
HATCH
 10
1455.1661319455479
 20
387.58889876454123
 30
0.0
 11
1566.8632148796351
 21
499.28598169862738
 31
0.0
  0
LINE
  5
194B9
  8
HATCH
 10
1561.23214912353
 20
387.58889876454123
 30
0.0
 11
1566.8632148796339
 21
393.21996452064519
 31
0.0
  0
LINE
  5
194BA
  8
SJC
 10
1373.1132148796351
 20
2327.5888987645421
 30
0.0
 11
1373.1132148796351
 21
2287.5888987645412
 31
0.0
  0
LINE
  5
194BC
  8
HATCH
 10
1373.1132148796351
 20
2327.5888987645421
 30
0.0
 11
1460.6132148796339
 21
2327.5888987645421
 31
0.0
1001
ACAD
1000
ASC_BOUNDS
1002
{
1070
    19
1005
1B394
1005
1B389
1002
}
  0
LINE
  5
194BD
  8
HATCH
 10
1460.6132148796339
 20
2327.5888987645421
 30
0.0
 11
1460.6132148796351
 21
2287.5888987645412
 31
0.0
1001
ACAD
1000
ASC_BOUNDS
1002
{
1070
    19
1005
1B394
1005
1B389
1002
}
  0
LINE
  5
194BE
  8
HATCH
 10
1460.6132148796351
 20
2287.5888987645412
 30
0.0
 11
1373.1132148796351
 21
2287.5888987645412
 31
0.0
1001
ACAD
1000
ASC_BOUNDS
1002
{
1070
    19
1005
1B394
1005
1B389
1002
}
  0
LINE
  5
194BF
  8
HATCH
 10
1373.1132148796351
 20
2287.5888987645412
 30
0.0
 11
1373.1132148796339
 21
2327.5888987645412
 31
0.0
1001
ACAD
1000
ASC_BOUNDS
1002
{
1070
    19
1005
1B394
1005
1B389
1002
}
  0
LINE
  5
194C0
  8
CENTER
 10
1396.8632148796351
 20
637.58889876454123
 30
0.0
 11
1436.8632148796351
 21
637.58889876454123
 31
0.0
  0
LINE
  5
194C1
  8
SJC
 10
1373.1132148796351
 20
487.58889876454123
 30
0.0
 11
1460.6132148796351
 21
487.58889876454123
 31
0.0
  0
LINE
  5
194C4
  8
SJC
 10
1361.3632148796351
 20
2283.0888987647759
 30
0.0
 11
1361.3632148796351
 21
1979.588898764526
 31
0.0
  0
LINE
  5
194C5
  8
SJC
 10
1370.363214879799
 20
1865.0888987647349
 30
0.0
 11
1370.363214879799
 21
1795.0888987647199
 31
0.0
  0
LINE
  5
194C6
  8
SJC
 10
1370.363214879688
 20
2282.588898764549
 30
0.0
 11
1370.363214879688
 21
2212.5888987645362
 31
0.0
  0
LINE
  5
194C7
  8
SJC
 10
1368.3632148796321
 20
2287.588898764543
 30
0.0
 11
1363.363214879633
 21
2287.588898764543
 31
0.0
  0
ARC
  5
194C8
  8
SJC
 10
1368.363214879633
 20
2285.588898764543
 30
0.0
 40
2.0
 50
0.0000000000260551
 51
90.0
  0
ARC
  5
194C9
  8
SJC
 10
1363.363214879633
 20
2285.588898764543
 30
0.0
 40
2.0
 50
90.0
 51
180.00000000001299
  0
LINE
  5
194CA
  8
SJC
 10
1361.363214879633
 20
2285.5888987645412
 30
0.0
 11
1361.3632148796351
 21
2283.0888987645412
 31
0.0
  0
LINE
  5
194CB
  8
SJC
 10
1370.363214879633
 20
2285.5888987645449
 30
0.0
 11
1370.3632148797001
 21
1979.588898764526
 31
0.0
  0
LINE
  5
194CD
  8
SJC
 10
1426.8632148803749
 20
2282.5888987645212
 30
0.0
 11
1426.863214880369
 21
2265.5011710060612
 31
0.0
  0
ARC
  5
194CE
  8
SJC
 10
1421.8632148803749
 20
2282.588898764523
 30
0.0
 40
5.0
 50
359.99999999997402
 51
90.0
  0
LINE
  5
194CF
  8
SJC
 10
1421.863214880377
 20
2287.5888987645271
 30
0.0
 11
1367.3632148803781
 21
2287.588898764543
 31
0.0
  0
LINE
  5
194D0
  8
CENTER
 10
1416.863214880374
 20
2273.0888987645249
 30
0.0
 11
1416.863214880372
 21
2264.0888987645249
 31
0.0
  0
LINE
  5
194D1
  8
CENTER
 10
1421.3632148803731
 20
2268.588898764523
 30
0.0
 11
1412.3632148803731
 21
2268.5888987645262
 31
0.0
  0
CIRCLE
  5
194D3
  8
SJC
 10
1416.8632148803731
 20
2268.5888987645249
 30
0.0
 40
4.5
  0
LINE
  5
194D4
  8
SJC
 10
1370.3632148797999
 20
1795.088898764496
 30
0.0
 11
1370.3632148797999
 21
1865.0888987645101
 31
0.0
  0
LINE
  5
194D7
  8
SJC
 10
1361.3632148796351
 20
2283.0888987645412
 30
0.0
 11
1361.3632148796351
 21
1979.588898764526
 31
0.0
  0
LINE
  5
194D8
  8
SJC
 10
1423.065784744751
 20
2260.6479426247402
 30
0.0
 11
1370.3632148796439
 21
2247.588898764543
 31
0.0
  0
ARC
  5
194D9
  8
SJC
 10
1421.863214880369
 20
2265.501171006063
 30
0.0
 40
5.0
 50
283.9168774331053
 51
359.99999999997402
  0
LINE
  5
194DA
  8
SJC
 10
1368.363214879744
 20
1977.5888987645251
 30
0.0
 11
1364.363214879744
 21
1977.588898764526
 31
0.0
  0
ARC
  5
194DB
  8
SJC
 10
1368.3632148797451
 20
1979.5888987645251
 30
0.0
 40
2.0
 50
270.0
 51
359.99999999997402
  0
ARC
  5
194DC
  8
SJC
 10
1363.3632148797451
 20
1979.588898764526
 30
0.0
 40
2.0
 50
179.99999999998701
 51
270.0
  0
LINE
  5
194DD
  8
SJC
 10
1361.3632148797451
 20
1979.5888987645269
 30
0.0
 11
1361.3632148797469
 21
1982.0888987645269
 31
0.0
  0
LINE
  5
194DE
  8
SJC
 10
1426.863214880487
 20
1982.5888987645469
 30
0.0
 11
1426.8632148804811
 21
1999.6766265230069
 31
0.0
  0
ARC
  5
194DF
  8
SJC
 10
1421.863214880487
 20
1982.5888987645451
 30
0.0
 40
5.0
 50
270.0
 51
0.0000000000260551
  0
LINE
  5
194E0
  8
SJC
 10
1421.8632148804891
 20
1977.5888987645419
 30
0.0
 11
1367.36321488049
 21
1977.5888987645251
 31
0.0
  0
LINE
  5
194E1
  8
CENTER
 10
1416.8632148804861
 20
1992.088898764544
 30
0.0
 11
1416.8632148804829
 21
2001.088898764544
 31
0.0
  0
LINE
  5
194E2
  8
CENTER
 10
1421.363214880485
 20
1996.5888987645451
 30
0.0
 11
1412.363214880485
 21
1996.5888987645419
 31
0.0
  0
CIRCLE
  5
194E4
  8
SJC
 10
1416.863214880485
 20
1996.588898764543
 30
0.0
 40
4.5
  0
LINE
  5
194E7
  8
SJC
 10
1423.0657847448631
 20
2004.5298549043291
 30
0.0
 11
1370.363214879756
 21
2017.5888987645251
 31
0.0
  0
ARC
  5
194E8
  8
SJC
 10
1421.8632148804811
 20
1999.676626523006
 30
0.0
 40
5.0
 50
0.0000000000260551
 51
76.083122566894787
  0
CIRCLE
  5
19503
  8
SJC2
 10
1416.8632148796351
 20
637.58889876454123
 30
0.0
 40
4.5
  0
LINE
  5
19507
  8
CENTER
 10
2129.8293558282348
 20
1676.507178536792
 30
0.0
 11
2129.8293558282348
 21
106.5071785368045
 31
0.0
  0
LINE
  5
19508
  8
SUNPOU
 10
2159.8293558282348
 20
136.50717853680541
 30
0.0
 11
2159.8293558282348
 21
106.5071785368045
 31
0.0
  0
LINE
  5
19509
  8
SUNPOU
 10
2099.8293558282348
 20
166.5071785368045
 30
0.0
 11
2099.8293558282348
 21
136.50717853680541
 31
0.0
  0
LINE
  5
1950E
  8
SJC
 10
2217.3293558282348
 20
296.50717853680408
 30
0.0
 11
2217.3293558282348
 21
136.5071785368059
 31
0.0
1001
ACAD
1000
ASC_BOUNDS
1002
{
1070
    19
1005
0
1002
}
  0
LINE
  5
1950F
  8
SJC
 10
2042.3293558282351
 20
296.50717853680408
 30
0.0
 11
2042.3293558282351
 21
136.50717853680399
 31
0.0
1001
ACAD
1000
ASC_BOUNDS
1002
{
1070
    19
1005
0
1002
}
  0
LINE
  5
19510
  8
SJC
 10
2042.3293558282351
 20
1616.507178536807
 30
0.0
 11
2217.3293558282348
 21
1616.507178536807
 31
0.0
  0
ARC
  5
19511
  8
SJC
 10
2129.8293558282348
 20
1540.804053536765
 30
0.0
 40
115.7031250000273
 50
40.865657358805223
 51
139.13434264119471
  0
LINE
  5
19512
  8
SJC
 10
1993.829355828233
 20
1526.5071785368029
 30
0.0
 11
2265.8293558282398
 21
1526.507178536805
 31
0.0
  0
LINE
  5
19513
  8
SJC
 10
2042.3293558282351
 20
1616.507178536807
 30
0.0
 11
2042.3293558282351
 21
1536.507178536805
 31
0.0
  0
LINE
  5
19514
  8
SJC
 10
2217.3293558282348
 20
1616.507178536807
 30
0.0
 11
2217.3293558282348
 21
1536.507178536805
 31
0.0
  0
LINE
  5
19516
  8
HATCH
 10
2042.3293558282351
 20
1616.507178536807
 30
0.0
 11
2217.3293558282348
 21
1616.507178536807
 31
0.0
  0
LINE
  5
19517
  8
HATCH
 10
2217.3293558282348
 20
1616.507178536807
 30
0.0
 11
2217.3293558282348
 21
1536.507178536805
 31
0.0
  0
LINE
  5
19518
  8
HATCH
 10
2217.3293558282348
 20
1536.507178536805
 30
0.0
 11
2042.3293558282351
 21
1536.507178536805
 31
0.0
  0
LINE
  5
19519
  8
HATCH
 10
2042.3293558282351
 20
1536.507178536805
 30
0.0
 11
2042.329355828233
 21
1616.507178536805
 31
0.0
  0
LINE
  5
1951A
  8
SJC
 10
1993.8293558282351
 20
306.50717853680499
 30
0.0
 11
2265.8293558282348
 21
306.5071785368055
 31
0.0
  0
LINE
  5
1951B
  8
SJC
 10
1979.829355828233
 20
1512.507178536805
 30
0.0
 11
1979.829355828238
 21
940.5071785368059
 31
0.0
  0
LINE
  5
1951C
  8
SJC
 10
2279.8293558282421
 20
1512.507178536805
 30
0.0
 11
2279.8293558282348
 21
940.50717853680635
 31
0.0
  0
LINE
  5
1951E
  8
SJC
 10
1969.829355828233
 20
1512.507178536805
 30
0.0
 11
1969.829355828236
 21
940.50717853680544
 31
0.0
  0
ARC
  5
1951F
  8
SJC
 10
1993.829355828233
 20
1512.507178536805
 30
0.0
 40
24.0
 50
90.0
 51
180.0
  0
ARC
  5
19520
  8
SJC
 10
1993.829355828233
 20
1512.507178536805
 30
0.0
 40
14.0
 50
90.0
 51
180.0
  0
LINE
  5
19521
  8
SJC
 10
2289.8293558282398
 20
1512.507178536805
 30
0.0
 11
2289.8293558282371
 21
940.5071785368059
 31
0.0
  0
ARC
  5
19522
  8
SJC
 10
2265.8293558282348
 20
320.50717853680538
 30
0.0
 40
24.0
 50
270.0
 51
0.0
  0
ARC
  5
19523
  8
SJC
 10
2265.8293558282348
 20
320.50717853680538
 30
0.0
 40
14.0
 50
270.0
 51
0.0
  0
ARC
  5
19524
  8
SJC
 10
2265.8293558282398
 20
1512.507178536805
 30
0.0
 40
24.0
 50
0.0
 51
90.0
  0
ARC
  5
19525
  8
SJC
 10
2265.8293558282398
 20
1512.507178536805
 30
0.0
 40
14.0
 50
0.0
 51
90.0
  0
ARC
  5
19526
  8
SJC
 10
1993.8293558282351
 20
320.50717853680499
 30
0.0
 40
24.0
 50
180.0
 51
270.0
  0
ARC
  5
19527
  8
SJC
 10
1993.8293558282351
 20
320.50717853680499
 30
0.0
 40
14.0
 50
180.0
 51
270.0
  0
LINE
  5
19528
  8
SJC
 10
2265.8293558282398
 20
1536.507178536805
 30
0.0
 11
1993.829355828233
 21
1536.507178536805
 31
0.0
  0
LINE
  5
19529
  8
SJC
 10
2265.8293558282371
 20
916.50717853680635
 30
0.0
 11
2129.8293558282348
 21
916.50717853680499
 31
0.0
  0
LINE
  5
1952A
  8
SUNPOU
 10
2255.8293558282389
 20
136.50717853680629
 30
0.0
 11
2159.8293558282348
 21
136.50717853680541
 31
0.0
  0
LINE
  5
1952B
  8
SJC
 10
2129.8293558282348
 20
916.50717853680499
 30
0.0
 11
1993.8293558282371
 21
916.50717853680544
 31
0.0
  0
LINE
  5
1952C
  8
CENTER
 10
2881.978662656893
 20
1676.507178536792
 30
0.0
 11
2881.978662656893
 21
106.5071785368045
 31
0.0
  0
LINE
  5
1952F
  8
SJC
 10
2969.478662656893
 20
1616.507178536807
 30
0.0
 11
2969.4786626568939
 21
136.50717853680601
 31
0.0
1001
ACAD
1000
ASC_BOUNDS
1002
{
1070
    19
1005
0
1002
}
  0
LINE
  5
19530
  8
SJC
 10
2794.4786626568912
 20
296.50717853674678
 30
0.0
 11
2794.4786626568912
 21
136.50717853680601
 31
0.0
1001
ACAD
1000
ASC_BOUNDS
1002
{
1070
    19
1005
0
1002
}
  0
LINE
  5
19531
  8
SJC
 10
2794.478662656893
 20
1616.507178536807
 30
0.0
 11
2969.478662656893
 21
1616.507178536807
 31
0.0
  0
ARC
  5
19532
  8
SJC
 10
2881.978662656893
 20
1540.804053536765
 30
0.0
 40
115.7031250000273
 50
40.865657358805223
 51
139.13434264119471
  0
LINE
  5
19533
  8
SJC
 10
2794.478662656893
 20
1616.507178536807
 30
0.0
 11
2794.478662656893
 21
1536.507178536805
 31
0.0
  0
LINE
  5
19535
  8
HATCH
 10
2794.478662656893
 20
1616.507178536807
 30
0.0
 11
2969.478662656893
 21
1616.507178536807
 31
0.0
1001
ACAD
1000
ASC_BOUNDS
1002
{
1070
    19
1005
1B388
1005
1B386
1002
}
  0
LINE
  5
19536
  8
HATCH
 10
2969.478662656893
 20
1616.507178536807
 30
0.0
 11
2969.478662656893
 21
1536.507178536805
 31
0.0
1001
ACAD
1000
ASC_BOUNDS
1002
{
1070
    19
1005
1B388
1005
1B386
1002
}
  0
LINE
  5
19537
  8
HATCH
 10
2969.478662656893
 20
1536.507178536805
 30
0.0
 11
2794.478662656893
 21
1536.507178536805
 31
0.0
1001
ACAD
1000
ASC_BOUNDS
1002
{
1070
    19
1005
1B388
1005
1B386
1002
}
  0
LINE
  5
19538
  8
HATCH
 10
2794.478662656893
 20
1536.507178536805
 30
0.0
 11
2794.4786626568912
 21
1616.507178536805
 31
0.0
1001
ACAD
1000
ASC_BOUNDS
1002
{
1070
    19
1005
1B388
1005
1B386
1002
}
  0
LINE
  5
19539
  8
SJC
 10
2776.978662656893
 20
1527.5071785372741
 30
0.0
 11
2776.978662656893
 21
920.507178536879
 31
0.0
  0
LINE
  5
1953A
  8
SJC
 10
2788.9786626572218
 20
920.50717853677486
 30
0.0
 11
2788.9786626572231
 21
931.5071785372138
 31
0.0
  0
LINE
  5
1953B
  8
SJC
 10
2788.9786626570012
 20
1526.5071785368209
 30
0.0
 11
2788.9786626570012
 21
1386.5071785367929
 31
0.0
  0
LINE
  5
1953C
  8
SJC
 10
2784.978662656888
 20
1536.50717853681
 30
0.0
 11
2780.978662656888
 21
1536.5071785368079
 31
0.0
  0
ARC
  5
1953D
  8
SJC
 10
2784.9786626568889
 20
1532.50717853681
 30
0.0
 40
4.0
 50
0.0000000000260551
 51
90.0
  0
ARC
  5
1953E
  8
SJC
 10
2780.9786626568889
 20
1532.5071785368079
 30
0.0
 40
4.0
 50
90.0
 51
180.00000000001299
  0
LINE
  5
1953F
  8
SJC
 10
2776.9786626568889
 20
1532.5071785368059
 30
0.0
 11
2776.978662656893
 21
1527.507178536805
 31
0.0
  0
LINE
  5
19540
  8
SJC
 10
2788.9786626568889
 20
1532.507178536812
 30
0.0
 11
2788.9786626571081
 21
920.50717853686092
 31
0.0
  0
LINE
  5
19542
  8
SJC
 10
2901.9786626583741
 20
1526.5071785367661
 30
0.0
 11
2901.9786626583609
 21
1492.331723019845
 31
0.0
  0
ARC
  5
19543
  8
SJC
 10
2891.9786626583741
 20
1526.5071785367691
 30
0.0
 40
10.0
 50
359.99999999997402
 51
90.0
  0
LINE
  5
19544
  8
SJC
 10
2891.9786626583768
 20
1536.507178536775
 30
0.0
 11
2784.9786626568912
 21
1536.50717853681
 31
0.0
  0
LINE
  5
19545
  8
CENTER
 10
2881.9786626583718
 20
1507.507178536772
 30
0.0
 11
2881.9786626583668
 21
1489.507178536772
 31
0.0
  0
LINE
  5
19546
  8
CENTER
 10
2890.97866265837
 20
1498.5071785367691
 30
0.0
 11
2872.97866265837
 21
1498.5071785367741
 31
0.0
  0
LINE
  5
19547
  8
SJC
 10
2788.978662657224
 20
931.50717853676633
 30
0.0
 11
2788.978662657224
 21
920.50717853677486
 31
0.0
  0
LINE
  5
1954A
  8
SJC
 10
2776.978662656893
 20
1527.507178536805
 30
0.0
 11
2776.978662656893
 21
920.5071785364097
 31
0.0
  0
LINE
  5
1954B
  8
SJC
 10
2894.3838023871249
 20
1482.6252662572019
 30
0.0
 11
2788.9786626569112
 21
1456.5071785368091
 31
0.0
  0
ARC
  5
1954C
  8
SJC
 10
2891.9786626583609
 20
1492.3317230198479
 30
0.0
 40
10.0
 50
283.9168774331053
 51
359.99999999997402
  0
LINE
  5
1954D
  8
SJC
 10
2784.9786626571122
 20
916.50717853677497
 30
0.0
 11
2780.9786626571122
 21
916.50717853677679
 31
0.0
  0
ARC
  5
1954E
  8
SJC
 10
2784.9786626571131
 20
920.50717853677486
 30
0.0
 40
4.0
 50
270.0
 51
359.99999999997402
  0
ARC
  5
1954F
  8
SJC
 10
2780.9786626571131
 20
920.50717853677668
 30
0.0
 40
4.0
 50
179.99999999998701
 51
270.0
  0
LINE
  5
19550
  8
SJC
 10
2776.9786626571131
 20
920.50717853677872
 30
0.0
 11
2776.9786626571172
 21
925.50717853677907
 31
0.0
  0
LINE
  5
19551
  8
SJC
 10
2901.9786626585978
 20
926.50717853681874
 30
0.0
 11
2901.9786626585851
 21
960.68263405373955
 31
0.0
  0
ARC
  5
19552
  8
SJC
 10
2891.9786626585978
 20
926.50717853681579
 30
0.0
 40
10.0
 50
270.0
 51
0.0000000000260551
  0
LINE
  5
19553
  8
SJC
 10
2891.978662658601
 20
916.50717853680953
 30
0.0
 11
2784.9786626571149
 21
916.50717853677497
 31
0.0
  0
LINE
  5
19554
  8
CENTER
 10
2881.978662658596
 20
945.50717853681283
 30
0.0
 11
2881.9786626585901
 21
963.50717853681272
 31
0.0
  0
LINE
  5
19555
  8
CENTER
 10
2890.9786626585942
 20
954.50717853681545
 30
0.0
 11
2872.9786626585942
 21
954.50717853680987
 31
0.0
  0
LINE
  5
19558
  8
SJC
 10
2894.3838023873491
 20
970.38909081638258
 30
0.0
 11
2788.9786626571349
 21
996.50717853677543
 31
0.0
  0
ARC
  5
19559
  8
SJC
 10
2891.9786626585851
 20
960.68263405373625
 30
0.0
 40
10.0
 50
0.0000000000260551
 51
76.083122566894787
  0
CIRCLE
  5
1956E
  8
SJC
 10
2129.8293558282348
 20
1998.9195343433471
 30
0.0
 40
86.999999999999076
  0
CIRCLE
  5
1956F
  8
SJC
 10
2129.8293558282348
 20
1998.9195343433471
 30
0.0
 40
88.999999999999091
  0
CIRCLE
  5
19570
  8
SJC
 10
2129.8293558282348
 20
1998.9195343433471
 30
0.0
 40
76.999999999999091
  0
CIRCLE
  5
19571
  8
SJC
 10
2129.8293558282348
 20
2079.9195343433471
 30
0.0
 40
0.5
  0
CIRCLE
  5
19572
  8
SJC
 10
2104.7989792838648
 20
2075.9551121632539
 30
0.0
 40
0.5
  0
CIRCLE
  5
19573
  8
SJC
 10
2117.158164159976
 20
2078.9222899315532
 30
0.0
 40
0.5
  0
CIRCLE
  5
19574
  8
SJC
 10
2082.2187503925452
 20
2064.4499108877171
 30
0.0
 40
0.5
  0
CIRCLE
  5
19575
  8
SJC
 10
2093.056125349332
 20
2071.0910628026049
 30
0.0
 40
0.5
  0
CIRCLE
  5
19576
  8
SJC
 10
2072.5537065521248
 20
2056.1951836194571
 30
0.0
 40
0.5
  0
CIRCLE
  5
19577
  8
SJC
 10
2206.8649336481408
 20
1973.8891577989771
 30
0.0
 40
0.5
  0
CIRCLE
  5
19578
  8
SJC
 10
2064.2989792838648
 20
2046.530139779037
 30
0.0
 40
0.5
  0
CIRCLE
  5
19579
  8
SJC
 10
2057.6578273689779
 20
2035.69276482225
 30
0.0
 40
0.5
  0
CIRCLE
  5
1957A
  8
SJC
 10
2052.7937780083289
 20
2023.949910887718
 30
0.0
 40
0.5
  0
CIRCLE
  5
1957B
  8
SJC
 10
2049.8266002400301
 20
2011.590726011606
 30
0.0
 40
0.5
  0
CIRCLE
  5
1957C
  8
SJC
 10
2048.8293558282362
 20
1998.9195343433471
 30
0.0
 40
0.5
  0
CIRCLE
  5
1957D
  8
SJC
 10
2049.8266002400301
 20
1986.2483426750889
 30
0.0
 40
0.5
  0
CIRCLE
  5
1957E
  8
SJC
 10
2052.7937780083289
 20
1973.8891577989771
 30
0.0
 40
0.5
  0
CIRCLE
  5
1957F
  8
SJC
 10
2057.6578273689779
 20
1962.146303864444
 30
0.0
 40
0.5
  0
CIRCLE
  5
19580
  8
SJC
 10
2064.2989792838648
 20
1951.3089289076579
 30
0.0
 40
0.5
  0
CIRCLE
  5
19581
  8
SJC
 10
2072.5537065521262
 20
1941.6438850672371
 30
0.0
 40
0.5
  0
CIRCLE
  5
19582
  8
SJC
 10
2082.2187503925452
 20
1933.389157798978
 30
0.0
 40
0.5
  0
CIRCLE
  5
19583
  8
SJC
 10
2093.056125349332
 20
1926.7480058840899
 30
0.0
 40
0.5
  0
CIRCLE
  5
19584
  8
SJC
 10
2104.7989792838648
 20
1921.8839565234409
 30
0.0
 40
0.5
  0
CIRCLE
  5
19585
  8
SJC
 10
2117.1581641599769
 20
1918.9167787551421
 30
0.0
 40
0.5
  0
CIRCLE
  5
19586
  8
SJC
 10
2129.8293558282348
 20
1917.919534343348
 30
0.0
 40
0.5
  0
CIRCLE
  5
19587
  8
SJC
 10
2142.5005474964942
 20
1918.9167787551421
 30
0.0
 40
0.5
  0
CIRCLE
  5
19588
  8
SJC
 10
2154.8597323726049
 20
1921.8839565234409
 30
0.0
 40
0.5
  0
CIRCLE
  5
19589
  8
SJC
 10
2166.6025863071382
 20
1926.7480058840899
 30
0.0
 40
0.5
  0
CIRCLE
  5
1958A
  8
SJC
 10
2177.4399612639249
 20
1933.389157798978
 30
0.0
 40
0.5
  0
CIRCLE
  5
1958B
  8
SJC
 10
2187.1050051043449
 20
1941.643885067238
 30
0.0
 40
0.5
  0
CIRCLE
  5
1958C
  8
SJC
 10
2195.3597323726049
 20
1951.3089289076579
 30
0.0
 40
0.5
  0
CIRCLE
  5
1958D
  8
SJC
 10
2202.0008842874922
 20
1962.1463038644449
 30
0.0
 40
0.5
  0
CIRCLE
  5
1958E
  8
SJC
 10
2209.8321114164401
 20
1986.2483426750889
 30
0.0
 40
0.5
  0
CIRCLE
  5
1958F
  8
SJC
 10
2210.8293558282339
 20
1998.9195343433471
 30
0.0
 40
0.5
  0
CIRCLE
  5
19590
  8
SJC
 10
2209.8321114164401
 20
2011.590726011606
 30
0.0
 40
0.5
  0
CIRCLE
  5
19591
  8
SJC
 10
2206.8649336481408
 20
2023.949910887718
 30
0.0
 40
0.5
  0
CIRCLE
  5
19592
  8
SJC
 10
2195.3597323726049
 20
2046.530139779037
 30
0.0
 40
0.5
  0
CIRCLE
  5
19593
  8
SJC
 10
2202.0008842874922
 20
2035.69276482225
 30
0.0
 40
0.5
  0
CIRCLE
  5
19594
  8
SJC
 10
2187.1050051043449
 20
2056.1951836194571
 30
0.0
 40
0.5
  0
CIRCLE
  5
19595
  8
SJC
 10
2177.4399612639249
 20
2064.4499108877171
 30
0.0
 40
0.5
  0
CIRCLE
  5
19596
  8
SJC
 10
2166.6025863071382
 20
2071.0910628026049
 30
0.0
 40
0.5
  0
CIRCLE
  5
19597
  8
SJC
 10
2142.5005474964942
 20
2078.9222899315532
 30
0.0
 40
0.5
  0
CIRCLE
  5
19598
  8
SJC
 10
2154.8597323726049
 20
2075.9551121632539
 30
0.0
 40
0.5
  0
TEXT
  5
19599
  8
MOJI2
 10
1939.9569878507409
 20
1810.628222164534
 30
0.0
 40
40.0
  1
A-A 断面図 S=1/5
 41
0.8
  7
EXT08
  0
LINE
  5
1959A
  8
SJC
 10
1926.240693278394
 20
1791.8369962181021
 30
0.0
 11
2363.2692647069662
 21
1791.8369962181021
 31
0.0
  0
TEXT
  5
1959B
  8
SUNPOU
 10
1864.1372512987709
 20
2127.8585301585672
 30
0.0
 40
30.0
  1
ガラス繊維
 41
0.8
  7
EXT08
  0
TEXT
  5
1959C
  8
SUNPOU
 10
2187.853176878521
 20
2158.3835713803919
 30
0.0
 40
30.0
  1
リサイクル原料
 41
0.8
  7
EXT08
  0
INSERT
  5
1959D
  8
0
  2
*U29
 10
0.0
 20
0.0
 30
0.0
1001
ACAD
1000
DSTYLE
1002
{
1070
    41
1040
2.0
1070
    77
1070
     0
1070
    40
1040
10.0
1070
   147
1040
1.1999999999999991
1070
   176
1070
     0
1070
   177
1070
     0
1070
   178
1070
     0
1070
   179
1070
     2
1070
   271
1070
     2
1002
}
  0
INSERT
  5
1959E
  8
0
  2
*U30
 10
0.0
 20
0.0
 30
0.0
1001
ACAD
1000
DSTYLE
1002
{
1070
    41
1040
2.0
1070
    77
1070
     0
1070
    40
1040
10.0
1070
   147
1040
1.1999999999999991
1070
   176
1070
     0
1070
   177
1070
     0
1070
   178
1070
     0
1070
   179
1070
     2
1070
   271
1070
     2
1002
}
  0
TEXT
  5
1959F
  8
SUNPOU
 10
2228.377861442365
 20
2103.3981399343788
 30
0.0
 40
30.0
  1
(内層材)
 41
0.8
  7
EXT08
  0
LINE
  5
195A0
  8
SUNPOU
 10
2003.829355828231
 20
136.50717853680629
 30
0.0
 11
2099.8293558282348
 21
136.50717853680541
 31
0.0
  0
LINE
  5
195A1
  8
SUNPOU
 10
2099.8293558282348
 20
166.5071785368045
 30
0.0
 11
2159.8293558282348
 21
106.5071785368045
 31
0.0
  0
LINE
  5
195A2
  8
SUNPOU
 10
2911.978662656893
 20
136.50717853680541
 30
0.0
 11
2911.978662656893
 21
106.5071785368045
 31
0.0
  0
LINE
  5
195A3
  8
SUNPOU
 10
2851.978662656893
 20
166.5071785368045
 30
0.0
 11
2851.978662656893
 21
136.50717853680541
 31
0.0
  0
LINE
  5
195A4
  8
SUNPOU
 10
3007.9786626568971
 20
136.50717853680629
 30
0.0
 11
2911.978662656893
 21
136.50717853680541
 31
0.0
  0
LINE
  5
195A5
  8
SUNPOU
 10
2755.9786626568898
 20
136.50717853680629
 30
0.0
 11
2851.978662656893
 21
136.50717853680541
 31
0.0
  0
LINE
  5
195A6
  8
SUNPOU
 10
2851.978662656893
 20
166.5071785368045
 30
0.0
 11
2911.978662656893
 21
106.5071785368045
 31
0.0
  0
TEXT
  5
195A7
  8
SUNPOU
 10
1944.4097130482569
 20
257.36773124331188
 30
0.0
 40
30.0
  1
A
 41
0.8
  7
EXT08
  0
TEXT
  5
195A8
  8
SUNPOU
 10
2289.409713048256
 20
257.36773124331188
 30
0.0
 40
30.0
  1
A
 41
0.8
  7
EXT08
  0
LINE
  5
195A9
  8
SUNPOU
 10
2287.3293558281571
 20
212.82205533425989
 30
0.0
 11
2317.3293558281571
 21
212.82205533425989
 31
0.0
  0
LINE
  5
195AA
  8
SUNPOU
 10
2317.3293558281571
 20
212.82205533425989
 30
0.0
 11
2302.3293558281571
 21
177.8220553342598
 31
0.0
  0
LINE
  5
195AB
  8
SUNPOU
 10
2302.3293558281571
 20
177.8220553342598
 30
0.0
 11
2302.3293558281571
 21
236.9407938884533
 31
0.0
  0
LINE
  5
195AC
  8
SUNPOU
 10
2302.3293558281571
 20
236.9407938884533
 30
0.0
 11
1957.3293558281559
 21
236.9407938884533
 31
0.0
  0
LINE
  5
195AD
  8
SUNPOU
 10
1957.3293558281559
 20
236.9407938884533
 30
0.0
 11
1957.3293558281559
 21
177.8220553342598
 31
0.0
  0
LINE
  5
195AE
  8
SUNPOU
 10
1957.3293558281559
 20
177.8220553342598
 30
0.0
 11
1942.3293558281571
 21
212.82205533425989
 31
0.0
  0
LINE
  5
195AF
  8
SUNPOU
 10
1942.3293558281571
 20
212.82205533425989
 30
0.0
 11
1972.3293558281559
 21
212.82205533425989
 31
0.0
  0
TEXT
  5
195B0
  8
MOJI2
 10
2303.1977054387039
 20
101.4561788148949
 30
0.0
 40
40.0
  1
標示部詳細 S=1/5
 41
0.8
  7
EXT08
 72
     1
 11
2488.7977054387038
 21
101.4561788148949
 31
0.0
 73
     1
  0
LINE
  5
195B1
  8
MOJI2
 10
2299.8594544957082
 20
86.456178814894884
 30
0.0
 11
2699.6263558924552
 21
86.456178814894884
 31
0.0
  0
DIMENSION
  5
195B2
  8
SUNPOU
  2
*D13
 10
1890.500388950458
 20
916.50717853680544
 30
0.0
 11
1863.500388950458
 21
1226.5071785368059
 31
0.0
 70
     0
 13
1993.829355828233
 23
1536.507178536805
 33
0.0
 14
1993.8293558282371
 24
916.50717853680544
 34
0.0
 50
90.0
1001
ACAD
1000
DSTYLE
1002
{
1070
   287
1070
     5
1070
   144
1040
0.5
1070
    40
1040
10.0
1070
    41
1040
2.0
1070
    42
1040
1.0
1070
    43
1040
6.0
1070
    44
1040
1.0
1070
    73
1070
     0
1070
    74
1070
     0
1070
    77
1070
     1
1070
    78
1070
     8
1070
   140
1040
3.0
1070
   147
1040
1.1999999999999991
1070
   172
1070
     1
1070
   179
1070
     2
1070
   271
1070
     2
1070
   279
1070
     2
1070
   340
1005
55
1002
}
  0
DIMENSION
  5
195B3
  8
SUNPOU
  2
*D14
 10
2289.8293558282398
 20
1699.019615007488
 30
0.0
 11
2129.8293558282371
 21
1726.019615007488
 31
0.0
 70
     0
 13
1969.829355828233
 23
1512.507178536805
 33
0.0
 14
2289.8293558282398
 24
1512.507178536805
 34
0.0
1001
ACAD
1000
DSTYLE
1002
{
1070
   287
1070
     5
1070
   144
1040
0.5
1070
    40
1040
10.0
1070
    41
1040
2.0
1070
    42
1040
1.0
1070
    43
1040
6.0
1070
    44
1040
1.0
1070
    73
1070
     0
1070
    74
1070
     0
1070
    77
1070
     1
1070
    78
1070
     8
1070
   140
1040
3.0
1070
   147
1040
1.1999999999999991
1070
   172
1070
     1
1070
   179
1070
     2
1070
   271
1070
     2
1070
   279
1070
     2
1070
   340
1005
55
1002
}
  0
DIMENSION
  5
195B6
  8
SUNPOU
  2
*D15
 10
1979.829355828236
 20
1280.1788519081931
 30
0.0
 11
1949.30823992303
 21
1307.058261573733
 31
0.0
 70
   128
 13
1969.8293558282351
 23
1236.507178536805
 33
0.0
 14
1979.829355828236
 24
1236.507178536805
 34
0.0
1001
ACAD
1000
DSTYLE
1002
{
1070
   287
1070
     5
1070
   144
1040
0.5
1070
    40
1040
10.0
1070
    41
1040
2.0
1070
    42
1040
1.0
1070
    43
1040
6.0
1070
    44
1040
1.0
1070
    73
1070
     0
1070
    74
1070
     0
1070
    77
1070
     1
1070
    78
1070
     8
1070
   140
1040
3.0
1070
   147
1040
1.1999999999999991
1070
   172
1070
     1
1070
   179
1070
     2
1070
   271
1070
     2
1070
   279
1070
     2
1070
   340
1005
55
1002
}
  0
DIMENSION
  5
195B9
  8
SUNPOU
  2
*D16
 10
2776.9786626568889
 20
1645.1350931014349
 30
0.0
 11
2751.7326096840852
 21
1675.1259537178451
 31
0.0
 70
   128
 13
2788.9786626568889
 23
1532.5071785368109
 33
0.0
 14
2776.9786626568889
 24
1532.507178536805
 34
0.0
1001
ACAD
1000
DSTYLE
1002
{
1070
   287
1070
     5
1070
   144
1040
0.5
1070
    40
1040
10.0
1070
    41
1040
2.0
1070
    42
1040
1.0
1070
    43
1040
6.0
1070
    44
1040
1.0
1070
    73
1070
     0
1070
    74
1070
     0
1070
    77
1070
     1
1070
    78
1070
     8
1070
   140
1040
3.0
1070
   147
1040
1.1999999999999991
1070
   172
1070
     1
1070
   179
1070
     2
1070
   271
1070
     2
1070
   279
1070
     2
1070
   340
1005
55
1002
}
  0
LINE
  5
195BA
  8
CENTER
 10
2881.9786626583732
 20
1507.507178536772
 30
0.0
 11
2881.9786626583659
 21
1489.507178536772
 31
0.0
  0
CIRCLE
  5
195BB
  8
SJC
 10
2881.9786626583691
 20
1498.507178536772
 30
0.0
 40
9.0
  0
CIRCLE
  5
195BC
  8
SJC
 10
2881.9786626583691
 20
1498.507178536772
 30
0.0
 40
8.0
  0
LINE
  5
195BD
  8
SJC2
 10
2881.1275988285811
 20
1504.464625345282
 30
0.0
 11
2882.8297264881562
 21
1504.464625345282
 31
0.0
  0
LINE
  5
195BE
  8
SJC2
 10
2887.9361094668802
 20
1499.358242366558
 30
0.0
 11
2887.9361094668802
 21
1497.6561147069831
 31
0.0
  0
LINE
  5
195BF
  8
SJC2
 10
2876.021215849858
 20
1499.358242366558
 30
0.0
 11
2876.021215849858
 21
1497.6561147069831
 31
0.0
  0
LINE
  5
195C0
  8
SJC2
 10
2881.1275988285811
 20
1492.5497317282609
 30
0.0
 11
2882.8297264881562
 21
1492.5497317282609
 31
0.0
  0
ARC
  5
195C1
  8
SJC2
 10
2887.9361094668802
 20
1492.5497317282609
 30
0.0
 40
5.1063829787233539
 50
90.0
 51
180.0
  0
ARC
  5
195C2
  8
SJC2
 10
2876.021215849858
 20
1492.5497317282609
 30
0.0
 40
5.1063829787233539
 50
0.0
 51
90.0
  0
ARC
  5
195C3
  8
SJC2
 10
2887.9361094668802
 20
1504.464625345282
 30
0.0
 40
5.1063829787233539
 50
180.0
 51
270.0
  0
ARC
  5
195C4
  8
SJC2
 10
2876.021215849858
 20
1504.464625345282
 30
0.0
 40
5.1063829787233539
 50
270.0
 51
0.0
  0
LINE
  5
195D1
  8
CENTER
 10
2881.9786626600721
 20
963.50717853681272
 30
0.0
 11
2881.9786626600671
 21
945.50717853681283
 31
0.0
  0
LINE
  5
195D2
  8
CENTER
 10
2890.9786626600699
 20
954.50717853680987
 30
0.0
 11
2872.9786626600699
 21
954.50717853681545
 31
0.0
  0
LINE
  5
195D3
  8
CENTER
 10
2881.9786626600721
 20
963.50717853681272
 30
0.0
 11
2881.9786626600671
 21
945.50717853681283
 31
0.0
  0
LINE
  5
195D4
  8
CENTER
 10
2881.978662660073
 20
963.50717853681272
 30
0.0
 11
2881.9786626600649
 21
945.50717853681283
 31
0.0
  0
CIRCLE
  5
195D5
  8
SJC
 10
2881.9786626600689
 20
954.50717853681272
 30
0.0
 40
9.0
  0
CIRCLE
  5
195D6
  8
SJC
 10
2881.9786626600689
 20
954.50717853681272
 30
0.0
 40
8.0
  0
LINE
  5
195D7
  8
SJC2
 10
2881.1275988302809
 20
960.46462534532282
 30
0.0
 11
2882.8297264898561
 21
960.46462534532282
 31
0.0
  0
LINE
  5
195D8
  8
SJC2
 10
2887.9361094685801
 20
955.35824236659926
 30
0.0
 11
2887.9361094685801
 21
953.65611470702424
 31
0.0
  0
LINE
  5
195D9
  8
SJC2
 10
2876.0212158515578
 20
955.35824236659926
 30
0.0
 11
2876.0212158515578
 21
953.65611470702424
 31
0.0
  0
LINE
  5
195DA
  8
SJC2
 10
2881.1275988302809
 20
948.5497317283025
 30
0.0
 11
2882.8297264898561
 21
948.5497317283025
 31
0.0
  0
ARC
  5
195DB
  8
SJC2
 10
2887.9361094685801
 20
948.5497317283025
 30
0.0
 40
5.1063829787233539
 50
90.0
 51
180.0
  0
ARC
  5
195DC
  8
SJC2
 10
2876.0212158515578
 20
948.5497317283025
 30
0.0
 40
5.1063829787233539
 50
0.0
 51
90.0
  0
ARC
  5
195DD
  8
SJC2
 10
2887.9361094685801
 20
960.46462534532282
 30
0.0
 40
5.1063829787233539
 50
180.0
 51
270.0
  0
ARC
  5
195DE
  8
SJC2
 10
2876.0212158515578
 20
960.46462534532282
 30
0.0
 40
5.1063829787233539
 50
270.0
 51
0.0
  0
TEXT
  5
195DF
  8
MOJI
 10
3459.9976583548141
 20
2234.465333444974
 30
0.0
 40
30.0
  1
黒 色
 41
0.8
  7
EXT08
 72
     4
 11
3492.7976583548138
 21
2249.465333444974
 31
0.0
  0
TEXT
  5
195E1
  8
MOJI
 10
2622.014451985955
 20
2041.9047310381529
 30
0.0
 40
30.0
  1
固定ビス
 41
0.8
  7
EXT08
 72
     4
 11
2675.6144519859549
 21
2056.9047310381529
 31
0.0
  0
TEXT
  5
197B2
  8
SUNPOU
 10
755.97227989972725
 20
1594.137048765059
 30
0.0
 40
30.0
  1
ポリエチレン樹脂＋ガラス繊維
 41
0.8
  7
EXT08
  0
TEXT
  5
197B5
  8
SUNPOU
 10
755.97227989972725
 20
1634.7229325140279
 30
0.0
 40
30.0
  1
支柱（\U+03c689\U+00d7ｔ6）
 41
0.8
  7
EXT08
  0
INSERT
  5
197E7
  8
0
  2
*U31
 10
0.0
 20
0.0
 30
0.0
1001
ACAD
1000
DSTYLE
1002
{
1070
   140
1040
30.0
1070
   144
1040
0.5
1070
   147
1040
15.0
1070
    42
1040
10.0
1070
    44
1040
10.0
1070
    43
1040
60.0
1070
    41
1040
20.0
1002
}
  0
LINE
  5
197EB
  8
SUNPOU
 10
753.49609912365031
 20
1628.9649120219169
 30
0.0
 11
1154.0854528668019
 21
1628.9649120219169
 31
0.0
1001
ACAD
1000
DSTYLE
1002
{
1070
    77
1070
     0
1070
    40
1040
10.0
1070
   147
1040
1.1999999999999991
1070
   176
1070
     0
1070
   177
1070
     0
1070
   178
1070
     0
1070
   179
1070
     2
1070
   271
1070
     2
1002
}
  0
TEXT
  5
197EC
  8
SUNPOU
 10
1530.993403573935
 20
2372.8981624854191
 30
0.0
 40
30.0
  1
ポリエチレン樹脂
 41
0.8
  7
EXT08
  0
LINE
  5
197ED
  8
SUNPOU
 10
1528.517222797858
 20
2407.7260257422781
 30
0.0
 11
1760.098339394586
 21
2407.7260257422781
 31
0.0
1001
ACAD
1000
DSTYLE
1002
{
1070
    77
1070
     0
1070
    40
1040
10.0
1070
   147
1040
1.1999999999999991
1070
   176
1070
     0
1070
   177
1070
     0
1070
   178
1070
     0
1070
   179
1070
     2
1070
   271
1070
     2
1002
}
  0
TEXT
  5
197EE
  8
SUNPOU
 10
1530.993403573935
 20
2413.4840462343891
 30
0.0
 40
30.0
  1
キャップ
 41
0.8
  7
EXT08
  0
TEXT
  5
197F9
  8
SUNPOU
 10
880.98837051830287
 20
2202.9094923024072
 30
0.0
 40
30.0
  1
ＣＲゴム
 41
0.8
  7
EXT08
  0
LINE
  5
197FA
  8
SUNPOU
 10
878.51218974222593
 20
2237.7373555592649
 30
0.0
 11
1136.4263568625629
 21
2237.7373555592649
 31
0.0
1001
ACAD
1000
DSTYLE
1002
{
1070
    77
1070
     0
1070
    40
1040
10.0
1070
   147
1040
1.1999999999999991
1070
   176
1070
     0
1070
   177
1070
     0
1070
   178
1070
     0
1070
   179
1070
     2
1070
   271
1070
     2
1002
}
  0
TEXT
  5
197FB
  8
SUNPOU
 10
880.98837051830287
 20
2243.4953760513758
 30
0.0
 40
30.0
  1
弾性サイン板（小）
 41
0.8
  7
EXT08
  0
INSERT
  5
197FC
  8
0
  2
*U32
 10
0.0
 20
0.0
 30
0.0
1001
ACAD
1000
DSTYLE
1002
{
1070
   140
1040
30.0
1070
   144
1040
0.5
1070
   147
1040
15.0
1070
    42
1040
10.0
1070
    44
1040
10.0
1070
    43
1040
60.0
1070
    41
1040
20.0
1002
}
  0
TEXT
  5
197FD
  8
SUNPOU
 10
1562.145127545431
 20
2246.0641352699831
 30
0.0
 40
30.0
  1
カプセルレンズ型反射シート
 41
0.8
  7
EXT08
  0
LINE
  5
197FE
  8
SUNPOU
 10
1559.6689467693541
 20
2280.8919985268421
 30
0.0
 11
1937.960449213693
 21
2280.8919985268421
 31
0.0
1001
ACAD
1000
DSTYLE
1002
{
1070
    77
1070
     0
1070
    40
1040
10.0
1070
   147
1040
1.1999999999999991
1070
   176
1070
     0
1070
   177
1070
     0
1070
   178
1070
     0
1070
   179
1070
     2
1070
   271
1070
     2
1002
}
  0
TEXT
  5
197FF
  8
SUNPOU
 10
1562.145127545431
 20
2286.6500190189531
 30
0.0
 40
30.0
  1
反射材
 41
0.8
  7
EXT08
  0
TEXT
  5
19888
  8
SUNPOU
 10
755.97227989972725
 20
924.32333233469899
 30
0.0
 40
30.0
  1
A6063S-T5
 41
0.8
  7
EXT08
  0
LINE
  5
19889
  8
SUNPOU
 10
753.49609912365031
 20
959.1511955915571
 30
0.0
 11
1016.369036365264
 21
959.1511955915571
 31
0.0
1001
ACAD
1000
DSTYLE
1002
{
1070
    77
1070
     0
1070
    40
1040
10.0
1070
   147
1040
1.1999999999999991
1070
   176
1070
     0
1070
   177
1070
     0
1070
   178
1070
     0
1070
   179
1070
     2
1070
   271
1070
     2
1002
}
  0
TEXT
  5
1988A
  8
SUNPOU
 10
755.97227989972725
 20
964.90921608366853
 30
0.0
 40
30.0
  1
芯材（\U+03c675\U+00d7ｔ2）
 41
0.8
  7
EXT08
  0
INSERT
  5
1988B
  8
0
  2
*U33
 10
0.0
 20
0.0
 30
0.0
1001
ACAD
1000
DSTYLE
1002
{
1070
   140
1040
30.0
1070
   144
1040
0.5
1070
   147
1040
15.0
1070
    42
1040
10.0
1070
    44
1040
10.0
1070
    43
1040
60.0
1070
    41
1040
20.0
1002
}
  0
LINE
  5
1988E
  8
HASEN
 10
725.14738174554077
 20
1787.588898764541
 30
0.0
 11
725.14738174554066
 21
487.58889876454111
 31
0.0
  0
LINE
  5
1988F
  8
HASEN
 10
650.14738174554077
 20
1787.588898764541
 30
0.0
 11
650.14738174554066
 21
487.58889876454111
 31
0.0
  0
LINE
  5
1989A
  8
HASEN
 10
1379.3632148796351
 20
1787.588898764541
 30
0.0
 11
1379.3632148796351
 21
487.58889876454111
 31
0.0
  0
LINE
  5
1989B
  8
HASEN
 10
1454.3632148796351
 20
1787.5888987645401
 30
0.0
 11
1454.3632148796351
 21
487.58889876454111
 31
0.0
  0
CIRCLE
  5
19901
  8
SJC
 10
1416.8632148796351
 20
2268.5888987645249
 30
0.0
 40
4.0
  0
LINE
  5
19902
  8
SJC2
 10
1416.4376829647399
 20
2271.56762216878
 30
0.0
 11
1417.2887467945279
 21
2271.56762216878
 31
0.0
  0
LINE
  5
19903
  8
SJC2
 10
1419.8419382838899
 20
2269.0144306794182
 30
0.0
 11
1419.8419382838899
 21
2268.1633668496311
 31
0.0
  0
LINE
  5
19904
  8
SJC2
 10
1413.884491475379
 20
2269.0144306794182
 30
0.0
 11
1413.884491475379
 21
2268.1633668496311
 31
0.0
  0
LINE
  5
19905
  8
SJC2
 10
1416.4376829647399
 20
2265.6101753602702
 30
0.0
 11
1417.2887467945279
 21
2265.6101753602702
 31
0.0
  0
ARC
  5
19906
  8
SJC2
 10
1419.8419382838899
 20
2265.6101753602702
 30
0.0
 40
2.5531914893616769
 50
90.0
 51
180.0
  0
ARC
  5
19907
  8
SJC2
 10
1413.884491475379
 20
2265.6101753602702
 30
0.0
 40
2.5531914893616769
 50
0.0
 51
90.0
  0
ARC
  5
19908
  8
SJC2
 10
1419.8419382838899
 20
2271.56762216878
 30
0.0
 40
2.5531914893616769
 50
180.0
 51
270.0
  0
ARC
  5
19909
  8
SJC2
 10
1413.884491475379
 20
2271.56762216878
 30
0.0
 40
2.5531914893616769
 50
270.0
 51
0.0
  0
CIRCLE
  5
19913
  8
SJC
 10
1416.8632148788961
 20
1996.588898764543
 30
0.0
 40
4.0
  0
LINE
  5
19914
  8
SJC2
 10
1416.4376829640021
 20
1999.5676221687991
 30
0.0
 11
1417.2887467937901
 21
1999.5676221687991
 31
0.0
  0
LINE
  5
19915
  8
SJC2
 10
1419.841938283151
 20
1997.0144306794371
 30
0.0
 11
1419.841938283151
 21
1996.163366849649
 31
0.0
  0
LINE
  5
19916
  8
SJC2
 10
1413.8844914746401
 20
1997.0144306794371
 30
0.0
 11
1413.8844914746401
 21
1996.163366849649
 31
0.0
  0
LINE
  5
19917
  8
SJC2
 10
1416.4376829640021
 20
1993.6101753602879
 30
0.0
 11
1417.2887467937901
 21
1993.6101753602879
 31
0.0
  0
ARC
  5
19918
  8
SJC2
 10
1419.841938283151
 20
1993.6101753602879
 30
0.0
 40
2.5531914893616769
 50
90.0
 51
180.0
  0
ARC
  5
19919
  8
SJC2
 10
1413.8844914746401
 20
1993.6101753602879
 30
0.0
 40
2.5531914893616769
 50
0.0
 51
90.0
  0
ARC
  5
1991A
  8
SJC2
 10
1419.841938283151
 20
1999.5676221687991
 30
0.0
 40
2.5531914893616769
 50
180.0
 51
270.0
  0
ARC
  5
1991B
  8
SJC2
 10
1413.8844914746401
 20
1999.5676221687991
 30
0.0
 40
2.5531914893616769
 50
270.0
 51
0.0
  0
DIMENSION
  5
19E02
  8
SUNPOU
  2
*D17
 10
731.39738174553713
 20
2378.5770522596099
 30
0.0
 11
687.64738174553804
 21
2408.2615786987681
 31
0.0
 70
   128
  1
φ89
 13
643.89738174553895
 23
2327.588898764544
 33
0.0
 14
731.39738174553713
 24
2327.5888987645458
 34
0.0
1001
ACAD
1000
DSTYLE
1002
{
1070
   287
1070
     5
1070
    40
1040
10.0
1070
    41
1040
2.0
1070
    42
1040
1.0
1070
    43
1040
6.0
1070
    44
1040
1.0
1070
    73
1070
     0
1070
    74
1070
     0
1070
    77
1070
     1
1070
    78
1070
     8
1070
   140
1040
3.0
1070
   147
1040
1.1999999999999991
1070
   172
1070
     1
1070
   179
1070
     2
1070
   271
1070
     2
1070
   279
1070
     2
1070
   340
1005
55
1002
}
  0
INSERT
  5
19E4B
  8
0
  2
*U34
 10
0.0
 20
0.0
 30
0.0
1001
ACAD
1000
DSTYLE
1002
{
1070
   140
1040
30.0
1070
   144
1040
0.5
1070
   147
1040
15.0
1070
    42
1040
10.0
1070
    44
1040
10.0
1070
    43
1040
60.0
1070
    41
1040
20.0
1002
}
  0
LINE
  5
19E4C
  8
SUNPOU
 10
438.226686468678
 20
886.48187799893014
 30
0.0
 11
556.89700559416815
 21
886.48187799893014
 31
0.0
1001
ACAD
1000
DSTYLE
1002
{
1070
    77
1070
     0
1070
    40
1040
10.0
1070
   147
1040
1.1999999999999991
1070
   176
1070
     0
1070
   177
1070
     0
1070
   178
1070
     0
1070
   179
1070
     2
1070
   271
1070
     2
1002
}
  0
TEXT
  5
19E4D
  8
SUNPOU
 10
440.702867244755
 20
892.23989849104134
 30
0.0
 40
30.0
  1
ネカセ棒
 41
0.8
  7
EXT08
  0
INSERT
  5
1A148
  8
0
  2
*U35
 10
0.0
 20
0.0
 30
0.0
1001
ACAD
1000
DSTYLE
1002
{
1070
     5
1000

1070
    40
1040
10.0
1070
    41
1040
2.0
1070
    42
1040
1.0
1070
    43
1040
6.0
1070
    44
1040
1.0
1070
    73
1070
     0
1070
    74
1070
     0
1070
    77
1070
     1
1070
    78
1070
     8
1070
   140
1040
3.0
1070
   144
1040
0.5
1070
   147
1040
1.1999999999999991
1070
   172
1070
     1
1070
   176
1070
   256
1070
   177
1070
   256
1070
   178
1070
   256
1070
   271
1070
     0
1070
   287
1070
     5
1070
   340
1005
55
1070
   342
1005
0
1002
}
  0
TEXT
  5
1A74E
  8
SUNPOU
 10
3021.89119667261
 20
1527.2867842010789
 30
0.0
 40
30.0
  1
SUS410
 41
0.8
  7
EXT08
  0
LINE
  5
1A74F
  8
SUNPOU
 10
3019.4150158965331
 20
1562.1146474579371
 30
0.0
 11
3178.643092849768
 21
1562.1146474579371
 31
0.0
1001
ACAD
1000
DSTYLE
1002
{
1070
    77
1070
     0
1070
    40
1040
10.0
1070
   147
1040
1.1999999999999991
1070
   176
1070
     0
1070
   177
1070
     0
1070
   178
1070
     0
1070
   179
1070
     2
1070
   271
1070
     2
1002
}
  0
TEXT
  5
1A750
  8
SUNPOU
 10
3028.2828573429242
 20
1567.872667950048
 30
0.0
 40
30.0
  1
固定ビス
 41
0.8
  7
EXT08
  0
LINE
  5
1A821
  8
HATCH
 10
750.64059495548986
 20
642.08889876454123
 30
0.0
 11
837.64738174554066
 21
729.0956855545918
 31
0.0
  0
LINE
  5
1A822
  8
HATCH
 10
762.64738174554077
 20
636.41801605459204
 30
0.0
 11
837.64738174554066
 21
711.41801605459204
 31
0.0
  0
LINE
  5
1A823
  8
HATCH
 10
626.89690817750875
 20
642.08889876454145
 30
0.0
 11
643.89738174554077
 21
659.08937233257348
 31
0.0
  0
LINE
  5
1A9C2
  8
SJC
 10
1400.3632148795421
 20
2255.0225270829969
 30
0.0
 11
1400.3632148796551
 21
2010.155270446071
 31
0.0
  0
LINE
  5
1A9C4
  8
SJC
 10
2848.978662656707
 20
1471.3744351737171
 30
0.0
 11
2848.978662656928
 21
981.63992189986811
 31
0.0
  0
LINE
  5
1AACB
  8
SJC
 10
619.64738174553975
 20
1972.5888987645401
 30
0.0
 11
755.6473817455435
 21
1972.588898764541
 31
0.0
  0
LINE
  5
1AACC
  8
SJC
 10
619.64738174554168
 20
1672.588898764541
 30
0.0
 11
755.64738174554157
 21
1672.588898764541
 31
0.0
  0
LINE
  5
1AACD
  8
SJC
 10
612.64738174553975
 20
1965.588898764541
 30
0.0
 11
612.64738174554145
 21
1679.588898764541
 31
0.0
  0
LINE
  5
1AACE
  8
SJC
 10
762.64738174554338
 20
1965.588898764541
 30
0.0
 11
762.64738174554168
 21
1679.588898764541
 31
0.0
  0
LINE
  5
1AACF
  8
SJC
 10
607.64738174553975
 20
1965.588898764541
 30
0.0
 11
607.64738174554088
 21
1679.588898764541
 31
0.0
  0
ARC
  5
1AAD0
  8
SJC
 10
619.64738174553975
 20
1965.588898764541
 30
0.0
 40
12.0
 50
90.0
 51
180.0
  0
ARC
  5
1AAD1
  8
SJC
 10
619.64738174553975
 20
1965.588898764541
 30
0.0
 40
7.0
 50
90.0
 51
180.0
  0
LINE
  5
1AAD2
  8
SJC
 10
767.6473817455435
 20
1965.588898764541
 30
0.0
 11
767.64738174554225
 21
1679.588898764541
 31
0.0
  0
ARC
  5
1AAD3
  8
SJC
 10
755.64738174554157
 20
1679.588898764541
 30
0.0
 40
12.0
 50
270.0
 51
0.0
  0
ARC
  5
1AAD4
  8
SJC
 10
755.64738174554157
 20
1679.588898764541
 30
0.0
 40
7.0
 50
270.0
 51
0.0
  0
ARC
  5
1AAD5
  8
SJC
 10
755.6473817455435
 20
1965.588898764541
 30
0.0
 40
12.0
 50
0.0
 51
90.0
  0
ARC
  5
1AAD6
  8
SJC
 10
755.6473817455435
 20
1965.588898764541
 30
0.0
 40
7.0
 50
0.0
 51
90.0
  0
ARC
  5
1AAD7
  8
SJC
 10
619.64738174554168
 20
1679.588898764541
 30
0.0
 40
12.0
 50
180.0
 51
270.0
  0
ARC
  5
1AAD8
  8
SJC
 10
619.64738174554168
 20
1679.588898764541
 30
0.0
 40
7.0
 50
180.0
 51
270.0
  0
LINE
  5
1AAD9
  8
SJC
 10
755.6473817455435
 20
1977.588898764541
 30
0.0
 11
619.64738174553975
 21
1977.588898764541
 31
0.0
  0
LINE
  5
1AADA
  8
SJC
 10
755.64738174554157
 20
1667.588898764541
 30
0.0
 11
619.64738174554168
 21
1667.588898764541
 31
0.0
  0
DIMENSION
  5
1AADC
  8
SUNPOU
  2
*D18
 10
533.71736719745945
 20
1667.588898764541
 30
0.0
 11
506.71736719745923
 21
1822.588898764541
 31
0.0
 70
     0
 13
619.64738174553963
 23
1977.588898764541
 33
0.0
 14
619.64738174554145
 24
1667.588898764541
 34
0.0
 50
90.0
1001
ACAD
1000
DSTYLE
1002
{
1070
   287
1070
     5
1070
    40
1040
10.0
1070
    41
1040
2.0
1070
    42
1040
1.0
1070
    43
1040
6.0
1070
    44
1040
1.0
1070
    73
1070
     0
1070
    74
1070
     0
1070
    77
1070
     1
1070
    78
1070
     8
1070
   140
1040
3.0
1070
   147
1040
1.1999999999999991
1070
   172
1070
     1
1070
   179
1070
     2
1070
   271
1070
     2
1070
   279
1070
     2
1070
   340
1005
55
1002
}
  0
LINE
  5
1AB26
  8
SJC
 10
1361.3632148796351
 20
1973.0888987647891
 30
0.0
 11
1361.3632148796351
 21
1669.588898764539
 31
0.0
  0
LINE
  5
1AB27
  8
SJC
 10
1368.3632148796321
 20
1977.588898764556
 30
0.0
 11
1363.3632148797451
 21
1977.588898764556
 31
0.0
  0
ARC
  5
1AB28
  8
SJC
 10
1368.363214879633
 20
1975.588898764556
 30
0.0
 40
2.0
 50
0.0000000000260551
 51
90.0
  0
ARC
  5
1AB29
  8
SJC
 10
1363.363214879633
 20
1975.588898764556
 30
0.0
 40
2.0
 50
90.0
 51
180.00000000001299
  0
LINE
  5
1AB2A
  8
SJC
 10
1361.363214879633
 20
1975.588898764554
 30
0.0
 11
1361.3632148796351
 21
1973.088898764554
 31
0.0
  0
LINE
  5
1AB2B
  8
SJC
 10
1370.363214879633
 20
1975.5888987645581
 30
0.0
 11
1370.3632148797001
 21
1669.588898764538
 31
0.0
  0
LINE
  5
1AB2C
  8
SJC
 10
1426.8632148803749
 20
1972.588898764534
 30
0.0
 11
1426.863214880369
 21
1955.501171006073
 31
0.0
  0
ARC
  5
1AB2D
  8
SJC
 10
1421.8632148803749
 20
1972.588898764536
 30
0.0
 40
5.0
 50
359.99999999997402
 51
90.0
  0
LINE
  5
1AB2E
  8
SJC
 10
1421.863214880377
 20
1977.5888987645401
 30
0.0
 11
1367.3632148803781
 21
1977.588898764556
 31
0.0
  0
LINE
  5
1AB2F
  8
CENTER
 10
1416.863214880374
 20
1963.088898764538
 30
0.0
 11
1416.863214880372
 21
1954.088898764538
 31
0.0
  0
LINE
  5
1AB30
  8
CENTER
 10
1421.3632148803731
 20
1958.588898764536
 30
0.0
 11
1412.3632148803731
 21
1958.588898764539
 31
0.0
  0
CIRCLE
  5
1AB31
  8
SJC
 10
1416.8632148803731
 20
1958.588898764538
 30
0.0
 40
4.5
  0
LINE
  5
1AB32
  8
SJC
 10
1361.3632148796351
 20
1973.088898764554
 30
0.0
 11
1361.3632148796351
 21
1669.588898764539
 31
0.0
  0
LINE
  5
1AB33
  8
SJC
 10
1423.065784744751
 20
1950.6479426247529
 30
0.0
 11
1370.3632148796439
 21
1937.588898764556
 31
0.0
  0
ARC
  5
1AB34
  8
SJC
 10
1421.863214880369
 20
1955.501171006076
 30
0.0
 40
5.0
 50
283.9168774331053
 51
359.99999999997402
  0
LINE
  5
1AB35
  8
SJC
 10
1368.363214879744
 20
1667.588898764538
 30
0.0
 11
1364.363214879744
 21
1667.588898764539
 31
0.0
  0
ARC
  5
1AB36
  8
SJC
 10
1368.3632148797451
 20
1669.588898764538
 30
0.0
 40
2.0
 50
270.0
 51
359.99999999997402
  0
ARC
  5
1AB37
  8
SJC
 10
1363.3632148797451
 20
1669.588898764539
 30
0.0
 40
2.0
 50
179.99999999998701
 51
270.0
  0
LINE
  5
1AB38
  8
SJC
 10
1361.3632148797451
 20
1669.5888987645401
 30
0.0
 11
1361.3632148797469
 21
1672.0888987645401
 31
0.0
  0
LINE
  5
1AB39
  8
SJC
 10
1426.863214880487
 20
1672.5888987645601
 30
0.0
 11
1426.8632148804811
 21
1689.6766265230201
 31
0.0
  0
ARC
  5
1AB3A
  8
SJC
 10
1421.863214880487
 20
1672.5888987645581
 30
0.0
 40
5.0
 50
270.0
 51
0.0000000000260551
  0
LINE
  5
1AB3B
  8
SJC
 10
1421.8632148804891
 20
1667.5888987645551
 30
0.0
 11
1367.36321488049
 21
1667.588898764538
 31
0.0
  0
LINE
  5
1AB3C
  8
CENTER
 10
1416.8632148804861
 20
1682.088898764556
 30
0.0
 11
1416.8632148804829
 21
1691.088898764556
 31
0.0
  0
LINE
  5
1AB3D
  8
CENTER
 10
1421.363214880485
 20
1686.5888987645581
 30
0.0
 11
1412.363214880485
 21
1686.5888987645551
 31
0.0
  0
CIRCLE
  5
1AB3E
  8
SJC
 10
1416.863214880485
 20
1686.588898764556
 30
0.0
 40
4.5
  0
LINE
  5
1AB3F
  8
SJC
 10
1423.0657847448631
 20
1694.5298549043421
 30
0.0
 11
1370.363214879756
 21
1707.588898764538
 31
0.0
  0
ARC
  5
1AB40
  8
SJC
 10
1421.8632148804811
 20
1689.6766265230181
 30
0.0
 40
5.0
 50
0.0000000000260551
 51
76.083122566894787
  0
LINE
  5
1AB41
  8
SJC
 10
1400.3632148795421
 20
1945.0225270830099
 30
0.0
 11
1400.3632148796551
 21
1700.155270446083
 31
0.0
  0
CIRCLE
  5
1AB42
  8
SJC
 10
1416.8632148796351
 20
1958.588898764538
 30
0.0
 40
4.0
  0
LINE
  5
1AB43
  8
SJC2
 10
1416.4376829647399
 20
1961.5676221687929
 30
0.0
 11
1417.2887467945279
 21
1961.5676221687929
 31
0.0
  0
LINE
  5
1AB44
  8
SJC2
 10
1419.8419382838899
 20
1959.0144306794309
 30
0.0
 11
1419.8419382838899
 21
1958.163366849644
 31
0.0
  0
LINE
  5
1AB45
  8
SJC2
 10
1413.884491475379
 20
1959.0144306794309
 30
0.0
 11
1413.884491475379
 21
1958.163366849644
 31
0.0
  0
LINE
  5
1AB46
  8
SJC2
 10
1416.4376829647399
 20
1955.610175360282
 30
0.0
 11
1417.2887467945279
 21
1955.610175360282
 31
0.0
  0
ARC
  5
1AB47
  8
SJC2
 10
1419.8419382838899
 20
1955.610175360282
 30
0.0
 40
2.5531914893616769
 50
90.0
 51
180.0
  0
ARC
  5
1AB48
  8
SJC2
 10
1413.884491475379
 20
1955.610175360282
 30
0.0
 40
2.5531914893616769
 50
0.0
 51
90.0
  0
ARC
  5
1AB49
  8
SJC2
 10
1419.8419382838899
 20
1961.5676221687929
 30
0.0
 40
2.5531914893616769
 50
180.0
 51
270.0
  0
ARC
  5
1AB4A
  8
SJC2
 10
1413.884491475379
 20
1961.5676221687929
 30
0.0
 40
2.5531914893616769
 50
270.0
 51
0.0
  0
CIRCLE
  5
1AB4B
  8
SJC
 10
1416.8632148788961
 20
1686.588898764556
 30
0.0
 40
4.0
  0
LINE
  5
1AB4C
  8
SJC2
 10
1416.4376829640021
 20
1689.567622168812
 30
0.0
 11
1417.2887467937901
 21
1689.567622168812
 31
0.0
  0
LINE
  5
1AB4D
  8
SJC2
 10
1419.841938283151
 20
1687.01443067945
 30
0.0
 11
1419.841938283151
 21
1686.163366849662
 31
0.0
  0
LINE
  5
1AB4E
  8
SJC2
 10
1413.8844914746401
 20
1687.01443067945
 30
0.0
 11
1413.8844914746401
 21
1686.163366849662
 31
0.0
  0
LINE
  5
1AB4F
  8
SJC2
 10
1416.4376829640021
 20
1683.6101753603009
 30
0.0
 11
1417.2887467937901
 21
1683.6101753603009
 31
0.0
  0
ARC
  5
1AB50
  8
SJC2
 10
1419.841938283151
 20
1683.6101753603009
 30
0.0
 40
2.5531914893616769
 50
90.0
 51
180.0
  0
ARC
  5
1AB51
  8
SJC2
 10
1413.8844914746401
 20
1683.6101753603009
 30
0.0
 40
2.5531914893616769
 50
0.0
 51
90.0
  0
ARC
  5
1AB52
  8
SJC2
 10
1419.841938283151
 20
1689.567622168812
 30
0.0
 40
2.5531914893616769
 50
180.0
 51
270.0
  0
ARC
  5
1AB53
  8
SJC2
 10
1413.8844914746401
 20
1689.567622168812
 30
0.0
 40
2.5531914893616769
 50
270.0
 51
0.0
  0
LINE
  5
1AB6A
  8
SJC
 10
1993.829355828231
 20
906.50717853680305
 30
0.0
 11
2265.829355828238
 21
906.50717853680487
 31
0.0
  0
ARC
  5
1AB6E
  8
SJC
 10
1993.829355828231
 20
892.50717853680499
 30
0.0
 40
24.0
 50
90.0
 51
180.0
  0
ARC
  5
1AB6F
  8
SJC
 10
1993.829355828231
 20
892.50717853680499
 30
0.0
 40
14.0
 50
90.0
 51
180.0
  0
ARC
  5
1AB71
  8
SJC
 10
2265.829355828238
 20
892.50717853680499
 30
0.0
 40
24.0
 50
0.0
 51
90.0
  0
ARC
  5
1AB72
  8
SJC
 10
2265.829355828238
 20
892.50717853680499
 30
0.0
 40
14.0
 50
0.0
 51
90.0
  0
LINE
  5
1AB73
  8
SJC
 10
2265.8293558282371
 20
296.50717853680408
 30
0.0
 11
1993.8293558282289
 21
296.50717853680408
 31
0.0
  0
LINE
  5
1AB74
  8
SJC
 10
1993.829355828228
 20
926.50717853680658
 30
0.0
 11
2265.8293558282289
 21
926.50717853680715
 31
0.0
  0
ARC
  5
1AB75
  8
SJC
 10
2265.8293558282289
 20
940.50717853680715
 30
0.0
 40
24.0
 50
270.0
 51
0.0
  0
ARC
  5
1AB76
  8
SJC
 10
2265.8293558282289
 20
940.50717853680715
 30
0.0
 40
14.0
 50
270.0
 51
0.0
  0
ARC
  5
1AB77
  8
SJC
 10
1993.829355828228
 20
940.50717853680658
 30
0.0
 40
24.0
 50
180.0
 51
270.0
  0
ARC
  5
1AB78
  8
SJC
 10
1993.829355828228
 20
940.50717853680658
 30
0.0
 40
14.0
 50
180.0
 51
270.0
  0
LINE
  5
1AB79
  8
SJC
 10
2265.8293558282298
 20
916.50717853680567
 30
0.0
 11
1993.829355828223
 21
916.50717853680567
 31
0.0
  0
LINE
  5
1ABA2
  8
SJC
 10
2776.9786626571149
 20
907.50717853724325
 30
0.0
 11
2776.9786626571149
 21
300.50717853684768
 31
0.0
  0
LINE
  5
1ABA3
  8
SJC
 10
2788.9786626574441
 20
300.5071785367436
 30
0.0
 11
2788.9786626574441
 21
311.50717853718243
 31
0.0
  0
LINE
  5
1ABA4
  8
SJC
 10
2788.9786626572231
 20
906.50717853678941
 30
0.0
 11
2788.9786626572231
 21
766.50717853676224
 31
0.0
  0
LINE
  5
1ABA5
  8
SJC
 10
2784.9786626571099
 20
916.50717853677861
 30
0.0
 11
2780.9786626571099
 21
916.50717853677679
 31
0.0
  0
ARC
  5
1ABA6
  8
SJC
 10
2784.9786626571122
 20
912.50717853677861
 30
0.0
 40
4.0
 50
0.0000000000260551
 51
90.0
  0
ARC
  5
1ABA7
  8
SJC
 10
2780.9786626571122
 20
912.50717853677668
 30
0.0
 40
4.0
 50
90.0
 51
180.00000000001299
  0
LINE
  5
1ABA8
  8
SJC
 10
2776.9786626571122
 20
912.50717853677486
 30
0.0
 11
2776.9786626571149
 21
907.50717853677395
 31
0.0
  0
LINE
  5
1ABA9
  8
SJC
 10
2788.9786626571122
 20
912.50717853678043
 30
0.0
 11
2788.97866265733
 21
300.50717853682949
 31
0.0
  0
LINE
  5
1ABAB
  8
SJC
 10
2901.978662658596
 20
906.50717853673495
 30
0.0
 11
2901.9786626585828
 21
872.33172301981415
 31
0.0
  0
ARC
  5
1ABAC
  8
SJC
 10
2891.978662658596
 20
906.50717853673768
 30
0.0
 40
10.0
 50
359.99999999997402
 51
90.0
  0
LINE
  5
1ABAD
  8
SJC
 10
2891.9786626585992
 20
916.50717853674405
 30
0.0
 11
2786.978662658601
 21
916.5071785367777
 31
0.0
  0
LINE
  5
1ABAE
  8
CENTER
 10
2881.9786626585942
 20
887.50717853674053
 30
0.0
 11
2881.9786626585892
 21
869.5071785367403
 31
0.0
  0
LINE
  5
1ABAF
  8
CENTER
 10
2890.9786626585919
 20
878.50717853673757
 30
0.0
 11
2872.9786626585919
 21
878.50717853674314
 31
0.0
  0
LINE
  5
1ABB0
  8
SJC
 10
2788.978662657446
 20
311.50717853673501
 30
0.0
 11
2788.978662657446
 21
300.5071785367436
 31
0.0
  0
LINE
  5
1ABB3
  8
SJC
 10
2776.9786626571149
 20
907.50717853677395
 30
0.0
 11
2776.9786626571149
 21
300.50717853637838
 31
0.0
  0
LINE
  5
1ABB4
  8
SJC
 10
2894.3838023873468
 20
862.62526625717101
 30
0.0
 11
2788.9786626571331
 21
836.50717853677759
 31
0.0
  0
ARC
  5
1ABB5
  8
SJC
 10
2891.9786626585828
 20
872.33172301981665
 30
0.0
 40
10.0
 50
283.9168774331053
 51
359.99999999997402
  0
LINE
  5
1ABB6
  8
SJC
 10
2784.9786626573341
 20
296.5071785367436
 30
0.0
 11
2780.9786626573332
 21
296.50717853674541
 31
0.0
  0
ARC
  5
1ABB7
  8
SJC
 10
2784.978662657335
 20
300.5071785367436
 30
0.0
 40
4.0
 50
270.0
 51
359.99999999997402
  0
ARC
  5
1ABB8
  8
SJC
 10
2780.978662657335
 20
300.50717853674541
 30
0.0
 40
4.0
 50
179.99999999998701
 51
270.0
  0
LINE
  5
1ABB9
  8
SJC
 10
2776.978662657335
 20
300.50717853674718
 30
0.0
 11
2776.9786626573391
 21
305.50717853674769
 31
0.0
  0
LINE
  5
1ABBA
  8
SJC
 10
2901.9786626588188
 20
306.50717853678731
 30
0.0
 11
2901.978662658807
 21
340.68263405370823
 31
0.0
  0
ARC
  5
1ABBB
  8
SJC
 10
2891.9786626588202
 20
306.50717853678452
 30
0.0
 40
10.0
 50
270.0
 51
0.0000000000260551
  0
LINE
  5
1ABBC
  8
SJC
 10
2891.9786626588229
 20
296.5071785367781
 30
0.0
 11
2784.9786626573368
 21
296.50717853674371
 31
0.0
  0
LINE
  5
1ABBD
  8
CENTER
 10
2881.9786626588179
 20
325.50717853678128
 30
0.0
 11
2881.978662658812
 21
343.5071785367814
 31
0.0
  0
LINE
  5
1ABBE
  8
CENTER
 10
2890.9786626588161
 20
334.50717853678412
 30
0.0
 11
2872.9786626588161
 21
334.50717853677861
 31
0.0
  0
LINE
  5
1ABC1
  8
SJC
 10
2894.383802387571
 20
350.3890908163512
 30
0.0
 11
2788.9786626573568
 21
376.50717853674411
 31
0.0
  0
ARC
  5
1ABC2
  8
SJC
 10
2891.978662658807
 20
340.68263405370499
 30
0.0
 40
10.0
 50
0.0000000000260551
 51
76.083122566894787
  0
LINE
  5
1ABC8
  8
SJC
 10
2848.9786626569289
 20
851.37443517368592
 30
0.0
 11
2848.9786626571499
 21
361.63992189983662
 31
0.0
  0
LINE
  5
1ABCA
  8
CENTER
 10
2881.9786626585951
 20
887.50717853674053
 30
0.0
 11
2881.9786626585878
 21
869.5071785367403
 31
0.0
  0
CIRCLE
  5
1ABCB
  8
SJC
 10
2881.978662658591
 20
878.50717853674053
 30
0.0
 40
9.0
  0
CIRCLE
  5
1ABCC
  8
SJC
 10
2881.978662658591
 20
878.50717853674053
 30
0.0
 40
8.0
  0
LINE
  5
1ABCD
  8
SJC2
 10
2881.127598828803
 20
884.46462534525062
 30
0.0
 11
2882.8297264883781
 21
884.46462534525062
 31
0.0
  0
LINE
  5
1ABCE
  8
SJC2
 10
2887.9361094671021
 20
879.35824236652695
 30
0.0
 11
2887.9361094671021
 21
877.65611470695205
 31
0.0
  0
LINE
  5
1ABCF
  8
SJC2
 10
2876.0212158500799
 20
879.35824236652695
 30
0.0
 11
2876.0212158500799
 21
877.65611470695205
 31
0.0
  0
LINE
  5
1ABD0
  8
SJC2
 10
2881.127598828803
 20
872.5497317282302
 30
0.0
 11
2882.8297264883781
 21
872.5497317282302
 31
0.0
  0
ARC
  5
1ABD1
  8
SJC2
 10
2887.9361094671021
 20
872.5497317282302
 30
0.0
 40
5.1063829787233539
 50
90.0
 51
180.0
  0
ARC
  5
1ABD2
  8
SJC2
 10
2876.0212158500799
 20
872.5497317282302
 30
0.0
 40
5.1063829787233539
 50
0.0
 51
90.0
  0
ARC
  5
1ABD3
  8
SJC2
 10
2887.9361094671021
 20
884.46462534525062
 30
0.0
 40
5.1063829787233539
 50
180.0
 51
270.0
  0
ARC
  5
1ABD4
  8
SJC2
 10
2876.0212158500799
 20
884.46462534525062
 30
0.0
 40
5.1063829787233539
 50
270.0
 51
0.0
  0
LINE
  5
1ABD5
  8
CENTER
 10
2881.978662660294
 20
343.5071785367814
 30
0.0
 11
2881.9786626602881
 21
325.50717853678128
 31
0.0
  0
LINE
  5
1ABD6
  8
CENTER
 10
2890.9786626602918
 20
334.50717853677861
 30
0.0
 11
2872.9786626602918
 21
334.50717853678412
 31
0.0
  0
LINE
  5
1ABD7
  8
CENTER
 10
2881.978662660294
 20
343.5071785367814
 30
0.0
 11
2881.9786626602881
 21
325.50717853678128
 31
0.0
  0
LINE
  5
1ABD8
  8
CENTER
 10
2881.978662660295
 20
343.5071785367814
 30
0.0
 11
2881.9786626602881
 21
325.50717853678128
 31
0.0
  0
CIRCLE
  5
1ABD9
  8
SJC
 10
2881.9786626602909
 20
334.50717853678128
 30
0.0
 40
9.0
  0
CIRCLE
  5
1ABDA
  8
SJC
 10
2881.9786626602909
 20
334.50717853678128
 30
0.0
 40
8.0
  0
LINE
  5
1ABDB
  8
SJC2
 10
2881.1275988305028
 20
340.46462534529161
 30
0.0
 11
2882.829726490078
 21
340.46462534529161
 31
0.0
  0
LINE
  5
1ABDC
  8
SJC2
 10
2887.936109468802
 20
335.35824236656799
 30
0.0
 11
2887.936109468802
 21
333.65611470699292
 31
0.0
  0
LINE
  5
1ABDD
  8
SJC2
 10
2876.0212158517802
 20
335.35824236656799
 30
0.0
 11
2876.0212158517802
 21
333.65611470699292
 31
0.0
  0
LINE
  5
1ABDE
  8
SJC2
 10
2881.1275988305028
 20
328.54973172827113
 30
0.0
 11
2882.829726490078
 21
328.54973172827113
 31
0.0
  0
ARC
  5
1ABDF
  8
SJC2
 10
2887.936109468802
 20
328.54973172827113
 30
0.0
 40
5.1063829787233539
 50
90.0
 51
180.0
  0
ARC
  5
1ABE0
  8
SJC2
 10
2876.0212158517802
 20
328.54973172827113
 30
0.0
 40
5.1063829787233539
 50
0.0
 51
90.0
  0
ARC
  5
1ABE1
  8
SJC2
 10
2887.936109468802
 20
340.46462534529161
 30
0.0
 40
5.1063829787233539
 50
180.0
 51
270.0
  0
ARC
  5
1ABE2
  8
SJC2
 10
2876.0212158517802
 20
340.46462534529161
 30
0.0
 40
5.1063829787233539
 50
270.0
 51
0.0
  0
DIMENSION
  5
1ABFC
  8
SUNPOU
  2
*D19
 10
233.93867437074709
 20
387.58889876454128
 30
0.0
 11
206.93867437074701
 21
337.5888987645414
 31
0.0
 70
     0
 13
487.64738174554083
 23
287.58889876454123
 33
0.0
 14
487.64738174554083
 24
387.58889876454123
 34
0.0
 50
90.0
1001
ACAD
1000
DSTYLE
1002
{
1070
   287
1070
     5
1070
    40
1040
10.0
1070
    41
1040
2.0
1070
    42
1040
1.0
1070
    43
1040
6.0
1070
    44
1040
1.0
1070
    73
1070
     0
1070
    74
1070
     0
1070
    77
1070
     1
1070
    78
1070
     8
1070
   140
1040
3.0
1070
   147
1040
1.1999999999999991
1070
   172
1070
     1
1070
   179
1070
     2
1070
   271
1070
     2
1070
   279
1070
     2
1070
   340
1005
55
1002
}
  0
DIMENSION
  5
1AC0B
  8
SUNPOU
  2
*D20
 10
887.64738174554066
 20
162.41612395361059
 30
0.0
 11
687.64738174554077
 21
189.41612395361059
 31
0.0
 70
     0
  1
□400
 13
487.64738174554083
 23
287.58889876454123
 33
0.0
 14
887.64738174554066
 24
287.58889876454123
 34
0.0
1001
ACAD
1000
DSTYLE
1002
{
1070
   287
1070
     5
1070
    40
1040
10.0
1070
    41
1040
2.0
1070
    42
1040
1.0
1070
    43
1040
6.0
1070
    44
1040
1.0
1070
    73
1070
     0
1070
    74
1070
     0
1070
    77
1070
     1
1070
    78
1070
     8
1070
   140
1040
3.0
1070
   147
1040
1.1999999999999991
1070
   172
1070
     1
1070
   179
1070
     2
1070
   271
1070
     2
1070
   279
1070
     2
1070
   340
1005
55
1002
}
  0
LINE
  5
1AE78
  8
SJC
 10
1368.3632148797301
 20
1667.588898764569
 30
0.0
 11
1363.3632148797451
 21
1667.588898764569
 31
0.0
  0
LINE
  5
1AF16
  8
SJC
 10
2279.8293558282398
 20
892.50717853680476
 30
0.0
 11
2279.829355828233
 21
320.5071785368059
 31
0.0
  0
LINE
  5
1AF17
  8
SJC
 10
2289.829355828238
 20
892.50717853680476
 30
0.0
 11
2289.8293558282348
 21
320.50717853680538
 31
0.0
  0
LINE
  5
1AF18
  8
SJC
 10
1979.829355828231
 20
892.50717853680476
 30
0.0
 11
1979.829355828236
 21
320.50717853680538
 31
0.0
  0
LINE
  5
1AF19
  8
SJC
 10
1969.829355828231
 20
892.50717853680476
 30
0.0
 11
1969.8293558282351
 21
320.50717853680499
 31
0.0
  0
DIMENSION
  5
1AF85
  8
SUNPOU
  2
*D21
 10
466.59842398816357
 20
1667.588898764541
 30
0.0
 11
439.5984239881634
 21
1977.588898764541
 31
0.0
 70
     0
 13
619.64738174553975
 23
2287.5888987645412
 33
0.0
 14
619.64738174554168
 24
1667.588898764541
 34
0.0
 50
90.0
1001
ACAD
1000
DSTYLE
1002
{
1070
   287
1070
     5
1070
    40
1040
10.0
1070
    41
1040
2.0
1070
    42
1040
1.0
1070
    43
1040
6.0
1070
    44
1040
1.0
1070
    73
1070
     0
1070
    74
1070
     0
1070
    77
1070
     1
1070
    78
1070
     8
1070
   140
1040
3.0
1070
   147
1040
1.1999999999999991
1070
   172
1070
     1
1070
   179
1070
     2
1070
   271
1070
     2
1070
   279
1070
     2
1070
   340
1005
55
1002
}
  0
DIMENSION
  5
1AF92
  8
SUNPOU
  2
*D22
 10
1890.500388950458
 20
296.50717853680408
 30
0.0
 11
1863.500388950458
 21
606.50717853680533
 31
0.0
 70
     0
 13
1993.829355828223
 23
916.50717853680567
 33
0.0
 14
1993.8293558282289
 24
296.50717853680408
 34
0.0
 50
90.0
1001
ACAD
1000
DSTYLE
1002
{
1070
   287
1070
     5
1070
   144
1040
0.5
1070
    40
1040
10.0
1070
    41
1040
2.0
1070
    42
1040
1.0
1070
    43
1040
6.0
1070
    44
1040
1.0
1070
    73
1070
     0
1070
    74
1070
     0
1070
    77
1070
     1
1070
    78
1070
     8
1070
   140
1040
3.0
1070
   147
1040
1.1999999999999991
1070
   172
1070
     1
1070
   179
1070
     2
1070
   271
1070
     2
1070
   279
1070
     2
1070
   340
1005
55
1002
}
  0
DIMENSION
  5
1B00A
  8
SUNPOU
  2
*D23
 10
1813.8058973835009
 20
296.50717853680408
 30
0.0
 11
1786.8058973835009
 21
916.50717853680499
 31
0.0
 70
     0
 13
1993.829355828233
 23
1536.507178536805
 33
0.0
 14
1993.8293558282289
 24
296.50717853680408
 34
0.0
 50
90.0
1001
ACAD
1000
DSTYLE
1002
{
1070
   287
1070
     5
1070
   144
1040
0.5
1070
    40
1040
10.0
1070
    41
1040
2.0
1070
    42
1040
1.0
1070
    43
1040
6.0
1070
    44
1040
1.0
1070
    73
1070
     0
1070
    74
1070
     0
1070
    77
1070
     1
1070
    78
1070
     8
1070
   140
1040
3.0
1070
   147
1040
1.1999999999999991
1070
   172
1070
     1
1070
   179
1070
     2
1070
   271
1070
     2
1070
   279
1070
     2
1070
   340
1005
55
1002
}
  0
INSERT
  5
1B386
  8
HATCH
  6
CONTINUOUS
  2
*X36
 10
0.0
 20
0.0
 30
0.0
1001
ACAD
1000
HATCH
1002
{
1070
    19
1000
ANSI37
1040
4.0
1040
0.0
1000
ASC_BOUNDS
1070
     1
1070
     2
1070
     4
1005
19536
1005
19535
1005
19538
1005
19537
1000
ASC_SEEDPOINT
1011
0.0
1021
0.0
1031
0.0
1021
0.0
1031
0.0
1000
R14_HATCH_DATA
1000
1B386
1011
1.0
1021
0.0
1031
0.0
1021
0.0
1031
0.0
1011
0.0
1021
0.0
1031
0.0
1021
1.0
1031
0.0
1011
0.0
1021
0.0
1031
0.0
1021
0.0
1031
1.0
1040
0.0
1010
0.0
1020
0.0
1030
1.0
1000
ANSI37
1070
     0
1070
     1
1071
        1
1071
        1
1071
        4
1070
     1
1040
2969.478662656893
1040
1536.507178536805
1040
2794.478662656893
1040
1536.507178536805
1070
     1
1040
2794.478662656893
1040
1536.507178536805
1040
2794.4786626568912
1040
1616.507178536805
1070
     1
1040
2794.478662656893
1040
1616.507178536807
1040
2969.478662656893
1040
1616.507178536807
1070
     1
1040
2969.478662656893
1040
1616.507178536807
1040
2969.478662656893
1040
1536.507178536805
1071
        4
1005
19537
1005
19538
1005
19535
1005
19536
1070
     0
1070
     1
1040
0.0
1040
4.0
1070
     0
1070
     2
1040
0.7853981633974483
1040
0.0
1040
0.0
1040
-8.9802561210691518
1040
8.9802561210691536
1070
     0
1040
2.3561944901923439
1040
0.0
1040
0.0
1040
-8.9802561210691536
1040
-8.9802561210691518
1070
     0
1071
        1
1040
0.0
1040
0.0
1040
0.0
1002
}
  0
INSERT
  5
1B388
  8
HATCH
  6
CONTINUOUS
  2
*X37
 10
0.0
 20
0.0
 30
0.0
1001
ACAD
1000
HATCH
1002
{
1070
    19
1000
ANSI37
1040
4.0
1040
0.0
1000
ASC_BOUNDS
1070
     1
1070
     2
1070
     4
1005
19536
1005
19535
1005
19538
1005
19537
1000
ASC_SEEDPOINT
1011
-752.14930682865815
1021
0.0
1031
0.0
1021
0.0
1031
0.0
1000
R14_HATCH_DATA
1000
1B388
1011
1.0
1021
0.0
1031
0.0
1021
0.0
1031
0.0
1011
0.0
1021
0.0
1031
0.0
1021
1.0
1031
0.0
1011
0.0
1021
0.0
1031
0.0
1021
0.0
1031
1.0
1040
0.0
1010
0.0
1020
0.0
1030
1.0
1000
ANSI37
1070
     0
1070
     1
1071
        1
1071
        1
1071
        4
1070
     1
1040
2217.3293558282348
1040
1536.507178536805
1040
2042.3293558282351
1040
1536.507178536805
1070
     1
1040
2042.3293558282351
1040
1536.507178536805
1040
2042.329355828233
1040
1616.507178536805
1070
     1
1040
2042.3293558282351
1040
1616.507178536807
1040
2217.3293558282348
1040
1616.507178536807
1070
     1
1040
2217.3293558282348
1040
1616.507178536807
1040
2217.3293558282348
1040
1536.507178536805
1071
        4
1005
19537
1005
19538
1005
19535
1005
19536
1070
     0
1070
     1
1040
0.0
1040
4.0
1070
     0
1070
     2
1040
0.7853981633974483
1040
-752.14930682865815
1040
0.0
1040
-8.9802561210691518
1040
8.9802561210691536
1070
     0
1040
2.3561944901923439
1040
-752.14930682865815
1040
0.0
1040
-8.9802561210691536
1040
-8.9802561210691518
1070
     0
1071
        1
1040
-752.14930682865815
1040
0.0
1040
0.0
1002
}
  0
INSERT
  5
1B389
  8
HATCH
  6
CONTINUOUS
  2
*X38
 10
0.0
 20
0.0
 30
0.0
1001
ACAD
1000
HATCH
1002
{
1070
    19
1000
ANSI37
1040
2.0
1040
0.0
1000
ASC_BOUNDS
1070
     1
1070
     2
1070
     4
1005
194BD
1005
194BC
1005
194BF
1005
194BE
1000
ASC_SEEDPOINT
1011
0.0
1021
0.0
1031
0.0
1021
0.0
1031
0.0
1000
R14_HATCH_DATA
1000
1B389
1011
1.0
1021
0.0
1031
0.0
1021
0.0
1031
0.0
1011
0.0
1021
0.0
1031
0.0
1021
1.0
1031
0.0
1011
0.0
1021
0.0
1031
0.0
1021
0.0
1031
1.0
1040
0.0
1010
0.0
1020
0.0
1030
1.0
1000
ANSI37
1070
     0
1070
     1
1071
        1
1071
        1
1071
        4
1070
     1
1040
1460.6132148796351
1040
2287.5888987645412
1040
1373.1132148796351
1040
2287.5888987645412
1070
     1
1040
1373.1132148796351
1040
2287.5888987645412
1040
1373.1132148796339
1040
2327.5888987645412
1070
     1
1040
1373.1132148796351
1040
2327.5888987645421
1040
1460.6132148796339
1040
2327.5888987645421
1070
     1
1040
1460.6132148796339
1040
2327.5888987645421
1040
1460.6132148796351
1040
2287.5888987645412
1071
        4
1005
194BE
1005
194BF
1005
194BC
1005
194BD
1070
     0
1070
     1
1040
0.0
1040
2.0
1070
     0
1070
     2
1040
0.7853981633974483
1040
0.0
1040
0.0
1040
-4.490128060534575
1040
4.4901280605345759
1070
     0
1040
2.3561944901923439
1040
0.0
1040
0.0
1040
-4.4901280605345759
1040
-4.490128060534575
1070
     0
1071
        1
1040
0.0
1040
0.0
1040
0.0
1002
}
  0
INSERT
  5
1B394
  8
HATCH
  6
CONTINUOUS
  2
*X39
 10
0.0
 20
0.0
 30
0.0
1001
ACAD
1000
HATCH
1002
{
1070
    19
1000
ANSI37
1040
2.0
1040
0.0
1000
ASC_BOUNDS
1070
     1
1070
     2
1070
     4
1005
194BD
1005
194BC
1005
194BF
1005
194BE
1000
ASC_SEEDPOINT
1011
-729.21583313409417
1021
0.0
1031
0.0
1021
0.0
1031
0.0
1000
R14_HATCH_DATA
1000
1B394
1011
1.0
1021
0.0
1031
0.0
1021
0.0
1031
0.0
1011
0.0
1021
0.0
1031
0.0
1021
1.0
1031
0.0
1011
0.0
1021
0.0
1031
0.0
1021
0.0
1031
1.0
1040
0.0
1010
0.0
1020
0.0
1030
1.0
1000
ANSI37
1070
     0
1070
     1
1071
        1
1071
        1
1071
        4
1070
     1
1040
731.39738174554077
1040
2287.5888987645412
1040
643.89738174554032
1040
2287.5888987645412
1070
     1
1040
643.89738174554032
1040
2287.5888987645412
1040
643.89738174553975
1040
2327.5888987645412
1070
     1
1040
643.89738174554077
1040
2327.5888987645421
1040
731.39738174554032
1040
2327.5888987645421
1070
     1
1040
731.39738174554032
1040
2327.5888987645421
1040
731.39738174554077
1040
2287.5888987645412
1071
        4
1005
194BE
1005
194BF
1005
194BC
1005
194BD
1070
     0
1070
     1
1040
0.0
1040
2.0
1070
     0
1070
     2
1040
0.7853981633974483
1040
-729.21583313409417
1040
0.0
1040
-4.490128060534575
1040
4.4901280605345759
1070
     0
1040
2.3561944901923439
1040
-729.21583313409417
1040
0.0
1040
-4.4901280605345759
1040
-4.490128060534575
1070
     0
1071
        1
1040
-729.21583313409417
1040
0.0
1040
0.0
1002
}
  0
DIMENSION
  5
1B395
  8
SUNPOU
  2
*D24
 10
533.71736719745945
 20
2287.5888987645412
 30
0.0
 11
490.717367197459
 21
2307.5888987645412
 31
0.0
 70
     0
 13
643.89738174553895
 23
2327.5888987645399
 33
0.0
 14
619.64738174553975
 24
2287.5888987645412
 34
0.0
 50
90.0
1001
ACAD
1000
DSTYLE
1002
{
1070
   287
1070
     5
1070
    40
1040
10.0
1070
    41
1040
2.0
1070
    42
1040
1.0
1070
    43
1040
6.0
1070
    44
1040
1.0
1070
    73
1070
     0
1070
    74
1070
     0
1070
    77
1070
     1
1070
    78
1070
     8
1070
   140
1040
3.0
1070
   147
1040
1.1999999999999991
1070
   172
1070
     1
1070
   179
1070
     2
1070
   271
1070
     2
1070
   279
1070
     2
1070
   340
1005
55
1002
}
  0
DIMENSION
  5
1B3A4
  8
SUNPOU
  2
*D25
 10
233.93867437074709
 20
787.58889876454134
 30
0.0
 11
206.93867437074709
 21
1567.588898764538
 31
0.0
 70
     0
 13
687.64738174554077
 23
2347.5888987645349
 33
0.0
 14
460.11334604726471
 24
787.58889876454123
 34
0.0
 50
90.0
1001
ACAD
1000
DSTYLE
1002
{
1070
   287
1070
     5
1070
    40
1040
10.0
1070
    41
1040
2.0
1070
    42
1040
1.0
1070
    43
1040
6.0
1070
    44
1040
1.0
1070
    73
1070
     0
1070
    74
1070
     0
1070
    77
1070
     1
1070
    78
1070
     8
1070
   140
1040
3.0
1070
   147
1040
1.1999999999999991
1070
   172
1070
     1
1070
   179
1070
     2
1070
   271
1070
     2
1070
   279
1070
     2
1070
   340
1005
55
1002
}
  0
POLYLINE
  5
1B55A
  8
SJC2
 10
498.42551578931096
 20
289.57177566539235
 30
0.0
 66
     1
 70
     8
  0
VERTEX
  8
SJC2
  5
1BD16
 10
498.426
 20
289.572
 30
0.000000
  70
    32
  0
VERTEX
  8
SJC2
  5
1BD17
 10
499.592
 20
288.976
 30
0.000000
  70
    32
  0
VERTEX
  8
SJC2
  5
1BD18
 10
500.822
 20
288.499
 30
0.000000
  70
    32
  0
VERTEX
  8
SJC2
  5
1BD19
 10
502.115
 20
288.142
 30
0.000000
  70
    32
  0
VERTEX
  8
SJC2
  5
1BD1A
 10
503.466
 20
287.904
 30
0.000000
  70
    32
  0
VERTEX
  8
SJC2
  5
1BD1B
 10
504.872
 20
287.788
 30
0.000000
  70
    32
  0
VERTEX
  8
SJC2
  5
1BD1C
 10
506.330
 20
287.793
 30
0.000000
  70
    32
  0
VERTEX
  8
SJC2
  5
1BD1D
 10
507.837
 20
287.918
 30
0.000000
  70
    32
  0
VERTEX
  8
SJC2
  5
1BD1E
 10
509.388
 20
288.165
 30
0.000000
  70
    32
  0
VERTEX
  8
SJC2
  5
1BD1F
 10
510.981
 20
288.532
 30
0.000000
  70
    32
  0
VERTEX
  8
SJC2
  5
1BD20
 10
512.610
 20
289.018
 30
0.000000
  70
    32
  0
VERTEX
  8
SJC2
  5
1BD21
 10
514.273
 20
289.622
 30
0.000000
  70
    32
  0
VERTEX
  8
SJC2
  5
1BD22
 10
515.965
 20
290.343
 30
0.000000
  70
    32
  0
VERTEX
  8
SJC2
  5
1BD23
 10
517.683
 20
291.179
 30
0.000000
  70
    32
  0
VERTEX
  8
SJC2
  5
1BD24
 10
519.421
 20
292.128
 30
0.000000
  70
    32
  0
VERTEX
  8
SJC2
  5
1BD25
 10
521.177
 20
293.188
 30
0.000000
  70
    32
  0
VERTEX
  8
SJC2
  5
1BD26
 10
522.945
 20
294.356
 30
0.000000
  70
    32
  0
VERTEX
  8
SJC2
  5
1BD27
 10
524.721
 20
295.629
 30
0.000000
  70
    32
  0
VERTEX
  8
SJC2
  5
1BD28
 10
526.502
 20
297.004
 30
0.000000
  70
    32
  0
VERTEX
  8
SJC2
  5
1BD29
 10
528.282
 20
298.479
 30
0.000000
  70
    32
  0
VERTEX
  8
SJC2
  5
1BD2A
 10
530.058
 20
300.048
 30
0.000000
  70
    32
  0
VERTEX
  8
SJC2
  5
1BD2B
 10
531.825
 20
301.709
 30
0.000000
  70
    32
  0
VERTEX
  8
SJC2
  5
1BD2C
 10
533.579
 20
303.458
 30
0.000000
  70
    32
  0
VERTEX
  8
SJC2
  5
1BD2D
 10
535.316
 20
305.291
 30
0.000000
  70
    32
  0
VERTEX
  8
SJC2
  5
1BD2E
 10
537.031
 20
307.202
 30
0.000000
  70
    32
  0
VERTEX
  8
SJC2
  5
1BD2F
 10
538.721
 20
309.187
 30
0.000000
  70
    32
  0
VERTEX
  8
SJC2
  5
1BD30
 10
540.381
 20
311.243
 30
0.000000
  70
    32
  0
VERTEX
  8
SJC2
  5
1BD31
 10
542.008
 20
313.362
 30
0.000000
  70
    32
  0
VERTEX
  8
SJC2
  5
1BD32
 10
543.597
 20
315.542
 30
0.000000
  70
    32
  0
VERTEX
  8
SJC2
  5
1BD33
 10
545.145
 20
317.775
 30
0.000000
  70
    32
  0
VERTEX
  8
SJC2
  5
1BD34
 10
546.648
 20
320.058
 30
0.000000
  70
    32
  0
VERTEX
  8
SJC2
  5
1BD35
 10
548.102
 20
322.384
 30
0.000000
  70
    32
  0
VERTEX
  8
SJC2
  5
1BD36
 10
549.503
 20
324.748
 30
0.000000
  70
    32
  0
VERTEX
  8
SJC2
  5
1BD37
 10
550.850
 20
327.143
 30
0.000000
  70
    32
  0
VERTEX
  8
SJC2
  5
1BD38
 10
552.137
 20
329.565
 30
0.000000
  70
    32
  0
VERTEX
  8
SJC2
  5
1BD39
 10
553.362
 20
332.008
 30
0.000000
  70
    32
  0
VERTEX
  8
SJC2
  5
1BD3A
 10
554.523
 20
334.465
 30
0.000000
  70
    32
  0
VERTEX
  8
SJC2
  5
1BD3B
 10
555.616
 20
336.931
 30
0.000000
  70
    32
  0
VERTEX
  8
SJC2
  5
1BD3C
 10
556.638
 20
339.400
 30
0.000000
  70
    32
  0
VERTEX
  8
SJC2
  5
1BD3D
 10
557.588
 20
341.865
 30
0.000000
  70
    32
  0
VERTEX
  8
SJC2
  5
1BD3E
 10
558.462
 20
344.322
 30
0.000000
  70
    32
  0
VERTEX
  8
SJC2
  5
1BD3F
 10
559.260
 20
346.763
 30
0.000000
  70
    32
  0
VERTEX
  8
SJC2
  5
1BD40
 10
559.978
 20
349.183
 30
0.000000
  70
    32
  0
VERTEX
  8
SJC2
  5
1BD41
 10
560.616
 20
351.577
 30
0.000000
  70
    32
  0
VERTEX
  8
SJC2
  5
1BD42
 10
561.171
 20
353.938
 30
0.000000
  70
    32
  0
VERTEX
  8
SJC2
  5
1BD43
 10
561.642
 20
356.260
 30
0.000000
  70
    32
  0
VERTEX
  8
SJC2
  5
1BD44
 10
562.029
 20
358.539
 30
0.000000
  70
    32
  0
VERTEX
  8
SJC2
  5
1BD45
 10
562.330
 20
360.769
 30
0.000000
  70
    32
  0
VERTEX
  8
SJC2
  5
1BD46
 10
562.544
 20
362.944
 30
0.000000
  70
    32
  0
VERTEX
  8
SJC2
  5
1BD47
 10
562.671
 20
365.059
 30
0.000000
  70
    32
  0
VERTEX
  8
SJC2
  5
1BD48
 10
562.711
 20
367.109
 30
0.000000
  70
    32
  0
VERTEX
  8
SJC2
  5
1BD49
 10
562.664
 20
369.089
 30
0.000000
  70
    32
  0
VERTEX
  8
SJC2
  5
1BD4A
 10
562.529
 20
370.994
 30
0.000000
  70
    32
  0
VERTEX
  8
SJC2
  5
1BD4B
 10
562.308
 20
372.820
 30
0.000000
  70
    32
  0
VERTEX
  8
SJC2
  5
1BD4C
 10
562.000
 20
374.563
 30
0.000000
  70
    32
  0
VERTEX
  8
SJC2
  5
1BD4D
 10
561.606
 20
376.217
 30
0.000000
  70
    32
  0
VERTEX
  8
SJC2
  5
1BD4E
 10
561.127
 20
377.780
 30
0.000000
  70
    32
  0
VERTEX
  8
SJC2
  5
1BD4F
 10
560.565
 20
379.247
 30
0.000000
  70
    32
  0
VERTEX
  8
SJC2
  5
1BD50
 10
559.921
 20
380.614
 30
0.000000
  70
    32
  0
VERTEX
  8
SJC2
  5
1BD51
 10
559.196
 20
381.879
 30
0.000000
  70
    32
  0
VERTEX
  8
SJC2
  5
1BD52
 10
558.392
 20
383.039
 30
0.000000
  70
    32
  0
VERTEX
  8
SJC2
  5
1BD53
 10
557.511
 20
384.090
 30
0.000000
  70
    32
  0
VERTEX
  8
SJC2
  5
1BD54
 10
556.555
 20
385.031
 30
0.000000
  70
    32
  0
VERTEX
  8
SJC2
  5
1BD55
 10
555.526
 20
385.858
 30
0.000000
  70
    32
  0
VERTEX
  8
SJC2
  5
1BD56
 10
554.428
 20
386.570
 30
0.000000
  70
    32
  0
VERTEX
  8
SJC2
  5
1BD57
 10
553.262
 20
387.165
 30
0.000000
  70
    32
  0
VERTEX
  8
SJC2
  5
1BD58
 10
552.031
 20
387.643
 30
0.000000
  70
    32
  0
VERTEX
  8
SJC2
  5
1BD59
 10
550.738
 20
388.000
 30
0.000000
  70
    32
  0
VERTEX
  8
SJC2
  5
1BD5A
 10
549.387
 20
388.238
 30
0.000000
  70
    32
  0
VERTEX
  8
SJC2
  5
1BD5B
 10
547.981
 20
388.354
 30
0.000000
  70
    32
  0
VERTEX
  8
SJC2
  5
1BD5C
 10
546.523
 20
388.349
 30
0.000000
  70
    32
  0
VERTEX
  8
SJC2
  5
1BD5D
 10
545.016
 20
388.224
 30
0.000000
  70
    32
  0
VERTEX
  8
SJC2
  5
1BD5E
 10
543.465
 20
387.977
 30
0.000000
  70
    32
  0
VERTEX
  8
SJC2
  5
1BD5F
 10
541.873
 20
387.610
 30
0.000000
  70
    32
  0
VERTEX
  8
SJC2
  5
1BD60
 10
540.243
 20
387.124
 30
0.000000
  70
    32
  0
VERTEX
  8
SJC2
  5
1BD61
 10
538.580
 20
386.520
 30
0.000000
  70
    32
  0
VERTEX
  8
SJC2
  5
1BD62
 10
536.888
 20
385.799
 30
0.000000
  70
    32
  0
VERTEX
  8
SJC2
  5
1BD63
 10
535.170
 20
384.963
 30
0.000000
  70
    32
  0
VERTEX
  8
SJC2
  5
1BD64
 10
533.432
 20
384.014
 30
0.000000
  70
    32
  0
VERTEX
  8
SJC2
  5
1BD65
 10
531.676
 20
382.954
 30
0.000000
  70
    32
  0
VERTEX
  8
SJC2
  5
1BD66
 10
529.908
 20
381.786
 30
0.000000
  70
    32
  0
VERTEX
  8
SJC2
  5
1BD67
 10
528.132
 20
380.513
 30
0.000000
  70
    32
  0
VERTEX
  8
SJC2
  5
1BD68
 10
526.352
 20
379.138
 30
0.000000
  70
    32
  0
VERTEX
  8
SJC2
  5
1BD69
 10
524.571
 20
377.663
 30
0.000000
  70
    32
  0
VERTEX
  8
SJC2
  5
1BD6A
 10
522.795
 20
376.094
 30
0.000000
  70
    32
  0
VERTEX
  8
SJC2
  5
1BD6B
 10
521.028
 20
374.432
 30
0.000000
  70
    32
  0
VERTEX
  8
SJC2
  5
1BD6C
 10
519.274
 20
372.684
 30
0.000000
  70
    32
  0
VERTEX
  8
SJC2
  5
1BD6D
 10
517.537
 20
370.851
 30
0.000000
  70
    32
  0
VERTEX
  8
SJC2
  5
1BD6E
 10
515.822
 20
368.940
 30
0.000000
  70
    32
  0
VERTEX
  8
SJC2
  5
1BD6F
 10
514.132
 20
366.954
 30
0.000000
  70
    32
  0
VERTEX
  8
SJC2
  5
1BD70
 10
512.472
 20
364.899
 30
0.000000
  70
    32
  0
VERTEX
  8
SJC2
  5
1BD71
 10
510.845
 20
362.779
 30
0.000000
  70
    32
  0
VERTEX
  8
SJC2
  5
1BD72
 10
509.256
 20
360.600
 30
0.000000
  70
    32
  0
VERTEX
  8
SJC2
  5
1BD73
 10
507.708
 20
358.367
 30
0.000000
  70
    32
  0
VERTEX
  8
SJC2
  5
1BD74
 10
506.205
 20
356.084
 30
0.000000
  70
    32
  0
VERTEX
  8
SJC2
  5
1BD75
 10
504.751
 20
353.758
 30
0.000000
  70
    32
  0
VERTEX
  8
SJC2
  5
1BD76
 10
503.350
 20
351.394
 30
0.000000
  70
    32
  0
VERTEX
  8
SJC2
  5
1BD77
 10
502.003
 20
348.999
 30
0.000000
  70
    32
  0
VERTEX
  8
SJC2
  5
1BD78
 10
500.716
 20
346.577
 30
0.000000
  70
    32
  0
VERTEX
  8
SJC2
  5
1BD79
 10
499.491
 20
344.134
 30
0.000000
  70
    32
  0
VERTEX
  8
SJC2
  5
1BD7A
 10
498.330
 20
341.677
 30
0.000000
  70
    32
  0
VERTEX
  8
SJC2
  5
1BD7B
 10
497.238
 20
339.211
 30
0.000000
  70
    32
  0
VERTEX
  8
SJC2
  5
1BD7C
 10
496.215
 20
336.742
 30
0.000000
  70
    32
  0
VERTEX
  8
SJC2
  5
1BD7D
 10
495.265
 20
334.277
 30
0.000000
  70
    32
  0
VERTEX
  8
SJC2
  5
1BD7E
 10
494.391
 20
331.820
 30
0.000000
  70
    32
  0
VERTEX
  8
SJC2
  5
1BD7F
 10
493.593
 20
329.379
 30
0.000000
  70
    32
  0
VERTEX
  8
SJC2
  5
1BD80
 10
492.875
 20
326.959
 30
0.000000
  70
    32
  0
VERTEX
  8
SJC2
  5
1BD81
 10
492.237
 20
324.565
 30
0.000000
  70
    32
  0
VERTEX
  8
SJC2
  5
1BD82
 10
491.682
 20
322.204
 30
0.000000
  70
    32
  0
VERTEX
  8
SJC2
  5
1BD83
 10
491.211
 20
319.882
 30
0.000000
  70
    32
  0
VERTEX
  8
SJC2
  5
1BD84
 10
490.824
 20
317.603
 30
0.000000
  70
    32
  0
VERTEX
  8
SJC2
  5
1BD85
 10
490.523
 20
315.373
 30
0.000000
  70
    32
  0
VERTEX
  8
SJC2
  5
1BD86
 10
490.309
 20
313.198
 30
0.000000
  70
    32
  0
VERTEX
  8
SJC2
  5
1BD87
 10
490.182
 20
311.083
 30
0.000000
  70
    32
  0
VERTEX
  8
SJC2
  5
1BD88
 10
490.142
 20
309.033
 30
0.000000
  70
    32
  0
VERTEX
  8
SJC2
  5
1BD89
 10
490.189
 20
307.053
 30
0.000000
  70
    32
  0
VERTEX
  8
SJC2
  5
1BD8A
 10
490.324
 20
305.147
 30
0.000000
  70
    32
  0
VERTEX
  8
SJC2
  5
1BD8B
 10
490.545
 20
303.321
 30
0.000000
  70
    32
  0
VERTEX
  8
SJC2
  5
1BD8C
 10
490.853
 20
301.579
 30
0.000000
  70
    32
  0
VERTEX
  8
SJC2
  5
1BD8D
 10
491.247
 20
299.925
 30
0.000000
  70
    32
  0
VERTEX
  8
SJC2
  5
1BD8E
 10
491.726
 20
298.362
 30
0.000000
  70
    32
  0
VERTEX
  8
SJC2
  5
1BD8F
 10
492.288
 20
296.895
 30
0.000000
  70
    32
  0
VERTEX
  8
SJC2
  5
1BD90
 10
492.932
 20
295.528
 30
0.000000
  70
    32
  0
VERTEX
  8
SJC2
  5
1BD91
 10
493.657
 20
294.263
 30
0.000000
  70
    32
  0
VERTEX
  8
SJC2
  5
1BD92
 10
494.461
 20
293.103
 30
0.000000
  70
    32
  0
VERTEX
  8
SJC2
  5
1BD93
 10
495.342
 20
292.052
 30
0.000000
  70
    32
  0
VERTEX
  8
SJC2
  5
1BD94
 10
496.298
 20
291.111
 30
0.000000
  70
    32
  0
VERTEX
  8
SJC2
  5
1BD95
 10
497.327
 20
290.284
 30
0.000000
  70
    32
  0
VERTEX
  8
SJC2
  5
1BD96
 10
498.426
 20
289.572
 30
0.000000
  70
    32
  0
SEQEND
  8
SJC2
  5
1BD97
  0
POLYLINE
  5
1B55B
  8
SJC2
 10
560.68523048196744
 20
289.57177566539235
 30
0.0
 66
     1
 70
     8
  0
VERTEX
  8
SJC2
  5
1BD98
 10
560.685
 20
289.572
 30
0.000000
  70
    32
  0
VERTEX
  8
SJC2
  5
1BD99
 10
561.851
 20
288.976
 30
0.000000
  70
    32
  0
VERTEX
  8
SJC2
  5
1BD9A
 10
563.082
 20
288.499
 30
0.000000
  70
    32
  0
VERTEX
  8
SJC2
  5
1BD9B
 10
564.374
 20
288.142
 30
0.000000
  70
    32
  0
VERTEX
  8
SJC2
  5
1BD9C
 10
565.725
 20
287.904
 30
0.000000
  70
    32
  0
VERTEX
  8
SJC2
  5
1BD9D
 10
567.132
 20
287.788
 30
0.000000
  70
    32
  0
VERTEX
  8
SJC2
  5
1BD9E
 10
568.590
 20
287.793
 30
0.000000
  70
    32
  0
VERTEX
  8
SJC2
  5
1BD9F
 10
570.096
 20
287.918
 30
0.000000
  70
    32
  0
VERTEX
  8
SJC2
  5
1BDA0
 10
571.648
 20
288.165
 30
0.000000
  70
    32
  0
VERTEX
  8
SJC2
  5
1BDA1
 10
573.240
 20
288.532
 30
0.000000
  70
    32
  0
VERTEX
  8
SJC2
  5
1BDA2
 10
574.870
 20
289.018
 30
0.000000
  70
    32
  0
VERTEX
  8
SJC2
  5
1BDA3
 10
576.533
 20
289.622
 30
0.000000
  70
    32
  0
VERTEX
  8
SJC2
  5
1BDA4
 10
578.225
 20
290.343
 30
0.000000
  70
    32
  0
VERTEX
  8
SJC2
  5
1BDA5
 10
579.943
 20
291.179
 30
0.000000
  70
    32
  0
VERTEX
  8
SJC2
  5
1BDA6
 10
581.681
 20
292.128
 30
0.000000
  70
    32
  0
VERTEX
  8
SJC2
  5
1BDA7
 10
583.436
 20
293.188
 30
0.000000
  70
    32
  0
VERTEX
  8
SJC2
  5
1BDA8
 10
585.204
 20
294.356
 30
0.000000
  70
    32
  0
VERTEX
  8
SJC2
  5
1BDA9
 10
586.981
 20
295.629
 30
0.000000
  70
    32
  0
VERTEX
  8
SJC2
  5
1BDAA
 10
588.761
 20
297.004
 30
0.000000
  70
    32
  0
VERTEX
  8
SJC2
  5
1BDAB
 10
590.542
 20
298.479
 30
0.000000
  70
    32
  0
VERTEX
  8
SJC2
  5
1BDAC
 10
592.317
 20
300.048
 30
0.000000
  70
    32
  0
VERTEX
  8
SJC2
  5
1BDAD
 10
594.085
 20
301.709
 30
0.000000
  70
    32
  0
VERTEX
  8
SJC2
  5
1BDAE
 10
595.839
 20
303.458
 30
0.000000
  70
    32
  0
VERTEX
  8
SJC2
  5
1BDAF
 10
597.576
 20
305.291
 30
0.000000
  70
    32
  0
VERTEX
  8
SJC2
  5
1BDB0
 10
599.291
 20
307.202
 30
0.000000
  70
    32
  0
VERTEX
  8
SJC2
  5
1BDB1
 10
600.981
 20
309.187
 30
0.000000
  70
    32
  0
VERTEX
  8
SJC2
  5
1BDB2
 10
602.641
 20
311.243
 30
0.000000
  70
    32
  0
VERTEX
  8
SJC2
  5
1BDB3
 10
604.268
 20
313.362
 30
0.000000
  70
    32
  0
VERTEX
  8
SJC2
  5
1BDB4
 10
605.857
 20
315.542
 30
0.000000
  70
    32
  0
VERTEX
  8
SJC2
  5
1BDB5
 10
607.405
 20
317.775
 30
0.000000
  70
    32
  0
VERTEX
  8
SJC2
  5
1BDB6
 10
608.907
 20
320.058
 30
0.000000
  70
    32
  0
VERTEX
  8
SJC2
  5
1BDB7
 10
610.361
 20
322.384
 30
0.000000
  70
    32
  0
VERTEX
  8
SJC2
  5
1BDB8
 10
611.763
 20
324.748
 30
0.000000
  70
    32
  0
VERTEX
  8
SJC2
  5
1BDB9
 10
613.109
 20
327.143
 30
0.000000
  70
    32
  0
VERTEX
  8
SJC2
  5
1BDBA
 10
614.397
 20
329.565
 30
0.000000
  70
    32
  0
VERTEX
  8
SJC2
  5
1BDBB
 10
615.622
 20
332.008
 30
0.000000
  70
    32
  0
VERTEX
  8
SJC2
  5
1BDBC
 10
616.782
 20
334.465
 30
0.000000
  70
    32
  0
VERTEX
  8
SJC2
  5
1BDBD
 10
617.875
 20
336.931
 30
0.000000
  70
    32
  0
VERTEX
  8
SJC2
  5
1BDBE
 10
618.898
 20
339.400
 30
0.000000
  70
    32
  0
VERTEX
  8
SJC2
  5
1BDBF
 10
619.847
 20
341.865
 30
0.000000
  70
    32
  0
VERTEX
  8
SJC2
  5
1BDC0
 10
620.722
 20
344.322
 30
0.000000
  70
    32
  0
VERTEX
  8
SJC2
  5
1BDC1
 10
621.520
 20
346.763
 30
0.000000
  70
    32
  0
VERTEX
  8
SJC2
  5
1BDC2
 10
622.238
 20
349.183
 30
0.000000
  70
    32
  0
VERTEX
  8
SJC2
  5
1BDC3
 10
622.875
 20
351.577
 30
0.000000
  70
    32
  0
VERTEX
  8
SJC2
  5
1BDC4
 10
623.431
 20
353.938
 30
0.000000
  70
    32
  0
VERTEX
  8
SJC2
  5
1BDC5
 10
623.902
 20
356.260
 30
0.000000
  70
    32
  0
VERTEX
  8
SJC2
  5
1BDC6
 10
624.289
 20
358.539
 30
0.000000
  70
    32
  0
VERTEX
  8
SJC2
  5
1BDC7
 10
624.589
 20
360.769
 30
0.000000
  70
    32
  0
VERTEX
  8
SJC2
  5
1BDC8
 10
624.804
 20
362.944
 30
0.000000
  70
    32
  0
VERTEX
  8
SJC2
  5
1BDC9
 10
624.931
 20
365.059
 30
0.000000
  70
    32
  0
VERTEX
  8
SJC2
  5
1BDCA
 10
624.971
 20
367.109
 30
0.000000
  70
    32
  0
VERTEX
  8
SJC2
  5
1BDCB
 10
624.924
 20
369.089
 30
0.000000
  70
    32
  0
VERTEX
  8
SJC2
  5
1BDCC
 10
624.789
 20
370.994
 30
0.000000
  70
    32
  0
VERTEX
  8
SJC2
  5
1BDCD
 10
624.567
 20
372.820
 30
0.000000
  70
    32
  0
VERTEX
  8
SJC2
  5
1BDCE
 10
624.259
 20
374.563
 30
0.000000
  70
    32
  0
VERTEX
  8
SJC2
  5
1BDCF
 10
623.866
 20
376.217
 30
0.000000
  70
    32
  0
VERTEX
  8
SJC2
  5
1BDD0
 10
623.387
 20
377.780
 30
0.000000
  70
    32
  0
VERTEX
  8
SJC2
  5
1BDD1
 10
622.825
 20
379.247
 30
0.000000
  70
    32
  0
VERTEX
  8
SJC2
  5
1BDD2
 10
622.180
 20
380.614
 30
0.000000
  70
    32
  0
VERTEX
  8
SJC2
  5
1BDD3
 10
621.455
 20
381.879
 30
0.000000
  70
    32
  0
VERTEX
  8
SJC2
  5
1BDD4
 10
620.651
 20
383.039
 30
0.000000
  70
    32
  0
VERTEX
  8
SJC2
  5
1BDD5
 10
619.770
 20
384.090
 30
0.000000
  70
    32
  0
VERTEX
  8
SJC2
  5
1BDD6
 10
618.814
 20
385.031
 30
0.000000
  70
    32
  0
VERTEX
  8
SJC2
  5
1BDD7
 10
617.786
 20
385.858
 30
0.000000
  70
    32
  0
VERTEX
  8
SJC2
  5
1BDD8
 10
616.687
 20
386.570
 30
0.000000
  70
    32
  0
VERTEX
  8
SJC2
  5
1BDD9
 10
615.521
 20
387.165
 30
0.000000
  70
    32
  0
VERTEX
  8
SJC2
  5
1BDDA
 10
614.291
 20
387.643
 30
0.000000
  70
    32
  0
VERTEX
  8
SJC2
  5
1BDDB
 10
612.998
 20
388.000
 30
0.000000
  70
    32
  0
VERTEX
  8
SJC2
  5
1BDDC
 10
611.647
 20
388.238
 30
0.000000
  70
    32
  0
VERTEX
  8
SJC2
  5
1BDDD
 10
610.241
 20
388.354
 30
0.000000
  70
    32
  0
VERTEX
  8
SJC2
  5
1BDDE
 10
608.783
 20
388.349
 30
0.000000
  70
    32
  0
VERTEX
  8
SJC2
  5
1BDDF
 10
607.276
 20
388.224
 30
0.000000
  70
    32
  0
VERTEX
  8
SJC2
  5
1BDE0
 10
605.725
 20
387.977
 30
0.000000
  70
    32
  0
VERTEX
  8
SJC2
  5
1BDE1
 10
604.132
 20
387.610
 30
0.000000
  70
    32
  0
VERTEX
  8
SJC2
  5
1BDE2
 10
602.503
 20
387.124
 30
0.000000
  70
    32
  0
VERTEX
  8
SJC2
  5
1BDE3
 10
600.840
 20
386.520
 30
0.000000
  70
    32
  0
VERTEX
  8
SJC2
  5
1BDE4
 10
599.147
 20
385.799
 30
0.000000
  70
    32
  0
VERTEX
  8
SJC2
  5
1BDE5
 10
597.430
 20
384.963
 30
0.000000
  70
    32
  0
VERTEX
  8
SJC2
  5
1BDE6
 10
595.692
 20
384.014
 30
0.000000
  70
    32
  0
VERTEX
  8
SJC2
  5
1BDE7
 10
593.936
 20
382.954
 30
0.000000
  70
    32
  0
VERTEX
  8
SJC2
  5
1BDE8
 10
592.168
 20
381.786
 30
0.000000
  70
    32
  0
VERTEX
  8
SJC2
  5
1BDE9
 10
590.392
 20
380.513
 30
0.000000
  70
    32
  0
VERTEX
  8
SJC2
  5
1BDEA
 10
588.611
 20
379.138
 30
0.000000
  70
    32
  0
VERTEX
  8
SJC2
  5
1BDEB
 10
586.831
 20
377.663
 30
0.000000
  70
    32
  0
VERTEX
  8
SJC2
  5
1BDEC
 10
585.055
 20
376.094
 30
0.000000
  70
    32
  0
VERTEX
  8
SJC2
  5
1BDED
 10
583.288
 20
374.432
 30
0.000000
  70
    32
  0
VERTEX
  8
SJC2
  5
1BDEE
 10
581.534
 20
372.684
 30
0.000000
  70
    32
  0
VERTEX
  8
SJC2
  5
1BDEF
 10
579.797
 20
370.851
 30
0.000000
  70
    32
  0
VERTEX
  8
SJC2
  5
1BDF0
 10
578.082
 20
368.940
 30
0.000000
  70
    32
  0
VERTEX
  8
SJC2
  5
1BDF1
 10
576.392
 20
366.954
 30
0.000000
  70
    32
  0
VERTEX
  8
SJC2
  5
1BDF2
 10
574.731
 20
364.899
 30
0.000000
  70
    32
  0
VERTEX
  8
SJC2
  5
1BDF3
 10
573.105
 20
362.779
 30
0.000000
  70
    32
  0
VERTEX
  8
SJC2
  5
1BDF4
 10
571.515
 20
360.600
 30
0.000000
  70
    32
  0
VERTEX
  8
SJC2
  5
1BDF5
 10
569.968
 20
358.367
 30
0.000000
  70
    32
  0
VERTEX
  8
SJC2
  5
1BDF6
 10
568.465
 20
356.084
 30
0.000000
  70
    32
  0
VERTEX
  8
SJC2
  5
1BDF7
 10
567.011
 20
353.758
 30
0.000000
  70
    32
  0
VERTEX
  8
SJC2
  5
1BDF8
 10
565.609
 20
351.394
 30
0.000000
  70
    32
  0
VERTEX
  8
SJC2
  5
1BDF9
 10
564.263
 20
348.999
 30
0.000000
  70
    32
  0
VERTEX
  8
SJC2
  5
1BDFA
 10
562.976
 20
346.577
 30
0.000000
  70
    32
  0
VERTEX
  8
SJC2
  5
1BDFB
 10
561.751
 20
344.134
 30
0.000000
  70
    32
  0
VERTEX
  8
SJC2
  5
1BDFC
 10
560.590
 20
341.677
 30
0.000000
  70
    32
  0
VERTEX
  8
SJC2
  5
1BDFD
 10
559.497
 20
339.211
 30
0.000000
  70
    32
  0
VERTEX
  8
SJC2
  5
1BDFE
 10
558.475
 20
336.742
 30
0.000000
  70
    32
  0
VERTEX
  8
SJC2
  5
1BDFF
 10
557.525
 20
334.277
 30
0.000000
  70
    32
  0
VERTEX
  8
SJC2
  5
1BE00
 10
556.650
 20
331.820
 30
0.000000
  70
    32
  0
VERTEX
  8
SJC2
  5
1BE01
 10
555.853
 20
329.379
 30
0.000000
  70
    32
  0
VERTEX
  8
SJC2
  5
1BE02
 10
555.135
 20
326.959
 30
0.000000
  70
    32
  0
VERTEX
  8
SJC2
  5
1BE03
 10
554.497
 20
324.565
 30
0.000000
  70
    32
  0
VERTEX
  8
SJC2
  5
1BE04
 10
553.942
 20
322.204
 30
0.000000
  70
    32
  0
VERTEX
  8
SJC2
  5
1BE05
 10
553.471
 20
319.882
 30
0.000000
  70
    32
  0
VERTEX
  8
SJC2
  5
1BE06
 10
553.084
 20
317.603
 30
0.000000
  70
    32
  0
VERTEX
  8
SJC2
  5
1BE07
 10
552.783
 20
315.373
 30
0.000000
  70
    32
  0
VERTEX
  8
SJC2
  5
1BE08
 10
552.569
 20
313.198
 30
0.000000
  70
    32
  0
VERTEX
  8
SJC2
  5
1BE09
 10
552.441
 20
311.083
 30
0.000000
  70
    32
  0
VERTEX
  8
SJC2
  5
1BE0A
 10
552.401
 20
309.033
 30
0.000000
  70
    32
  0
VERTEX
  8
SJC2
  5
1BE0B
 10
552.449
 20
307.053
 30
0.000000
  70
    32
  0
VERTEX
  8
SJC2
  5
1BE0C
 10
552.583
 20
305.147
 30
0.000000
  70
    32
  0
VERTEX
  8
SJC2
  5
1BE0D
 10
552.805
 20
303.321
 30
0.000000
  70
    32
  0
VERTEX
  8
SJC2
  5
1BE0E
 10
553.113
 20
301.579
 30
0.000000
  70
    32
  0
VERTEX
  8
SJC2
  5
1BE0F
 10
553.507
 20
299.925
 30
0.000000
  70
    32
  0
VERTEX
  8
SJC2
  5
1BE10
 10
553.986
 20
298.362
 30
0.000000
  70
    32
  0
VERTEX
  8
SJC2
  5
1BE11
 10
554.548
 20
296.895
 30
0.000000
  70
    32
  0
VERTEX
  8
SJC2
  5
1BE12
 10
555.192
 20
295.528
 30
0.000000
  70
    32
  0
VERTEX
  8
SJC2
  5
1BE13
 10
555.917
 20
294.263
 30
0.000000
  70
    32
  0
VERTEX
  8
SJC2
  5
1BE14
 10
556.721
 20
293.103
 30
0.000000
  70
    32
  0
VERTEX
  8
SJC2
  5
1BE15
 10
557.602
 20
292.052
 30
0.000000
  70
    32
  0
VERTEX
  8
SJC2
  5
1BE16
 10
558.558
 20
291.111
 30
0.000000
  70
    32
  0
VERTEX
  8
SJC2
  5
1BE17
 10
559.587
 20
290.284
 30
0.000000
  70
    32
  0
VERTEX
  8
SJC2
  5
1BE18
 10
560.685
 20
289.572
 30
0.000000
  70
    32
  0
SEQEND
  8
SJC2
  5
1BE19
  0
POLYLINE
  5
1B55C
  8
SJC2
 10
759.77896505441254
 20
289.57177566539235
 30
0.0
 66
     1
 70
     8
  0
VERTEX
  8
SJC2
  5
1BE1A
 10
759.779
 20
289.572
 30
0.000000
  70
    32
  0
VERTEX
  8
SJC2
  5
1BE1B
 10
760.945
 20
288.976
 30
0.000000
  70
    32
  0
VERTEX
  8
SJC2
  5
1BE1C
 10
762.176
 20
288.499
 30
0.000000
  70
    32
  0
VERTEX
  8
SJC2
  5
1BE1D
 10
763.468
 20
288.142
 30
0.000000
  70
    32
  0
VERTEX
  8
SJC2
  5
1BE1E
 10
764.819
 20
287.904
 30
0.000000
  70
    32
  0
VERTEX
  8
SJC2
  5
1BE1F
 10
766.225
 20
287.788
 30
0.000000
  70
    32
  0
VERTEX
  8
SJC2
  5
1BE20
 10
767.684
 20
287.793
 30
0.000000
  70
    32
  0
VERTEX
  8
SJC2
  5
1BE21
 10
769.190
 20
287.918
 30
0.000000
  70
    32
  0
VERTEX
  8
SJC2
  5
1BE22
 10
770.742
 20
288.165
 30
0.000000
  70
    32
  0
VERTEX
  8
SJC2
  5
1BE23
 10
772.334
 20
288.532
 30
0.000000
  70
    32
  0
VERTEX
  8
SJC2
  5
1BE24
 10
773.964
 20
289.018
 30
0.000000
  70
    32
  0
VERTEX
  8
SJC2
  5
1BE25
 10
775.627
 20
289.622
 30
0.000000
  70
    32
  0
VERTEX
  8
SJC2
  5
1BE26
 10
777.319
 20
290.343
 30
0.000000
  70
    32
  0
VERTEX
  8
SJC2
  5
1BE27
 10
779.036
 20
291.179
 30
0.000000
  70
    32
  0
VERTEX
  8
SJC2
  5
1BE28
 10
780.775
 20
292.128
 30
0.000000
  70
    32
  0
VERTEX
  8
SJC2
  5
1BE29
 10
782.530
 20
293.188
 30
0.000000
  70
    32
  0
VERTEX
  8
SJC2
  5
1BE2A
 10
784.298
 20
294.356
 30
0.000000
  70
    32
  0
VERTEX
  8
SJC2
  5
1BE2B
 10
786.075
 20
295.629
 30
0.000000
  70
    32
  0
VERTEX
  8
SJC2
  5
1BE2C
 10
787.855
 20
297.004
 30
0.000000
  70
    32
  0
VERTEX
  8
SJC2
  5
1BE2D
 10
789.635
 20
298.479
 30
0.000000
  70
    32
  0
VERTEX
  8
SJC2
  5
1BE2E
 10
791.411
 20
300.048
 30
0.000000
  70
    32
  0
VERTEX
  8
SJC2
  5
1BE2F
 10
793.178
 20
301.709
 30
0.000000
  70
    32
  0
VERTEX
  8
SJC2
  5
1BE30
 10
794.932
 20
303.458
 30
0.000000
  70
    32
  0
VERTEX
  8
SJC2
  5
1BE31
 10
796.669
 20
305.291
 30
0.000000
  70
    32
  0
VERTEX
  8
SJC2
  5
1BE32
 10
798.385
 20
307.202
 30
0.000000
  70
    32
  0
VERTEX
  8
SJC2
  5
1BE33
 10
800.075
 20
309.187
 30
0.000000
  70
    32
  0
VERTEX
  8
SJC2
  5
1BE34
 10
801.735
 20
311.243
 30
0.000000
  70
    32
  0
VERTEX
  8
SJC2
  5
1BE35
 10
803.362
 20
313.362
 30
0.000000
  70
    32
  0
VERTEX
  8
SJC2
  5
1BE36
 10
804.951
 20
315.542
 30
0.000000
  70
    32
  0
VERTEX
  8
SJC2
  5
1BE37
 10
806.499
 20
317.775
 30
0.000000
  70
    32
  0
VERTEX
  8
SJC2
  5
1BE38
 10
808.001
 20
320.058
 30
0.000000
  70
    32
  0
VERTEX
  8
SJC2
  5
1BE39
 10
809.455
 20
322.384
 30
0.000000
  70
    32
  0
VERTEX
  8
SJC2
  5
1BE3A
 10
810.857
 20
324.748
 30
0.000000
  70
    32
  0
VERTEX
  8
SJC2
  5
1BE3B
 10
812.203
 20
327.143
 30
0.000000
  70
    32
  0
VERTEX
  8
SJC2
  5
1BE3C
 10
813.490
 20
329.565
 30
0.000000
  70
    32
  0
VERTEX
  8
SJC2
  5
1BE3D
 10
814.716
 20
332.008
 30
0.000000
  70
    32
  0
VERTEX
  8
SJC2
  5
1BE3E
 10
815.876
 20
334.465
 30
0.000000
  70
    32
  0
VERTEX
  8
SJC2
  5
1BE3F
 10
816.969
 20
336.931
 30
0.000000
  70
    32
  0
VERTEX
  8
SJC2
  5
1BE40
 10
817.991
 20
339.400
 30
0.000000
  70
    32
  0
VERTEX
  8
SJC2
  5
1BE41
 10
818.941
 20
341.865
 30
0.000000
  70
    32
  0
VERTEX
  8
SJC2
  5
1BE42
 10
819.816
 20
344.322
 30
0.000000
  70
    32
  0
VERTEX
  8
SJC2
  5
1BE43
 10
820.613
 20
346.763
 30
0.000000
  70
    32
  0
VERTEX
  8
SJC2
  5
1BE44
 10
821.332
 20
349.183
 30
0.000000
  70
    32
  0
VERTEX
  8
SJC2
  5
1BE45
 10
821.969
 20
351.577
 30
0.000000
  70
    32
  0
VERTEX
  8
SJC2
  5
1BE46
 10
822.524
 20
353.938
 30
0.000000
  70
    32
  0
VERTEX
  8
SJC2
  5
1BE47
 10
822.996
 20
356.260
 30
0.000000
  70
    32
  0
VERTEX
  8
SJC2
  5
1BE48
 10
823.382
 20
358.539
 30
0.000000
  70
    32
  0
VERTEX
  8
SJC2
  5
1BE49
 10
823.683
 20
360.769
 30
0.000000
  70
    32
  0
VERTEX
  8
SJC2
  5
1BE4A
 10
823.898
 20
362.944
 30
0.000000
  70
    32
  0
VERTEX
  8
SJC2
  5
1BE4B
 10
824.025
 20
365.059
 30
0.000000
  70
    32
  0
VERTEX
  8
SJC2
  5
1BE4C
 10
824.065
 20
367.109
 30
0.000000
  70
    32
  0
VERTEX
  8
SJC2
  5
1BE4D
 10
824.018
 20
369.089
 30
0.000000
  70
    32
  0
VERTEX
  8
SJC2
  5
1BE4E
 10
823.883
 20
370.994
 30
0.000000
  70
    32
  0
VERTEX
  8
SJC2
  5
1BE4F
 10
823.661
 20
372.820
 30
0.000000
  70
    32
  0
VERTEX
  8
SJC2
  5
1BE50
 10
823.353
 20
374.563
 30
0.000000
  70
    32
  0
VERTEX
  8
SJC2
  5
1BE51
 10
822.959
 20
376.217
 30
0.000000
  70
    32
  0
VERTEX
  8
SJC2
  5
1BE52
 10
822.481
 20
377.780
 30
0.000000
  70
    32
  0
VERTEX
  8
SJC2
  5
1BE53
 10
821.919
 20
379.247
 30
0.000000
  70
    32
  0
VERTEX
  8
SJC2
  5
1BE54
 10
821.274
 20
380.614
 30
0.000000
  70
    32
  0
VERTEX
  8
SJC2
  5
1BE55
 10
820.549
 20
381.879
 30
0.000000
  70
    32
  0
VERTEX
  8
SJC2
  5
1BE56
 10
819.745
 20
383.039
 30
0.000000
  70
    32
  0
VERTEX
  8
SJC2
  5
1BE57
 10
818.864
 20
384.090
 30
0.000000
  70
    32
  0
VERTEX
  8
SJC2
  5
1BE58
 10
817.908
 20
385.031
 30
0.000000
  70
    32
  0
VERTEX
  8
SJC2
  5
1BE59
 10
816.880
 20
385.858
 30
0.000000
  70
    32
  0
VERTEX
  8
SJC2
  5
1BE5A
 10
815.781
 20
386.570
 30
0.000000
  70
    32
  0
VERTEX
  8
SJC2
  5
1BE5B
 10
814.615
 20
387.165
 30
0.000000
  70
    32
  0
VERTEX
  8
SJC2
  5
1BE5C
 10
813.384
 20
387.643
 30
0.000000
  70
    32
  0
VERTEX
  8
SJC2
  5
1BE5D
 10
812.092
 20
388.000
 30
0.000000
  70
    32
  0
VERTEX
  8
SJC2
  5
1BE5E
 10
810.741
 20
388.238
 30
0.000000
  70
    32
  0
VERTEX
  8
SJC2
  5
1BE5F
 10
809.335
 20
388.354
 30
0.000000
  70
    32
  0
VERTEX
  8
SJC2
  5
1BE60
 10
807.876
 20
388.349
 30
0.000000
  70
    32
  0
VERTEX
  8
SJC2
  5
1BE61
 10
806.370
 20
388.224
 30
0.000000
  70
    32
  0
VERTEX
  8
SJC2
  5
1BE62
 10
804.818
 20
387.977
 30
0.000000
  70
    32
  0
VERTEX
  8
SJC2
  5
1BE63
 10
803.226
 20
387.610
 30
0.000000
  70
    32
  0
VERTEX
  8
SJC2
  5
1BE64
 10
801.596
 20
387.124
 30
0.000000
  70
    32
  0
VERTEX
  8
SJC2
  5
1BE65
 10
799.933
 20
386.520
 30
0.000000
  70
    32
  0
VERTEX
  8
SJC2
  5
1BE66
 10
798.241
 20
385.799
 30
0.000000
  70
    32
  0
VERTEX
  8
SJC2
  5
1BE67
 10
796.524
 20
384.963
 30
0.000000
  70
    32
  0
VERTEX
  8
SJC2
  5
1BE68
 10
794.785
 20
384.014
 30
0.000000
  70
    32
  0
VERTEX
  8
SJC2
  5
1BE69
 10
793.030
 20
382.954
 30
0.000000
  70
    32
  0
VERTEX
  8
SJC2
  5
1BE6A
 10
791.262
 20
381.786
 30
0.000000
  70
    32
  0
VERTEX
  8
SJC2
  5
1BE6B
 10
789.485
 20
380.513
 30
0.000000
  70
    32
  0
VERTEX
  8
SJC2
  5
1BE6C
 10
787.705
 20
379.138
 30
0.000000
  70
    32
  0
VERTEX
  8
SJC2
  5
1BE6D
 10
785.925
 20
377.663
 30
0.000000
  70
    32
  0
VERTEX
  8
SJC2
  5
1BE6E
 10
784.149
 20
376.094
 30
0.000000
  70
    32
  0
VERTEX
  8
SJC2
  5
1BE6F
 10
782.382
 20
374.432
 30
0.000000
  70
    32
  0
VERTEX
  8
SJC2
  5
1BE70
 10
780.628
 20
372.684
 30
0.000000
  70
    32
  0
VERTEX
  8
SJC2
  5
1BE71
 10
778.891
 20
370.851
 30
0.000000
  70
    32
  0
VERTEX
  8
SJC2
  5
1BE72
 10
777.175
 20
368.940
 30
0.000000
  70
    32
  0
VERTEX
  8
SJC2
  5
1BE73
 10
775.485
 20
366.954
 30
0.000000
  70
    32
  0
VERTEX
  8
SJC2
  5
1BE74
 10
773.825
 20
364.899
 30
0.000000
  70
    32
  0
VERTEX
  8
SJC2
  5
1BE75
 10
772.198
 20
362.779
 30
0.000000
  70
    32
  0
VERTEX
  8
SJC2
  5
1BE76
 10
770.609
 20
360.600
 30
0.000000
  70
    32
  0
VERTEX
  8
SJC2
  5
1BE77
 10
769.061
 20
358.367
 30
0.000000
  70
    32
  0
VERTEX
  8
SJC2
  5
1BE78
 10
767.559
 20
356.084
 30
0.000000
  70
    32
  0
VERTEX
  8
SJC2
  5
1BE79
 10
766.105
 20
353.758
 30
0.000000
  70
    32
  0
VERTEX
  8
SJC2
  5
1BE7A
 10
764.703
 20
351.394
 30
0.000000
  70
    32
  0
VERTEX
  8
SJC2
  5
1BE7B
 10
763.357
 20
348.999
 30
0.000000
  70
    32
  0
VERTEX
  8
SJC2
  5
1BE7C
 10
762.070
 20
346.577
 30
0.000000
  70
    32
  0
VERTEX
  8
SJC2
  5
1BE7D
 10
760.844
 20
344.134
 30
0.000000
  70
    32
  0
VERTEX
  8
SJC2
  5
1BE7E
 10
759.684
 20
341.677
 30
0.000000
  70
    32
  0
VERTEX
  8
SJC2
  5
1BE7F
 10
758.591
 20
339.211
 30
0.000000
  70
    32
  0
VERTEX
  8
SJC2
  5
1BE80
 10
757.568
 20
336.742
 30
0.000000
  70
    32
  0
VERTEX
  8
SJC2
  5
1BE81
 10
756.619
 20
334.277
 30
0.000000
  70
    32
  0
VERTEX
  8
SJC2
  5
1BE82
 10
755.744
 20
331.820
 30
0.000000
  70
    32
  0
VERTEX
  8
SJC2
  5
1BE83
 10
754.947
 20
329.379
 30
0.000000
  70
    32
  0
VERTEX
  8
SJC2
  5
1BE84
 10
754.228
 20
326.959
 30
0.000000
  70
    32
  0
VERTEX
  8
SJC2
  5
1BE85
 10
753.591
 20
324.565
 30
0.000000
  70
    32
  0
VERTEX
  8
SJC2
  5
1BE86
 10
753.036
 20
322.204
 30
0.000000
  70
    32
  0
VERTEX
  8
SJC2
  5
1BE87
 10
752.564
 20
319.882
 30
0.000000
  70
    32
  0
VERTEX
  8
SJC2
  5
1BE88
 10
752.178
 20
317.603
 30
0.000000
  70
    32
  0
VERTEX
  8
SJC2
  5
1BE89
 10
751.877
 20
315.373
 30
0.000000
  70
    32
  0
VERTEX
  8
SJC2
  5
1BE8A
 10
751.662
 20
313.198
 30
0.000000
  70
    32
  0
VERTEX
  8
SJC2
  5
1BE8B
 10
751.535
 20
311.083
 30
0.000000
  70
    32
  0
VERTEX
  8
SJC2
  5
1BE8C
 10
751.495
 20
309.033
 30
0.000000
  70
    32
  0
VERTEX
  8
SJC2
  5
1BE8D
 10
751.542
 20
307.053
 30
0.000000
  70
    32
  0
VERTEX
  8
SJC2
  5
1BE8E
 10
751.677
 20
305.147
 30
0.000000
  70
    32
  0
VERTEX
  8
SJC2
  5
1BE8F
 10
751.899
 20
303.321
 30
0.000000
  70
    32
  0
VERTEX
  8
SJC2
  5
1BE90
 10
752.207
 20
301.579
 30
0.000000
  70
    32
  0
VERTEX
  8
SJC2
  5
1BE91
 10
752.601
 20
299.925
 30
0.000000
  70
    32
  0
VERTEX
  8
SJC2
  5
1BE92
 10
753.079
 20
298.362
 30
0.000000
  70
    32
  0
VERTEX
  8
SJC2
  5
1BE93
 10
753.641
 20
296.895
 30
0.000000
  70
    32
  0
VERTEX
  8
SJC2
  5
1BE94
 10
754.286
 20
295.528
 30
0.000000
  70
    32
  0
VERTEX
  8
SJC2
  5
1BE95
 10
755.011
 20
294.263
 30
0.000000
  70
    32
  0
VERTEX
  8
SJC2
  5
1BE96
 10
755.815
 20
293.103
 30
0.000000
  70
    32
  0
VERTEX
  8
SJC2
  5
1BE97
 10
756.696
 20
292.052
 30
0.000000
  70
    32
  0
VERTEX
  8
SJC2
  5
1BE98
 10
757.652
 20
291.111
 30
0.000000
  70
    32
  0
VERTEX
  8
SJC2
  5
1BE99
 10
758.680
 20
290.284
 30
0.000000
  70
    32
  0
VERTEX
  8
SJC2
  5
1BE9A
 10
759.779
 20
289.572
 30
0.000000
  70
    32
  0
SEQEND
  8
SJC2
  5
1BE9B
  0
POLYLINE
  5
1B55D
  8
SJC2
 10
822.03867974706895
 20
289.57177566539235
 30
0.0
 66
     1
 70
     8
  0
VERTEX
  8
SJC2
  5
1BE9C
 10
822.039
 20
289.572
 30
0.000000
  70
    32
  0
VERTEX
  8
SJC2
  5
1BE9D
 10
823.205
 20
288.976
 30
0.000000
  70
    32
  0
VERTEX
  8
SJC2
  5
1BE9E
 10
824.435
 20
288.499
 30
0.000000
  70
    32
  0
VERTEX
  8
SJC2
  5
1BE9F
 10
825.728
 20
288.142
 30
0.000000
  70
    32
  0
VERTEX
  8
SJC2
  5
1BEA0
 10
827.079
 20
287.904
 30
0.000000
  70
    32
  0
VERTEX
  8
SJC2
  5
1BEA1
 10
828.485
 20
287.788
 30
0.000000
  70
    32
  0
VERTEX
  8
SJC2
  5
1BEA2
 10
829.943
 20
287.793
 30
0.000000
  70
    32
  0
VERTEX
  8
SJC2
  5
1BEA3
 10
831.450
 20
287.918
 30
0.000000
  70
    32
  0
VERTEX
  8
SJC2
  5
1BEA4
 10
833.001
 20
288.165
 30
0.000000
  70
    32
  0
VERTEX
  8
SJC2
  5
1BEA5
 10
834.594
 20
288.532
 30
0.000000
  70
    32
  0
VERTEX
  8
SJC2
  5
1BEA6
 10
836.223
 20
289.018
 30
0.000000
  70
    32
  0
VERTEX
  8
SJC2
  5
1BEA7
 10
837.886
 20
289.622
 30
0.000000
  70
    32
  0
VERTEX
  8
SJC2
  5
1BEA8
 10
839.579
 20
290.343
 30
0.000000
  70
    32
  0
VERTEX
  8
SJC2
  5
1BEA9
 10
841.296
 20
291.179
 30
0.000000
  70
    32
  0
VERTEX
  8
SJC2
  5
1BEAA
 10
843.034
 20
292.128
 30
0.000000
  70
    32
  0
VERTEX
  8
SJC2
  5
1BEAB
 10
844.790
 20
293.188
 30
0.000000
  70
    32
  0
VERTEX
  8
SJC2
  5
1BEAC
 10
846.558
 20
294.356
 30
0.000000
  70
    32
  0
VERTEX
  8
SJC2
  5
1BEAD
 10
848.334
 20
295.629
 30
0.000000
  70
    32
  0
VERTEX
  8
SJC2
  5
1BEAE
 10
850.115
 20
297.004
 30
0.000000
  70
    32
  0
VERTEX
  8
SJC2
  5
1BEAF
 10
851.895
 20
298.479
 30
0.000000
  70
    32
  0
VERTEX
  8
SJC2
  5
1BEB0
 10
853.671
 20
300.048
 30
0.000000
  70
    32
  0
VERTEX
  8
SJC2
  5
1BEB1
 10
855.438
 20
301.709
 30
0.000000
  70
    32
  0
VERTEX
  8
SJC2
  5
1BEB2
 10
857.192
 20
303.458
 30
0.000000
  70
    32
  0
VERTEX
  8
SJC2
  5
1BEB3
 10
858.929
 20
305.291
 30
0.000000
  70
    32
  0
VERTEX
  8
SJC2
  5
1BEB4
 10
860.644
 20
307.202
 30
0.000000
  70
    32
  0
VERTEX
  8
SJC2
  5
1BEB5
 10
862.334
 20
309.187
 30
0.000000
  70
    32
  0
VERTEX
  8
SJC2
  5
1BEB6
 10
863.995
 20
311.243
 30
0.000000
  70
    32
  0
VERTEX
  8
SJC2
  5
1BEB7
 10
865.621
 20
313.362
 30
0.000000
  70
    32
  0
VERTEX
  8
SJC2
  5
1BEB8
 10
867.210
 20
315.542
 30
0.000000
  70
    32
  0
VERTEX
  8
SJC2
  5
1BEB9
 10
868.758
 20
317.775
 30
0.000000
  70
    32
  0
VERTEX
  8
SJC2
  5
1BEBA
 10
870.261
 20
320.058
 30
0.000000
  70
    32
  0
VERTEX
  8
SJC2
  5
1BEBB
 10
871.715
 20
322.384
 30
0.000000
  70
    32
  0
VERTEX
  8
SJC2
  5
1BEBC
 10
873.117
 20
324.748
 30
0.000000
  70
    32
  0
VERTEX
  8
SJC2
  5
1BEBD
 10
874.463
 20
327.143
 30
0.000000
  70
    32
  0
VERTEX
  8
SJC2
  5
1BEBE
 10
875.750
 20
329.565
 30
0.000000
  70
    32
  0
VERTEX
  8
SJC2
  5
1BEBF
 10
876.975
 20
332.008
 30
0.000000
  70
    32
  0
VERTEX
  8
SJC2
  5
1BEC0
 10
878.136
 20
334.465
 30
0.000000
  70
    32
  0
VERTEX
  8
SJC2
  5
1BEC1
 10
879.229
 20
336.931
 30
0.000000
  70
    32
  0
VERTEX
  8
SJC2
  5
1BEC2
 10
880.251
 20
339.400
 30
0.000000
  70
    32
  0
VERTEX
  8
SJC2
  5
1BEC3
 10
881.201
 20
341.865
 30
0.000000
  70
    32
  0
VERTEX
  8
SJC2
  5
1BEC4
 10
882.076
 20
344.322
 30
0.000000
  70
    32
  0
VERTEX
  8
SJC2
  5
1BEC5
 10
882.873
 20
346.763
 30
0.000000
  70
    32
  0
VERTEX
  8
SJC2
  5
1BEC6
 10
883.591
 20
349.183
 30
0.000000
  70
    32
  0
VERTEX
  8
SJC2
  5
1BEC7
 10
884.229
 20
351.577
 30
0.000000
  70
    32
  0
VERTEX
  8
SJC2
  5
1BEC8
 10
884.784
 20
353.938
 30
0.000000
  70
    32
  0
VERTEX
  8
SJC2
  5
1BEC9
 10
885.255
 20
356.260
 30
0.000000
  70
    32
  0
VERTEX
  8
SJC2
  5
1BECA
 10
885.642
 20
358.539
 30
0.000000
  70
    32
  0
VERTEX
  8
SJC2
  5
1BECB
 10
885.943
 20
360.769
 30
0.000000
  70
    32
  0
VERTEX
  8
SJC2
  5
1BECC
 10
886.157
 20
362.944
 30
0.000000
  70
    32
  0
VERTEX
  8
SJC2
  5
1BECD
 10
886.285
 20
365.059
 30
0.000000
  70
    32
  0
VERTEX
  8
SJC2
  5
1BECE
 10
886.325
 20
367.109
 30
0.000000
  70
    32
  0
VERTEX
  8
SJC2
  5
1BECF
 10
886.277
 20
369.089
 30
0.000000
  70
    32
  0
VERTEX
  8
SJC2
  5
1BED0
 10
886.143
 20
370.994
 30
0.000000
  70
    32
  0
VERTEX
  8
SJC2
  5
1BED1
 10
885.921
 20
372.820
 30
0.000000
  70
    32
  0
VERTEX
  8
SJC2
  5
1BED2
 10
885.613
 20
374.563
 30
0.000000
  70
    32
  0
VERTEX
  8
SJC2
  5
1BED3
 10
885.219
 20
376.217
 30
0.000000
  70
    32
  0
VERTEX
  8
SJC2
  5
1BED4
 10
884.740
 20
377.780
 30
0.000000
  70
    32
  0
VERTEX
  8
SJC2
  5
1BED5
 10
884.178
 20
379.247
 30
0.000000
  70
    32
  0
VERTEX
  8
SJC2
  5
1BED6
 10
883.534
 20
380.614
 30
0.000000
  70
    32
  0
VERTEX
  8
SJC2
  5
1BED7
 10
882.809
 20
381.879
 30
0.000000
  70
    32
  0
VERTEX
  8
SJC2
  5
1BED8
 10
882.005
 20
383.039
 30
0.000000
  70
    32
  0
VERTEX
  8
SJC2
  5
1BED9
 10
881.124
 20
384.090
 30
0.000000
  70
    32
  0
VERTEX
  8
SJC2
  5
1BEDA
 10
880.168
 20
385.031
 30
0.000000
  70
    32
  0
VERTEX
  8
SJC2
  5
1BEDB
 10
879.139
 20
385.858
 30
0.000000
  70
    32
  0
VERTEX
  8
SJC2
  5
1BEDC
 10
878.041
 20
386.570
 30
0.000000
  70
    32
  0
VERTEX
  8
SJC2
  5
1BEDD
 10
876.875
 20
387.165
 30
0.000000
  70
    32
  0
VERTEX
  8
SJC2
  5
1BEDE
 10
875.644
 20
387.643
 30
0.000000
  70
    32
  0
VERTEX
  8
SJC2
  5
1BEDF
 10
874.352
 20
388.000
 30
0.000000
  70
    32
  0
VERTEX
  8
SJC2
  5
1BEE0
 10
873.001
 20
388.238
 30
0.000000
  70
    32
  0
VERTEX
  8
SJC2
  5
1BEE1
 10
871.594
 20
388.354
 30
0.000000
  70
    32
  0
VERTEX
  8
SJC2
  5
1BEE2
 10
870.136
 20
388.349
 30
0.000000
  70
    32
  0
VERTEX
  8
SJC2
  5
1BEE3
 10
868.630
 20
388.224
 30
0.000000
  70
    32
  0
VERTEX
  8
SJC2
  5
1BEE4
 10
867.078
 20
387.977
 30
0.000000
  70
    32
  0
VERTEX
  8
SJC2
  5
1BEE5
 10
865.486
 20
387.610
 30
0.000000
  70
    32
  0
VERTEX
  8
SJC2
  5
1BEE6
 10
863.856
 20
387.124
 30
0.000000
  70
    32
  0
VERTEX
  8
SJC2
  5
1BEE7
 10
862.193
 20
386.520
 30
0.000000
  70
    32
  0
VERTEX
  8
SJC2
  5
1BEE8
 10
860.501
 20
385.799
 30
0.000000
  70
    32
  0
VERTEX
  8
SJC2
  5
1BEE9
 10
858.783
 20
384.963
 30
0.000000
  70
    32
  0
VERTEX
  8
SJC2
  5
1BEEA
 10
857.045
 20
384.014
 30
0.000000
  70
    32
  0
VERTEX
  8
SJC2
  5
1BEEB
 10
855.290
 20
382.954
 30
0.000000
  70
    32
  0
VERTEX
  8
SJC2
  5
1BEEC
 10
853.522
 20
381.786
 30
0.000000
  70
    32
  0
VERTEX
  8
SJC2
  5
1BEED
 10
851.745
 20
380.513
 30
0.000000
  70
    32
  0
VERTEX
  8
SJC2
  5
1BEEE
 10
849.965
 20
379.138
 30
0.000000
  70
    32
  0
VERTEX
  8
SJC2
  5
1BEEF
 10
848.184
 20
377.663
 30
0.000000
  70
    32
  0
VERTEX
  8
SJC2
  5
1BEF0
 10
846.408
 20
376.094
 30
0.000000
  70
    32
  0
VERTEX
  8
SJC2
  5
1BEF1
 10
844.641
 20
374.432
 30
0.000000
  70
    32
  0
VERTEX
  8
SJC2
  5
1BEF2
 10
842.887
 20
372.684
 30
0.000000
  70
    32
  0
VERTEX
  8
SJC2
  5
1BEF3
 10
841.150
 20
370.851
 30
0.000000
  70
    32
  0
VERTEX
  8
SJC2
  5
1BEF4
 10
839.435
 20
368.940
 30
0.000000
  70
    32
  0
VERTEX
  8
SJC2
  5
1BEF5
 10
837.745
 20
366.954
 30
0.000000
  70
    32
  0
VERTEX
  8
SJC2
  5
1BEF6
 10
836.085
 20
364.899
 30
0.000000
  70
    32
  0
VERTEX
  8
SJC2
  5
1BEF7
 10
834.458
 20
362.779
 30
0.000000
  70
    32
  0
VERTEX
  8
SJC2
  5
1BEF8
 10
832.869
 20
360.600
 30
0.000000
  70
    32
  0
VERTEX
  8
SJC2
  5
1BEF9
 10
831.321
 20
358.367
 30
0.000000
  70
    32
  0
VERTEX
  8
SJC2
  5
1BEFA
 10
829.819
 20
356.084
 30
0.000000
  70
    32
  0
VERTEX
  8
SJC2
  5
1BEFB
 10
828.365
 20
353.758
 30
0.000000
  70
    32
  0
VERTEX
  8
SJC2
  5
1BEFC
 10
826.963
 20
351.394
 30
0.000000
  70
    32
  0
VERTEX
  8
SJC2
  5
1BEFD
 10
825.617
 20
348.999
 30
0.000000
  70
    32
  0
VERTEX
  8
SJC2
  5
1BEFE
 10
824.329
 20
346.577
 30
0.000000
  70
    32
  0
VERTEX
  8
SJC2
  5
1BEFF
 10
823.104
 20
344.134
 30
0.000000
  70
    32
  0
VERTEX
  8
SJC2
  5
1BF00
 10
821.943
 20
341.677
 30
0.000000
  70
    32
  0
VERTEX
  8
SJC2
  5
1BF01
 10
820.851
 20
339.211
 30
0.000000
  70
    32
  0
VERTEX
  8
SJC2
  5
1BF02
 10
819.828
 20
336.742
 30
0.000000
  70
    32
  0
VERTEX
  8
SJC2
  5
1BF03
 10
818.879
 20
334.277
 30
0.000000
  70
    32
  0
VERTEX
  8
SJC2
  5
1BF04
 10
818.004
 20
331.820
 30
0.000000
  70
    32
  0
VERTEX
  8
SJC2
  5
1BF05
 10
817.206
 20
329.379
 30
0.000000
  70
    32
  0
VERTEX
  8
SJC2
  5
1BF06
 10
816.488
 20
326.959
 30
0.000000
  70
    32
  0
VERTEX
  8
SJC2
  5
1BF07
 10
815.851
 20
324.565
 30
0.000000
  70
    32
  0
VERTEX
  8
SJC2
  5
1BF08
 10
815.295
 20
322.204
 30
0.000000
  70
    32
  0
VERTEX
  8
SJC2
  5
1BF09
 10
814.824
 20
319.882
 30
0.000000
  70
    32
  0
VERTEX
  8
SJC2
  5
1BF0A
 10
814.437
 20
317.603
 30
0.000000
  70
    32
  0
VERTEX
  8
SJC2
  5
1BF0B
 10
814.137
 20
315.373
 30
0.000000
  70
    32
  0
VERTEX
  8
SJC2
  5
1BF0C
 10
813.922
 20
313.198
 30
0.000000
  70
    32
  0
VERTEX
  8
SJC2
  5
1BF0D
 10
813.795
 20
311.083
 30
0.000000
  70
    32
  0
VERTEX
  8
SJC2
  5
1BF0E
 10
813.755
 20
309.033
 30
0.000000
  70
    32
  0
VERTEX
  8
SJC2
  5
1BF0F
 10
813.802
 20
307.053
 30
0.000000
  70
    32
  0
VERTEX
  8
SJC2
  5
1BF10
 10
813.937
 20
305.147
 30
0.000000
  70
    32
  0
VERTEX
  8
SJC2
  5
1BF11
 10
814.159
 20
303.321
 30
0.000000
  70
    32
  0
VERTEX
  8
SJC2
  5
1BF12
 10
814.467
 20
301.579
 30
0.000000
  70
    32
  0
VERTEX
  8
SJC2
  5
1BF13
 10
814.860
 20
299.925
 30
0.000000
  70
    32
  0
VERTEX
  8
SJC2
  5
1BF14
 10
815.339
 20
298.362
 30
0.000000
  70
    32
  0
VERTEX
  8
SJC2
  5
1BF15
 10
815.901
 20
296.895
 30
0.000000
  70
    32
  0
VERTEX
  8
SJC2
  5
1BF16
 10
816.546
 20
295.528
 30
0.000000
  70
    32
  0
VERTEX
  8
SJC2
  5
1BF17
 10
817.271
 20
294.263
 30
0.000000
  70
    32
  0
VERTEX
  8
SJC2
  5
1BF18
 10
818.075
 20
293.103
 30
0.000000
  70
    32
  0
VERTEX
  8
SJC2
  5
1BF19
 10
818.956
 20
292.052
 30
0.000000
  70
    32
  0
VERTEX
  8
SJC2
  5
1BF1A
 10
819.912
 20
291.111
 30
0.000000
  70
    32
  0
VERTEX
  8
SJC2
  5
1BF1B
 10
820.940
 20
290.284
 30
0.000000
  70
    32
  0
VERTEX
  8
SJC2
  5
1BF1C
 10
822.039
 20
289.572
 30
0.000000
  70
    32
  0
SEQEND
  8
SJC2
  5
1BF1D
  0
LINE
  5
1B570
  8
SJC
 10
487.64738174554083
 20
287.58889876454123
 30
0.0
 11
887.64738174554066
 21
287.58889876454123
 31
0.0
1001
ACAD
1000
ASC_BOUNDS
1002
{
1070
    19
1005
0
1005
0
1005
0
1002
}
  0
LINE
  5
1B584
  8
SJC
 10
1616.8632148796351
 20
387.58889876454123
 30
0.0
 11
1616.8632148796351
 21
287.58889876454123
 31
0.0
  0
LINE
  5
1B585
  8
SJC
 10
1216.8632148796351
 20
387.58889876454123
 30
0.0
 11
1216.8632148796351
 21
287.58889876454123
 31
0.0
  0
POLYLINE
  5
1B586
  8
SJC2
 10
1227.6413489234048
 20
289.57177566539235
 30
0.0
 66
     1
 70
     8
  0
VERTEX
  8
SJC2
  5
1BF1E
 10
1227.64
 20
289.572
 30
0.000000
  70
    32
  0
VERTEX
  8
SJC2
  5
1BF1F
 10
1228.81
 20
288.976
 30
0.000000
  70
    32
  0
VERTEX
  8
SJC2
  5
1BF20
 10
1230.04
 20
288.499
 30
0.000000
  70
    32
  0
VERTEX
  8
SJC2
  5
1BF21
 10
1231.33
 20
288.142
 30
0.000000
  70
    32
  0
VERTEX
  8
SJC2
  5
1BF22
 10
1232.68
 20
287.904
 30
0.000000
  70
    32
  0
VERTEX
  8
SJC2
  5
1BF23
 10
1234.09
 20
287.788
 30
0.000000
  70
    32
  0
VERTEX
  8
SJC2
  5
1BF24
 10
1235.55
 20
287.793
 30
0.000000
  70
    32
  0
VERTEX
  8
SJC2
  5
1BF25
 10
1237.05
 20
287.918
 30
0.000000
  70
    32
  0
VERTEX
  8
SJC2
  5
1BF26
 10
1238.60
 20
288.165
 30
0.000000
  70
    32
  0
VERTEX
  8
SJC2
  5
1BF27
 10
1240.20
 20
288.532
 30
0.000000
  70
    32
  0
VERTEX
  8
SJC2
  5
1BF28
 10
1241.83
 20
289.018
 30
0.000000
  70
    32
  0
VERTEX
  8
SJC2
  5
1BF29
 10
1243.49
 20
289.622
 30
0.000000
  70
    32
  0
VERTEX
  8
SJC2
  5
1BF2A
 10
1245.18
 20
290.343
 30
0.000000
  70
    32
  0
VERTEX
  8
SJC2
  5
1BF2B
 10
1246.90
 20
291.179
 30
0.000000
  70
    32
  0
VERTEX
  8
SJC2
  5
1BF2C
 10
1248.64
 20
292.128
 30
0.000000
  70
    32
  0
VERTEX
  8
SJC2
  5
1BF2D
 10
1250.39
 20
293.188
 30
0.000000
  70
    32
  0
VERTEX
  8
SJC2
  5
1BF2E
 10
1252.16
 20
294.356
 30
0.000000
  70
    32
  0
VERTEX
  8
SJC2
  5
1BF2F
 10
1253.94
 20
295.629
 30
0.000000
  70
    32
  0
VERTEX
  8
SJC2
  5
1BF30
 10
1255.72
 20
297.004
 30
0.000000
  70
    32
  0
VERTEX
  8
SJC2
  5
1BF31
 10
1257.50
 20
298.479
 30
0.000000
  70
    32
  0
VERTEX
  8
SJC2
  5
1BF32
 10
1259.27
 20
300.048
 30
0.000000
  70
    32
  0
VERTEX
  8
SJC2
  5
1BF33
 10
1261.04
 20
301.709
 30
0.000000
  70
    32
  0
VERTEX
  8
SJC2
  5
1BF34
 10
1262.79
 20
303.458
 30
0.000000
  70
    32
  0
VERTEX
  8
SJC2
  5
1BF35
 10
1264.53
 20
305.291
 30
0.000000
  70
    32
  0
VERTEX
  8
SJC2
  5
1BF36
 10
1266.25
 20
307.202
 30
0.000000
  70
    32
  0
VERTEX
  8
SJC2
  5
1BF37
 10
1267.94
 20
309.187
 30
0.000000
  70
    32
  0
VERTEX
  8
SJC2
  5
1BF38
 10
1269.60
 20
311.243
 30
0.000000
  70
    32
  0
VERTEX
  8
SJC2
  5
1BF39
 10
1271.22
 20
313.362
 30
0.000000
  70
    32
  0
VERTEX
  8
SJC2
  5
1BF3A
 10
1272.81
 20
315.542
 30
0.000000
  70
    32
  0
VERTEX
  8
SJC2
  5
1BF3B
 10
1274.36
 20
317.775
 30
0.000000
  70
    32
  0
VERTEX
  8
SJC2
  5
1BF3C
 10
1275.86
 20
320.058
 30
0.000000
  70
    32
  0
VERTEX
  8
SJC2
  5
1BF3D
 10
1277.32
 20
322.384
 30
0.000000
  70
    32
  0
VERTEX
  8
SJC2
  5
1BF3E
 10
1278.72
 20
324.748
 30
0.000000
  70
    32
  0
VERTEX
  8
SJC2
  5
1BF3F
 10
1280.07
 20
327.143
 30
0.000000
  70
    32
  0
VERTEX
  8
SJC2
  5
1BF40
 10
1281.35
 20
329.565
 30
0.000000
  70
    32
  0
VERTEX
  8
SJC2
  5
1BF41
 10
1282.58
 20
332.008
 30
0.000000
  70
    32
  0
VERTEX
  8
SJC2
  5
1BF42
 10
1283.74
 20
334.465
 30
0.000000
  70
    32
  0
VERTEX
  8
SJC2
  5
1BF43
 10
1284.83
 20
336.931
 30
0.000000
  70
    32
  0
VERTEX
  8
SJC2
  5
1BF44
 10
1285.85
 20
339.400
 30
0.000000
  70
    32
  0
VERTEX
  8
SJC2
  5
1BF45
 10
1286.80
 20
341.865
 30
0.000000
  70
    32
  0
VERTEX
  8
SJC2
  5
1BF46
 10
1287.68
 20
344.322
 30
0.000000
  70
    32
  0
VERTEX
  8
SJC2
  5
1BF47
 10
1288.48
 20
346.763
 30
0.000000
  70
    32
  0
VERTEX
  8
SJC2
  5
1BF48
 10
1289.19
 20
349.183
 30
0.000000
  70
    32
  0
VERTEX
  8
SJC2
  5
1BF49
 10
1289.83
 20
351.577
 30
0.000000
  70
    32
  0
VERTEX
  8
SJC2
  5
1BF4A
 10
1290.39
 20
353.938
 30
0.000000
  70
    32
  0
VERTEX
  8
SJC2
  5
1BF4B
 10
1290.86
 20
356.260
 30
0.000000
  70
    32
  0
VERTEX
  8
SJC2
  5
1BF4C
 10
1291.24
 20
358.539
 30
0.000000
  70
    32
  0
VERTEX
  8
SJC2
  5
1BF4D
 10
1291.55
 20
360.769
 30
0.000000
  70
    32
  0
VERTEX
  8
SJC2
  5
1BF4E
 10
1291.76
 20
362.944
 30
0.000000
  70
    32
  0
VERTEX
  8
SJC2
  5
1BF4F
 10
1291.89
 20
365.059
 30
0.000000
  70
    32
  0
VERTEX
  8
SJC2
  5
1BF50
 10
1291.93
 20
367.109
 30
0.000000
  70
    32
  0
VERTEX
  8
SJC2
  5
1BF51
 10
1291.88
 20
369.089
 30
0.000000
  70
    32
  0
VERTEX
  8
SJC2
  5
1BF52
 10
1291.75
 20
370.994
 30
0.000000
  70
    32
  0
VERTEX
  8
SJC2
  5
1BF53
 10
1291.52
 20
372.820
 30
0.000000
  70
    32
  0
VERTEX
  8
SJC2
  5
1BF54
 10
1291.22
 20
374.563
 30
0.000000
  70
    32
  0
VERTEX
  8
SJC2
  5
1BF55
 10
1290.82
 20
376.217
 30
0.000000
  70
    32
  0
VERTEX
  8
SJC2
  5
1BF56
 10
1290.34
 20
377.780
 30
0.000000
  70
    32
  0
VERTEX
  8
SJC2
  5
1BF57
 10
1289.78
 20
379.247
 30
0.000000
  70
    32
  0
VERTEX
  8
SJC2
  5
1BF58
 10
1289.14
 20
380.614
 30
0.000000
  70
    32
  0
VERTEX
  8
SJC2
  5
1BF59
 10
1288.41
 20
381.879
 30
0.000000
  70
    32
  0
VERTEX
  8
SJC2
  5
1BF5A
 10
1287.61
 20
383.039
 30
0.000000
  70
    32
  0
VERTEX
  8
SJC2
  5
1BF5B
 10
1286.73
 20
384.090
 30
0.000000
  70
    32
  0
VERTEX
  8
SJC2
  5
1BF5C
 10
1285.77
 20
385.031
 30
0.000000
  70
    32
  0
VERTEX
  8
SJC2
  5
1BF5D
 10
1284.74
 20
385.858
 30
0.000000
  70
    32
  0
VERTEX
  8
SJC2
  5
1BF5E
 10
1283.64
 20
386.570
 30
0.000000
  70
    32
  0
VERTEX
  8
SJC2
  5
1BF5F
 10
1282.48
 20
387.165
 30
0.000000
  70
    32
  0
VERTEX
  8
SJC2
  5
1BF60
 10
1281.25
 20
387.643
 30
0.000000
  70
    32
  0
VERTEX
  8
SJC2
  5
1BF61
 10
1279.95
 20
388.000
 30
0.000000
  70
    32
  0
VERTEX
  8
SJC2
  5
1BF62
 10
1278.60
 20
388.238
 30
0.000000
  70
    32
  0
VERTEX
  8
SJC2
  5
1BF63
 10
1277.20
 20
388.354
 30
0.000000
  70
    32
  0
VERTEX
  8
SJC2
  5
1BF64
 10
1275.74
 20
388.349
 30
0.000000
  70
    32
  0
VERTEX
  8
SJC2
  5
1BF65
 10
1274.23
 20
388.224
 30
0.000000
  70
    32
  0
VERTEX
  8
SJC2
  5
1BF66
 10
1272.68
 20
387.977
 30
0.000000
  70
    32
  0
VERTEX
  8
SJC2
  5
1BF67
 10
1271.09
 20
387.610
 30
0.000000
  70
    32
  0
VERTEX
  8
SJC2
  5
1BF68
 10
1269.46
 20
387.124
 30
0.000000
  70
    32
  0
VERTEX
  8
SJC2
  5
1BF69
 10
1267.80
 20
386.520
 30
0.000000
  70
    32
  0
VERTEX
  8
SJC2
  5
1BF6A
 10
1266.10
 20
385.799
 30
0.000000
  70
    32
  0
VERTEX
  8
SJC2
  5
1BF6B
 10
1264.39
 20
384.963
 30
0.000000
  70
    32
  0
VERTEX
  8
SJC2
  5
1BF6C
 10
1262.65
 20
384.014
 30
0.000000
  70
    32
  0
VERTEX
  8
SJC2
  5
1BF6D
 10
1260.89
 20
382.954
 30
0.000000
  70
    32
  0
VERTEX
  8
SJC2
  5
1BF6E
 10
1259.12
 20
381.786
 30
0.000000
  70
    32
  0
VERTEX
  8
SJC2
  5
1BF6F
 10
1257.35
 20
380.513
 30
0.000000
  70
    32
  0
VERTEX
  8
SJC2
  5
1BF70
 10
1255.57
 20
379.138
 30
0.000000
  70
    32
  0
VERTEX
  8
SJC2
  5
1BF71
 10
1253.79
 20
377.663
 30
0.000000
  70
    32
  0
VERTEX
  8
SJC2
  5
1BF72
 10
1252.01
 20
376.094
 30
0.000000
  70
    32
  0
VERTEX
  8
SJC2
  5
1BF73
 10
1250.24
 20
374.432
 30
0.000000
  70
    32
  0
VERTEX
  8
SJC2
  5
1BF74
 10
1248.49
 20
372.684
 30
0.000000
  70
    32
  0
VERTEX
  8
SJC2
  5
1BF75
 10
1246.75
 20
370.851
 30
0.000000
  70
    32
  0
VERTEX
  8
SJC2
  5
1BF76
 10
1245.04
 20
368.940
 30
0.000000
  70
    32
  0
VERTEX
  8
SJC2
  5
1BF77
 10
1243.35
 20
366.954
 30
0.000000
  70
    32
  0
VERTEX
  8
SJC2
  5
1BF78
 10
1241.69
 20
364.899
 30
0.000000
  70
    32
  0
VERTEX
  8
SJC2
  5
1BF79
 10
1240.06
 20
362.779
 30
0.000000
  70
    32
  0
VERTEX
  8
SJC2
  5
1BF7A
 10
1238.47
 20
360.600
 30
0.000000
  70
    32
  0
VERTEX
  8
SJC2
  5
1BF7B
 10
1236.92
 20
358.367
 30
0.000000
  70
    32
  0
VERTEX
  8
SJC2
  5
1BF7C
 10
1235.42
 20
356.084
 30
0.000000
  70
    32
  0
VERTEX
  8
SJC2
  5
1BF7D
 10
1233.97
 20
353.758
 30
0.000000
  70
    32
  0
VERTEX
  8
SJC2
  5
1BF7E
 10
1232.57
 20
351.394
 30
0.000000
  70
    32
  0
VERTEX
  8
SJC2
  5
1BF7F
 10
1231.22
 20
348.999
 30
0.000000
  70
    32
  0
VERTEX
  8
SJC2
  5
1BF80
 10
1229.93
 20
346.577
 30
0.000000
  70
    32
  0
VERTEX
  8
SJC2
  5
1BF81
 10
1228.71
 20
344.134
 30
0.000000
  70
    32
  0
VERTEX
  8
SJC2
  5
1BF82
 10
1227.55
 20
341.677
 30
0.000000
  70
    32
  0
VERTEX
  8
SJC2
  5
1BF83
 10
1226.45
 20
339.211
 30
0.000000
  70
    32
  0
VERTEX
  8
SJC2
  5
1BF84
 10
1225.43
 20
336.742
 30
0.000000
  70
    32
  0
VERTEX
  8
SJC2
  5
1BF85
 10
1224.48
 20
334.277
 30
0.000000
  70
    32
  0
VERTEX
  8
SJC2
  5
1BF86
 10
1223.61
 20
331.820
 30
0.000000
  70
    32
  0
VERTEX
  8
SJC2
  5
1BF87
 10
1222.81
 20
329.379
 30
0.000000
  70
    32
  0
VERTEX
  8
SJC2
  5
1BF88
 10
1222.09
 20
326.959
 30
0.000000
  70
    32
  0
VERTEX
  8
SJC2
  5
1BF89
 10
1221.45
 20
324.565
 30
0.000000
  70
    32
  0
VERTEX
  8
SJC2
  5
1BF8A
 10
1220.90
 20
322.204
 30
0.000000
  70
    32
  0
VERTEX
  8
SJC2
  5
1BF8B
 10
1220.43
 20
319.882
 30
0.000000
  70
    32
  0
VERTEX
  8
SJC2
  5
1BF8C
 10
1220.04
 20
317.603
 30
0.000000
  70
    32
  0
VERTEX
  8
SJC2
  5
1BF8D
 10
1219.74
 20
315.373
 30
0.000000
  70
    32
  0
VERTEX
  8
SJC2
  5
1BF8E
 10
1219.52
 20
313.198
 30
0.000000
  70
    32
  0
VERTEX
  8
SJC2
  5
1BF8F
 10
1219.40
 20
311.083
 30
0.000000
  70
    32
  0
VERTEX
  8
SJC2
  5
1BF90
 10
1219.36
 20
309.033
 30
0.000000
  70
    32
  0
VERTEX
  8
SJC2
  5
1BF91
 10
1219.40
 20
307.053
 30
0.000000
  70
    32
  0
VERTEX
  8
SJC2
  5
1BF92
 10
1219.54
 20
305.147
 30
0.000000
  70
    32
  0
VERTEX
  8
SJC2
  5
1BF93
 10
1219.76
 20
303.321
 30
0.000000
  70
    32
  0
VERTEX
  8
SJC2
  5
1BF94
 10
1220.07
 20
301.579
 30
0.000000
  70
    32
  0
VERTEX
  8
SJC2
  5
1BF95
 10
1220.46
 20
299.925
 30
0.000000
  70
    32
  0
VERTEX
  8
SJC2
  5
1BF96
 10
1220.94
 20
298.362
 30
0.000000
  70
    32
  0
VERTEX
  8
SJC2
  5
1BF97
 10
1221.50
 20
296.895
 30
0.000000
  70
    32
  0
VERTEX
  8
SJC2
  5
1BF98
 10
1222.15
 20
295.528
 30
0.000000
  70
    32
  0
VERTEX
  8
SJC2
  5
1BF99
 10
1222.87
 20
294.263
 30
0.000000
  70
    32
  0
VERTEX
  8
SJC2
  5
1BF9A
 10
1223.68
 20
293.103
 30
0.000000
  70
    32
  0
VERTEX
  8
SJC2
  5
1BF9B
 10
1224.56
 20
292.052
 30
0.000000
  70
    32
  0
VERTEX
  8
SJC2
  5
1BF9C
 10
1225.51
 20
291.111
 30
0.000000
  70
    32
  0
VERTEX
  8
SJC2
  5
1BF9D
 10
1226.54
 20
290.284
 30
0.000000
  70
    32
  0
VERTEX
  8
SJC2
  5
1BF9E
 10
1227.64
 20
289.572
 30
0.000000
  70
    32
  0
SEQEND
  8
SJC2
  5
1BF9F
  0
POLYLINE
  5
1B587
  8
SJC2
 10
1289.9010636160619
 20
289.57177566539235
 30
0.0
 66
     1
 70
     8
  0
VERTEX
  8
SJC2
  5
1BFA0
 10
1289.90
 20
289.572
 30
0.000000
  70
    32
  0
VERTEX
  8
SJC2
  5
1BFA1
 10
1291.07
 20
288.976
 30
0.000000
  70
    32
  0
VERTEX
  8
SJC2
  5
1BFA2
 10
1292.30
 20
288.499
 30
0.000000
  70
    32
  0
VERTEX
  8
SJC2
  5
1BFA3
 10
1293.59
 20
288.142
 30
0.000000
  70
    32
  0
VERTEX
  8
SJC2
  5
1BFA4
 10
1294.94
 20
287.904
 30
0.000000
  70
    32
  0
VERTEX
  8
SJC2
  5
1BFA5
 10
1296.35
 20
287.788
 30
0.000000
  70
    32
  0
VERTEX
  8
SJC2
  5
1BFA6
 10
1297.81
 20
287.793
 30
0.000000
  70
    32
  0
VERTEX
  8
SJC2
  5
1BFA7
 10
1299.31
 20
287.918
 30
0.000000
  70
    32
  0
VERTEX
  8
SJC2
  5
1BFA8
 10
1300.86
 20
288.165
 30
0.000000
  70
    32
  0
VERTEX
  8
SJC2
  5
1BFA9
 10
1302.46
 20
288.532
 30
0.000000
  70
    32
  0
VERTEX
  8
SJC2
  5
1BFAA
 10
1304.09
 20
289.018
 30
0.000000
  70
    32
  0
VERTEX
  8
SJC2
  5
1BFAB
 10
1305.75
 20
289.622
 30
0.000000
  70
    32
  0
VERTEX
  8
SJC2
  5
1BFAC
 10
1307.44
 20
290.343
 30
0.000000
  70
    32
  0
VERTEX
  8
SJC2
  5
1BFAD
 10
1309.16
 20
291.179
 30
0.000000
  70
    32
  0
VERTEX
  8
SJC2
  5
1BFAE
 10
1310.90
 20
292.128
 30
0.000000
  70
    32
  0
VERTEX
  8
SJC2
  5
1BFAF
 10
1312.65
 20
293.188
 30
0.000000
  70
    32
  0
VERTEX
  8
SJC2
  5
1BFB0
 10
1314.42
 20
294.356
 30
0.000000
  70
    32
  0
VERTEX
  8
SJC2
  5
1BFB1
 10
1316.20
 20
295.629
 30
0.000000
  70
    32
  0
VERTEX
  8
SJC2
  5
1BFB2
 10
1317.98
 20
297.004
 30
0.000000
  70
    32
  0
VERTEX
  8
SJC2
  5
1BFB3
 10
1319.76
 20
298.479
 30
0.000000
  70
    32
  0
VERTEX
  8
SJC2
  5
1BFB4
 10
1321.53
 20
300.048
 30
0.000000
  70
    32
  0
VERTEX
  8
SJC2
  5
1BFB5
 10
1323.30
 20
301.709
 30
0.000000
  70
    32
  0
VERTEX
  8
SJC2
  5
1BFB6
 10
1325.05
 20
303.458
 30
0.000000
  70
    32
  0
VERTEX
  8
SJC2
  5
1BFB7
 10
1326.79
 20
305.291
 30
0.000000
  70
    32
  0
VERTEX
  8
SJC2
  5
1BFB8
 10
1328.51
 20
307.202
 30
0.000000
  70
    32
  0
VERTEX
  8
SJC2
  5
1BFB9
 10
1330.20
 20
309.187
 30
0.000000
  70
    32
  0
VERTEX
  8
SJC2
  5
1BFBA
 10
1331.86
 20
311.243
 30
0.000000
  70
    32
  0
VERTEX
  8
SJC2
  5
1BFBB
 10
1333.48
 20
313.362
 30
0.000000
  70
    32
  0
VERTEX
  8
SJC2
  5
1BFBC
 10
1335.07
 20
315.542
 30
0.000000
  70
    32
  0
VERTEX
  8
SJC2
  5
1BFBD
 10
1336.62
 20
317.775
 30
0.000000
  70
    32
  0
VERTEX
  8
SJC2
  5
1BFBE
 10
1338.12
 20
320.058
 30
0.000000
  70
    32
  0
VERTEX
  8
SJC2
  5
1BFBF
 10
1339.58
 20
322.384
 30
0.000000
  70
    32
  0
VERTEX
  8
SJC2
  5
1BFC0
 10
1340.98
 20
324.748
 30
0.000000
  70
    32
  0
VERTEX
  8
SJC2
  5
1BFC1
 10
1342.33
 20
327.143
 30
0.000000
  70
    32
  0
VERTEX
  8
SJC2
  5
1BFC2
 10
1343.61
 20
329.565
 30
0.000000
  70
    32
  0
VERTEX
  8
SJC2
  5
1BFC3
 10
1344.84
 20
332.008
 30
0.000000
  70
    32
  0
VERTEX
  8
SJC2
  5
1BFC4
 10
1346.00
 20
334.465
 30
0.000000
  70
    32
  0
VERTEX
  8
SJC2
  5
1BFC5
 10
1347.09
 20
336.931
 30
0.000000
  70
    32
  0
VERTEX
  8
SJC2
  5
1BFC6
 10
1348.11
 20
339.400
 30
0.000000
  70
    32
  0
VERTEX
  8
SJC2
  5
1BFC7
 10
1349.06
 20
341.865
 30
0.000000
  70
    32
  0
VERTEX
  8
SJC2
  5
1BFC8
 10
1349.94
 20
344.322
 30
0.000000
  70
    32
  0
VERTEX
  8
SJC2
  5
1BFC9
 10
1350.74
 20
346.763
 30
0.000000
  70
    32
  0
VERTEX
  8
SJC2
  5
1BFCA
 10
1351.45
 20
349.183
 30
0.000000
  70
    32
  0
VERTEX
  8
SJC2
  5
1BFCB
 10
1352.09
 20
351.577
 30
0.000000
  70
    32
  0
VERTEX
  8
SJC2
  5
1BFCC
 10
1352.65
 20
353.938
 30
0.000000
  70
    32
  0
VERTEX
  8
SJC2
  5
1BFCD
 10
1353.12
 20
356.260
 30
0.000000
  70
    32
  0
VERTEX
  8
SJC2
  5
1BFCE
 10
1353.50
 20
358.539
 30
0.000000
  70
    32
  0
VERTEX
  8
SJC2
  5
1BFCF
 10
1353.81
 20
360.769
 30
0.000000
  70
    32
  0
VERTEX
  8
SJC2
  5
1BFD0
 10
1354.02
 20
362.944
 30
0.000000
  70
    32
  0
VERTEX
  8
SJC2
  5
1BFD1
 10
1354.15
 20
365.059
 30
0.000000
  70
    32
  0
VERTEX
  8
SJC2
  5
1BFD2
 10
1354.19
 20
367.109
 30
0.000000
  70
    32
  0
VERTEX
  8
SJC2
  5
1BFD3
 10
1354.14
 20
369.089
 30
0.000000
  70
    32
  0
VERTEX
  8
SJC2
  5
1BFD4
 10
1354.00
 20
370.994
 30
0.000000
  70
    32
  0
VERTEX
  8
SJC2
  5
1BFD5
 10
1353.78
 20
372.820
 30
0.000000
  70
    32
  0
VERTEX
  8
SJC2
  5
1BFD6
 10
1353.48
 20
374.563
 30
0.000000
  70
    32
  0
VERTEX
  8
SJC2
  5
1BFD7
 10
1353.08
 20
376.217
 30
0.000000
  70
    32
  0
VERTEX
  8
SJC2
  5
1BFD8
 10
1352.60
 20
377.780
 30
0.000000
  70
    32
  0
VERTEX
  8
SJC2
  5
1BFD9
 10
1352.04
 20
379.247
 30
0.000000
  70
    32
  0
VERTEX
  8
SJC2
  5
1BFDA
 10
1351.40
 20
380.614
 30
0.000000
  70
    32
  0
VERTEX
  8
SJC2
  5
1BFDB
 10
1350.67
 20
381.879
 30
0.000000
  70
    32
  0
VERTEX
  8
SJC2
  5
1BFDC
 10
1349.87
 20
383.039
 30
0.000000
  70
    32
  0
VERTEX
  8
SJC2
  5
1BFDD
 10
1348.99
 20
384.090
 30
0.000000
  70
    32
  0
VERTEX
  8
SJC2
  5
1BFDE
 10
1348.03
 20
385.031
 30
0.000000
  70
    32
  0
VERTEX
  8
SJC2
  5
1BFDF
 10
1347.00
 20
385.858
 30
0.000000
  70
    32
  0
VERTEX
  8
SJC2
  5
1BFE0
 10
1345.90
 20
386.570
 30
0.000000
  70
    32
  0
VERTEX
  8
SJC2
  5
1BFE1
 10
1344.74
 20
387.165
 30
0.000000
  70
    32
  0
VERTEX
  8
SJC2
  5
1BFE2
 10
1343.51
 20
387.643
 30
0.000000
  70
    32
  0
VERTEX
  8
SJC2
  5
1BFE3
 10
1342.21
 20
388.000
 30
0.000000
  70
    32
  0
VERTEX
  8
SJC2
  5
1BFE4
 10
1340.86
 20
388.238
 30
0.000000
  70
    32
  0
VERTEX
  8
SJC2
  5
1BFE5
 10
1339.46
 20
388.354
 30
0.000000
  70
    32
  0
VERTEX
  8
SJC2
  5
1BFE6
 10
1338.00
 20
388.349
 30
0.000000
  70
    32
  0
VERTEX
  8
SJC2
  5
1BFE7
 10
1336.49
 20
388.224
 30
0.000000
  70
    32
  0
VERTEX
  8
SJC2
  5
1BFE8
 10
1334.94
 20
387.977
 30
0.000000
  70
    32
  0
VERTEX
  8
SJC2
  5
1BFE9
 10
1333.35
 20
387.610
 30
0.000000
  70
    32
  0
VERTEX
  8
SJC2
  5
1BFEA
 10
1331.72
 20
387.124
 30
0.000000
  70
    32
  0
VERTEX
  8
SJC2
  5
1BFEB
 10
1330.06
 20
386.520
 30
0.000000
  70
    32
  0
VERTEX
  8
SJC2
  5
1BFEC
 10
1328.36
 20
385.799
 30
0.000000
  70
    32
  0
VERTEX
  8
SJC2
  5
1BFED
 10
1326.65
 20
384.963
 30
0.000000
  70
    32
  0
VERTEX
  8
SJC2
  5
1BFEE
 10
1324.91
 20
384.014
 30
0.000000
  70
    32
  0
VERTEX
  8
SJC2
  5
1BFEF
 10
1323.15
 20
382.954
 30
0.000000
  70
    32
  0
VERTEX
  8
SJC2
  5
1BFF0
 10
1321.38
 20
381.786
 30
0.000000
  70
    32
  0
VERTEX
  8
SJC2
  5
1BFF1
 10
1319.61
 20
380.513
 30
0.000000
  70
    32
  0
VERTEX
  8
SJC2
  5
1BFF2
 10
1317.83
 20
379.138
 30
0.000000
  70
    32
  0
VERTEX
  8
SJC2
  5
1BFF3
 10
1316.05
 20
377.663
 30
0.000000
  70
    32
  0
VERTEX
  8
SJC2
  5
1BFF4
 10
1314.27
 20
376.094
 30
0.000000
  70
    32
  0
VERTEX
  8
SJC2
  5
1BFF5
 10
1312.50
 20
374.432
 30
0.000000
  70
    32
  0
VERTEX
  8
SJC2
  5
1BFF6
 10
1310.75
 20
372.684
 30
0.000000
  70
    32
  0
VERTEX
  8
SJC2
  5
1BFF7
 10
1309.01
 20
370.851
 30
0.000000
  70
    32
  0
VERTEX
  8
SJC2
  5
1BFF8
 10
1307.30
 20
368.940
 30
0.000000
  70
    32
  0
VERTEX
  8
SJC2
  5
1BFF9
 10
1305.61
 20
366.954
 30
0.000000
  70
    32
  0
VERTEX
  8
SJC2
  5
1BFFA
 10
1303.95
 20
364.899
 30
0.000000
  70
    32
  0
VERTEX
  8
SJC2
  5
1BFFB
 10
1302.32
 20
362.779
 30
0.000000
  70
    32
  0
VERTEX
  8
SJC2
  5
1BFFC
 10
1300.73
 20
360.600
 30
0.000000
  70
    32
  0
VERTEX
  8
SJC2
  5
1BFFD
 10
1299.18
 20
358.367
 30
0.000000
  70
    32
  0
VERTEX
  8
SJC2
  5
1BFFE
 10
1297.68
 20
356.084
 30
0.000000
  70
    32
  0
VERTEX
  8
SJC2
  5
1BFFF
 10
1296.23
 20
353.758
 30
0.000000
  70
    32
  0
VERTEX
  8
SJC2
  5
1C000
 10
1294.83
 20
351.394
 30
0.000000
  70
    32
  0
VERTEX
  8
SJC2
  5
1C001
 10
1293.48
 20
348.999
 30
0.000000
  70
    32
  0
VERTEX
  8
SJC2
  5
1C002
 10
1292.19
 20
346.577
 30
0.000000
  70
    32
  0
VERTEX
  8
SJC2
  5
1C003
 10
1290.97
 20
344.134
 30
0.000000
  70
    32
  0
VERTEX
  8
SJC2
  5
1C004
 10
1289.81
 20
341.677
 30
0.000000
  70
    32
  0
VERTEX
  8
SJC2
  5
1C005
 10
1288.71
 20
339.211
 30
0.000000
  70
    32
  0
VERTEX
  8
SJC2
  5
1C006
 10
1287.69
 20
336.742
 30
0.000000
  70
    32
  0
VERTEX
  8
SJC2
  5
1C007
 10
1286.74
 20
334.277
 30
0.000000
  70
    32
  0
VERTEX
  8
SJC2
  5
1C008
 10
1285.87
 20
331.820
 30
0.000000
  70
    32
  0
VERTEX
  8
SJC2
  5
1C009
 10
1285.07
 20
329.379
 30
0.000000
  70
    32
  0
VERTEX
  8
SJC2
  5
1C00A
 10
1284.35
 20
326.959
 30
0.000000
  70
    32
  0
VERTEX
  8
SJC2
  5
1C00B
 10
1283.71
 20
324.565
 30
0.000000
  70
    32
  0
VERTEX
  8
SJC2
  5
1C00C
 10
1283.16
 20
322.204
 30
0.000000
  70
    32
  0
VERTEX
  8
SJC2
  5
1C00D
 10
1282.69
 20
319.882
 30
0.000000
  70
    32
  0
VERTEX
  8
SJC2
  5
1C00E
 10
1282.30
 20
317.603
 30
0.000000
  70
    32
  0
VERTEX
  8
SJC2
  5
1C00F
 10
1282.00
 20
315.373
 30
0.000000
  70
    32
  0
VERTEX
  8
SJC2
  5
1C010
 10
1281.78
 20
313.198
 30
0.000000
  70
    32
  0
VERTEX
  8
SJC2
  5
1C011
 10
1281.66
 20
311.083
 30
0.000000
  70
    32
  0
VERTEX
  8
SJC2
  5
1C012
 10
1281.62
 20
309.033
 30
0.000000
  70
    32
  0
VERTEX
  8
SJC2
  5
1C013
 10
1281.66
 20
307.053
 30
0.000000
  70
    32
  0
VERTEX
  8
SJC2
  5
1C014
 10
1281.80
 20
305.147
 30
0.000000
  70
    32
  0
VERTEX
  8
SJC2
  5
1C015
 10
1282.02
 20
303.321
 30
0.000000
  70
    32
  0
VERTEX
  8
SJC2
  5
1C016
 10
1282.33
 20
301.579
 30
0.000000
  70
    32
  0
VERTEX
  8
SJC2
  5
1C017
 10
1282.72
 20
299.925
 30
0.000000
  70
    32
  0
VERTEX
  8
SJC2
  5
1C018
 10
1283.20
 20
298.362
 30
0.000000
  70
    32
  0
VERTEX
  8
SJC2
  5
1C019
 10
1283.76
 20
296.895
 30
0.000000
  70
    32
  0
VERTEX
  8
SJC2
  5
1C01A
 10
1284.41
 20
295.528
 30
0.000000
  70
    32
  0
VERTEX
  8
SJC2
  5
1C01B
 10
1285.13
 20
294.263
 30
0.000000
  70
    32
  0
VERTEX
  8
SJC2
  5
1C01C
 10
1285.94
 20
293.103
 30
0.000000
  70
    32
  0
VERTEX
  8
SJC2
  5
1C01D
 10
1286.82
 20
292.052
 30
0.000000
  70
    32
  0
VERTEX
  8
SJC2
  5
1C01E
 10
1287.77
 20
291.111
 30
0.000000
  70
    32
  0
VERTEX
  8
SJC2
  5
1C01F
 10
1288.80
 20
290.284
 30
0.000000
  70
    32
  0
VERTEX
  8
SJC2
  5
1C020
 10
1289.90
 20
289.572
 30
0.000000
  70
    32
  0
SEQEND
  8
SJC2
  5
1C021
  0
POLYLINE
  5
1B588
  8
SJC2
 10
1488.9947981885068
 20
289.57177566539235
 30
0.0
 66
     1
 70
     8
  0
VERTEX
  8
SJC2
  5
1C022
 10
1488.99
 20
289.572
 30
0.000000
  70
    32
  0
VERTEX
  8
SJC2
  5
1C023
 10
1490.16
 20
288.976
 30
0.000000
  70
    32
  0
VERTEX
  8
SJC2
  5
1C024
 10
1491.39
 20
288.499
 30
0.000000
  70
    32
  0
VERTEX
  8
SJC2
  5
1C025
 10
1492.68
 20
288.142
 30
0.000000
  70
    32
  0
VERTEX
  8
SJC2
  5
1C026
 10
1494.03
 20
287.904
 30
0.000000
  70
    32
  0
VERTEX
  8
SJC2
  5
1C027
 10
1495.44
 20
287.788
 30
0.000000
  70
    32
  0
VERTEX
  8
SJC2
  5
1C028
 10
1496.90
 20
287.793
 30
0.000000
  70
    32
  0
VERTEX
  8
SJC2
  5
1C029
 10
1498.41
 20
287.918
 30
0.000000
  70
    32
  0
VERTEX
  8
SJC2
  5
1C02A
 10
1499.96
 20
288.165
 30
0.000000
  70
    32
  0
VERTEX
  8
SJC2
  5
1C02B
 10
1501.55
 20
288.532
 30
0.000000
  70
    32
  0
VERTEX
  8
SJC2
  5
1C02C
 10
1503.18
 20
289.018
 30
0.000000
  70
    32
  0
VERTEX
  8
SJC2
  5
1C02D
 10
1504.84
 20
289.622
 30
0.000000
  70
    32
  0
VERTEX
  8
SJC2
  5
1C02E
 10
1506.53
 20
290.343
 30
0.000000
  70
    32
  0
VERTEX
  8
SJC2
  5
1C02F
 10
1508.25
 20
291.179
 30
0.000000
  70
    32
  0
VERTEX
  8
SJC2
  5
1C030
 10
1509.99
 20
292.128
 30
0.000000
  70
    32
  0
VERTEX
  8
SJC2
  5
1C031
 10
1511.75
 20
293.188
 30
0.000000
  70
    32
  0
VERTEX
  8
SJC2
  5
1C032
 10
1513.51
 20
294.356
 30
0.000000
  70
    32
  0
VERTEX
  8
SJC2
  5
1C033
 10
1515.29
 20
295.629
 30
0.000000
  70
    32
  0
VERTEX
  8
SJC2
  5
1C034
 10
1517.07
 20
297.004
 30
0.000000
  70
    32
  0
VERTEX
  8
SJC2
  5
1C035
 10
1518.85
 20
298.479
 30
0.000000
  70
    32
  0
VERTEX
  8
SJC2
  5
1C036
 10
1520.63
 20
300.048
 30
0.000000
  70
    32
  0
VERTEX
  8
SJC2
  5
1C037
 10
1522.39
 20
301.709
 30
0.000000
  70
    32
  0
VERTEX
  8
SJC2
  5
1C038
 10
1524.15
 20
303.458
 30
0.000000
  70
    32
  0
VERTEX
  8
SJC2
  5
1C039
 10
1525.89
 20
305.291
 30
0.000000
  70
    32
  0
VERTEX
  8
SJC2
  5
1C03A
 10
1527.60
 20
307.202
 30
0.000000
  70
    32
  0
VERTEX
  8
SJC2
  5
1C03B
 10
1529.29
 20
309.187
 30
0.000000
  70
    32
  0
VERTEX
  8
SJC2
  5
1C03C
 10
1530.95
 20
311.243
 30
0.000000
  70
    32
  0
VERTEX
  8
SJC2
  5
1C03D
 10
1532.58
 20
313.362
 30
0.000000
  70
    32
  0
VERTEX
  8
SJC2
  5
1C03E
 10
1534.17
 20
315.542
 30
0.000000
  70
    32
  0
VERTEX
  8
SJC2
  5
1C03F
 10
1535.71
 20
317.775
 30
0.000000
  70
    32
  0
VERTEX
  8
SJC2
  5
1C040
 10
1537.22
 20
320.058
 30
0.000000
  70
    32
  0
VERTEX
  8
SJC2
  5
1C041
 10
1538.67
 20
322.384
 30
0.000000
  70
    32
  0
VERTEX
  8
SJC2
  5
1C042
 10
1540.07
 20
324.748
 30
0.000000
  70
    32
  0
VERTEX
  8
SJC2
  5
1C043
 10
1541.42
 20
327.143
 30
0.000000
  70
    32
  0
VERTEX
  8
SJC2
  5
1C044
 10
1542.71
 20
329.565
 30
0.000000
  70
    32
  0
VERTEX
  8
SJC2
  5
1C045
 10
1543.93
 20
332.008
 30
0.000000
  70
    32
  0
VERTEX
  8
SJC2
  5
1C046
 10
1545.09
 20
334.465
 30
0.000000
  70
    32
  0
VERTEX
  8
SJC2
  5
1C047
 10
1546.18
 20
336.931
 30
0.000000
  70
    32
  0
VERTEX
  8
SJC2
  5
1C048
 10
1547.21
 20
339.400
 30
0.000000
  70
    32
  0
VERTEX
  8
SJC2
  5
1C049
 10
1548.16
 20
341.865
 30
0.000000
  70
    32
  0
VERTEX
  8
SJC2
  5
1C04A
 10
1549.03
 20
344.322
 30
0.000000
  70
    32
  0
VERTEX
  8
SJC2
  5
1C04B
 10
1549.83
 20
346.763
 30
0.000000
  70
    32
  0
VERTEX
  8
SJC2
  5
1C04C
 10
1550.55
 20
349.183
 30
0.000000
  70
    32
  0
VERTEX
  8
SJC2
  5
1C04D
 10
1551.18
 20
351.577
 30
0.000000
  70
    32
  0
VERTEX
  8
SJC2
  5
1C04E
 10
1551.74
 20
353.938
 30
0.000000
  70
    32
  0
VERTEX
  8
SJC2
  5
1C04F
 10
1552.21
 20
356.260
 30
0.000000
  70
    32
  0
VERTEX
  8
SJC2
  5
1C050
 10
1552.60
 20
358.539
 30
0.000000
  70
    32
  0
VERTEX
  8
SJC2
  5
1C051
 10
1552.90
 20
360.769
 30
0.000000
  70
    32
  0
VERTEX
  8
SJC2
  5
1C052
 10
1553.11
 20
362.944
 30
0.000000
  70
    32
  0
VERTEX
  8
SJC2
  5
1C053
 10
1553.24
 20
365.059
 30
0.000000
  70
    32
  0
VERTEX
  8
SJC2
  5
1C054
 10
1553.28
 20
367.109
 30
0.000000
  70
    32
  0
VERTEX
  8
SJC2
  5
1C055
 10
1553.23
 20
369.089
 30
0.000000
  70
    32
  0
VERTEX
  8
SJC2
  5
1C056
 10
1553.10
 20
370.994
 30
0.000000
  70
    32
  0
VERTEX
  8
SJC2
  5
1C057
 10
1552.88
 20
372.820
 30
0.000000
  70
    32
  0
VERTEX
  8
SJC2
  5
1C058
 10
1552.57
 20
374.563
 30
0.000000
  70
    32
  0
VERTEX
  8
SJC2
  5
1C059
 10
1552.18
 20
376.217
 30
0.000000
  70
    32
  0
VERTEX
  8
SJC2
  5
1C05A
 10
1551.70
 20
377.780
 30
0.000000
  70
    32
  0
VERTEX
  8
SJC2
  5
1C05B
 10
1551.13
 20
379.247
 30
0.000000
  70
    32
  0
VERTEX
  8
SJC2
  5
1C05C
 10
1550.49
 20
380.614
 30
0.000000
  70
    32
  0
VERTEX
  8
SJC2
  5
1C05D
 10
1549.76
 20
381.879
 30
0.000000
  70
    32
  0
VERTEX
  8
SJC2
  5
1C05E
 10
1548.96
 20
383.039
 30
0.000000
  70
    32
  0
VERTEX
  8
SJC2
  5
1C05F
 10
1548.08
 20
384.090
 30
0.000000
  70
    32
  0
VERTEX
  8
SJC2
  5
1C060
 10
1547.12
 20
385.031
 30
0.000000
  70
    32
  0
VERTEX
  8
SJC2
  5
1C061
 10
1546.10
 20
385.858
 30
0.000000
  70
    32
  0
VERTEX
  8
SJC2
  5
1C062
 10
1545.00
 20
386.570
 30
0.000000
  70
    32
  0
VERTEX
  8
SJC2
  5
1C063
 10
1543.83
 20
387.165
 30
0.000000
  70
    32
  0
VERTEX
  8
SJC2
  5
1C064
 10
1542.60
 20
387.643
 30
0.000000
  70
    32
  0
VERTEX
  8
SJC2
  5
1C065
 10
1541.31
 20
388.000
 30
0.000000
  70
    32
  0
VERTEX
  8
SJC2
  5
1C066
 10
1539.96
 20
388.238
 30
0.000000
  70
    32
  0
VERTEX
  8
SJC2
  5
1C067
 10
1538.55
 20
388.354
 30
0.000000
  70
    32
  0
VERTEX
  8
SJC2
  5
1C068
 10
1537.09
 20
388.349
 30
0.000000
  70
    32
  0
VERTEX
  8
SJC2
  5
1C069
 10
1535.59
 20
388.224
 30
0.000000
  70
    32
  0
VERTEX
  8
SJC2
  5
1C06A
 10
1534.03
 20
387.977
 30
0.000000
  70
    32
  0
VERTEX
  8
SJC2
  5
1C06B
 10
1532.44
 20
387.610
 30
0.000000
  70
    32
  0
VERTEX
  8
SJC2
  5
1C06C
 10
1530.81
 20
387.124
 30
0.000000
  70
    32
  0
VERTEX
  8
SJC2
  5
1C06D
 10
1529.15
 20
386.520
 30
0.000000
  70
    32
  0
VERTEX
  8
SJC2
  5
1C06E
 10
1527.46
 20
385.799
 30
0.000000
  70
    32
  0
VERTEX
  8
SJC2
  5
1C06F
 10
1525.74
 20
384.963
 30
0.000000
  70
    32
  0
VERTEX
  8
SJC2
  5
1C070
 10
1524.00
 20
384.014
 30
0.000000
  70
    32
  0
VERTEX
  8
SJC2
  5
1C071
 10
1522.25
 20
382.954
 30
0.000000
  70
    32
  0
VERTEX
  8
SJC2
  5
1C072
 10
1520.48
 20
381.786
 30
0.000000
  70
    32
  0
VERTEX
  8
SJC2
  5
1C073
 10
1518.70
 20
380.513
 30
0.000000
  70
    32
  0
VERTEX
  8
SJC2
  5
1C074
 10
1516.92
 20
379.138
 30
0.000000
  70
    32
  0
VERTEX
  8
SJC2
  5
1C075
 10
1515.14
 20
377.663
 30
0.000000
  70
    32
  0
VERTEX
  8
SJC2
  5
1C076
 10
1513.36
 20
376.094
 30
0.000000
  70
    32
  0
VERTEX
  8
SJC2
  5
1C077
 10
1511.60
 20
374.432
 30
0.000000
  70
    32
  0
VERTEX
  8
SJC2
  5
1C078
 10
1509.84
 20
372.684
 30
0.000000
  70
    32
  0
VERTEX
  8
SJC2
  5
1C079
 10
1508.11
 20
370.851
 30
0.000000
  70
    32
  0
VERTEX
  8
SJC2
  5
1C07A
 10
1506.39
 20
368.940
 30
0.000000
  70
    32
  0
VERTEX
  8
SJC2
  5
1C07B
 10
1504.70
 20
366.954
 30
0.000000
  70
    32
  0
VERTEX
  8
SJC2
  5
1C07C
 10
1503.04
 20
364.899
 30
0.000000
  70
    32
  0
VERTEX
  8
SJC2
  5
1C07D
 10
1501.41
 20
362.779
 30
0.000000
  70
    32
  0
VERTEX
  8
SJC2
  5
1C07E
 10
1499.83
 20
360.600
 30
0.000000
  70
    32
  0
VERTEX
  8
SJC2
  5
1C07F
 10
1498.28
 20
358.367
 30
0.000000
  70
    32
  0
VERTEX
  8
SJC2
  5
1C080
 10
1496.77
 20
356.084
 30
0.000000
  70
    32
  0
VERTEX
  8
SJC2
  5
1C081
 10
1495.32
 20
353.758
 30
0.000000
  70
    32
  0
VERTEX
  8
SJC2
  5
1C082
 10
1493.92
 20
351.394
 30
0.000000
  70
    32
  0
VERTEX
  8
SJC2
  5
1C083
 10
1492.57
 20
348.999
 30
0.000000
  70
    32
  0
VERTEX
  8
SJC2
  5
1C084
 10
1491.29
 20
346.577
 30
0.000000
  70
    32
  0
VERTEX
  8
SJC2
  5
1C085
 10
1490.06
 20
344.134
 30
0.000000
  70
    32
  0
VERTEX
  8
SJC2
  5
1C086
 10
1488.90
 20
341.677
 30
0.000000
  70
    32
  0
VERTEX
  8
SJC2
  5
1C087
 10
1487.81
 20
339.211
 30
0.000000
  70
    32
  0
VERTEX
  8
SJC2
  5
1C088
 10
1486.78
 20
336.742
 30
0.000000
  70
    32
  0
VERTEX
  8
SJC2
  5
1C089
 10
1485.83
 20
334.277
 30
0.000000
  70
    32
  0
VERTEX
  8
SJC2
  5
1C08A
 10
1484.96
 20
331.820
 30
0.000000
  70
    32
  0
VERTEX
  8
SJC2
  5
1C08B
 10
1484.16
 20
329.379
 30
0.000000
  70
    32
  0
VERTEX
  8
SJC2
  5
1C08C
 10
1483.44
 20
326.959
 30
0.000000
  70
    32
  0
VERTEX
  8
SJC2
  5
1C08D
 10
1482.81
 20
324.565
 30
0.000000
  70
    32
  0
VERTEX
  8
SJC2
  5
1C08E
 10
1482.25
 20
322.204
 30
0.000000
  70
    32
  0
VERTEX
  8
SJC2
  5
1C08F
 10
1481.78
 20
319.882
 30
0.000000
  70
    32
  0
VERTEX
  8
SJC2
  5
1C090
 10
1481.39
 20
317.603
 30
0.000000
  70
    32
  0
VERTEX
  8
SJC2
  5
1C091
 10
1481.09
 20
315.373
 30
0.000000
  70
    32
  0
VERTEX
  8
SJC2
  5
1C092
 10
1480.88
 20
313.198
 30
0.000000
  70
    32
  0
VERTEX
  8
SJC2
  5
1C093
 10
1480.75
 20
311.083
 30
0.000000
  70
    32
  0
VERTEX
  8
SJC2
  5
1C094
 10
1480.71
 20
309.033
 30
0.000000
  70
    32
  0
VERTEX
  8
SJC2
  5
1C095
 10
1480.76
 20
307.053
 30
0.000000
  70
    32
  0
VERTEX
  8
SJC2
  5
1C096
 10
1480.89
 20
305.147
 30
0.000000
  70
    32
  0
VERTEX
  8
SJC2
  5
1C097
 10
1481.11
 20
303.321
 30
0.000000
  70
    32
  0
VERTEX
  8
SJC2
  5
1C098
 10
1481.42
 20
301.579
 30
0.000000
  70
    32
  0
VERTEX
  8
SJC2
  5
1C099
 10
1481.82
 20
299.925
 30
0.000000
  70
    32
  0
VERTEX
  8
SJC2
  5
1C09A
 10
1482.30
 20
298.362
 30
0.000000
  70
    32
  0
VERTEX
  8
SJC2
  5
1C09B
 10
1482.86
 20
296.895
 30
0.000000
  70
    32
  0
VERTEX
  8
SJC2
  5
1C09C
 10
1483.50
 20
295.528
 30
0.000000
  70
    32
  0
VERTEX
  8
SJC2
  5
1C09D
 10
1484.23
 20
294.263
 30
0.000000
  70
    32
  0
VERTEX
  8
SJC2
  5
1C09E
 10
1485.03
 20
293.103
 30
0.000000
  70
    32
  0
VERTEX
  8
SJC2
  5
1C09F
 10
1485.91
 20
292.052
 30
0.000000
  70
    32
  0
VERTEX
  8
SJC2
  5
1C0A0
 10
1486.87
 20
291.111
 30
0.000000
  70
    32
  0
VERTEX
  8
SJC2
  5
1C0A1
 10
1487.90
 20
290.284
 30
0.000000
  70
    32
  0
VERTEX
  8
SJC2
  5
1C0A2
 10
1488.99
 20
289.572
 30
0.000000
  70
    32
  0
SEQEND
  8
SJC2
  5
1C0A3
  0
POLYLINE
  5
1B589
  8
SJC2
 10
1551.254512881163
 20
289.57177566539235
 30
0.0
 66
     1
 70
     8
  0
VERTEX
  8
SJC2
  5
1C0A4
 10
1551.25
 20
289.572
 30
0.000000
  70
    32
  0
VERTEX
  8
SJC2
  5
1C0A5
 10
1552.42
 20
288.976
 30
0.000000
  70
    32
  0
VERTEX
  8
SJC2
  5
1C0A6
 10
1553.65
 20
288.499
 30
0.000000
  70
    32
  0
VERTEX
  8
SJC2
  5
1C0A7
 10
1554.94
 20
288.142
 30
0.000000
  70
    32
  0
VERTEX
  8
SJC2
  5
1C0A8
 10
1556.29
 20
287.904
 30
0.000000
  70
    32
  0
VERTEX
  8
SJC2
  5
1C0A9
 10
1557.70
 20
287.788
 30
0.000000
  70
    32
  0
VERTEX
  8
SJC2
  5
1C0AA
 10
1559.16
 20
287.793
 30
0.000000
  70
    32
  0
VERTEX
  8
SJC2
  5
1C0AB
 10
1560.67
 20
287.918
 30
0.000000
  70
    32
  0
VERTEX
  8
SJC2
  5
1C0AC
 10
1562.22
 20
288.165
 30
0.000000
  70
    32
  0
VERTEX
  8
SJC2
  5
1C0AD
 10
1563.81
 20
288.532
 30
0.000000
  70
    32
  0
VERTEX
  8
SJC2
  5
1C0AE
 10
1565.44
 20
289.018
 30
0.000000
  70
    32
  0
VERTEX
  8
SJC2
  5
1C0AF
 10
1567.10
 20
289.622
 30
0.000000
  70
    32
  0
VERTEX
  8
SJC2
  5
1C0B0
 10
1568.79
 20
290.343
 30
0.000000
  70
    32
  0
VERTEX
  8
SJC2
  5
1C0B1
 10
1570.51
 20
291.179
 30
0.000000
  70
    32
  0
VERTEX
  8
SJC2
  5
1C0B2
 10
1572.25
 20
292.128
 30
0.000000
  70
    32
  0
VERTEX
  8
SJC2
  5
1C0B3
 10
1574.01
 20
293.188
 30
0.000000
  70
    32
  0
VERTEX
  8
SJC2
  5
1C0B4
 10
1575.77
 20
294.356
 30
0.000000
  70
    32
  0
VERTEX
  8
SJC2
  5
1C0B5
 10
1577.55
 20
295.629
 30
0.000000
  70
    32
  0
VERTEX
  8
SJC2
  5
1C0B6
 10
1579.33
 20
297.004
 30
0.000000
  70
    32
  0
VERTEX
  8
SJC2
  5
1C0B7
 10
1581.11
 20
298.479
 30
0.000000
  70
    32
  0
VERTEX
  8
SJC2
  5
1C0B8
 10
1582.89
 20
300.048
 30
0.000000
  70
    32
  0
VERTEX
  8
SJC2
  5
1C0B9
 10
1584.65
 20
301.709
 30
0.000000
  70
    32
  0
VERTEX
  8
SJC2
  5
1C0BA
 10
1586.41
 20
303.458
 30
0.000000
  70
    32
  0
VERTEX
  8
SJC2
  5
1C0BB
 10
1588.14
 20
305.291
 30
0.000000
  70
    32
  0
VERTEX
  8
SJC2
  5
1C0BC
 10
1589.86
 20
307.202
 30
0.000000
  70
    32
  0
VERTEX
  8
SJC2
  5
1C0BD
 10
1591.55
 20
309.187
 30
0.000000
  70
    32
  0
VERTEX
  8
SJC2
  5
1C0BE
 10
1593.21
 20
311.243
 30
0.000000
  70
    32
  0
VERTEX
  8
SJC2
  5
1C0BF
 10
1594.84
 20
313.362
 30
0.000000
  70
    32
  0
VERTEX
  8
SJC2
  5
1C0C0
 10
1596.43
 20
315.542
 30
0.000000
  70
    32
  0
VERTEX
  8
SJC2
  5
1C0C1
 10
1597.97
 20
317.775
 30
0.000000
  70
    32
  0
VERTEX
  8
SJC2
  5
1C0C2
 10
1599.48
 20
320.058
 30
0.000000
  70
    32
  0
VERTEX
  8
SJC2
  5
1C0C3
 10
1600.93
 20
322.384
 30
0.000000
  70
    32
  0
VERTEX
  8
SJC2
  5
1C0C4
 10
1602.33
 20
324.748
 30
0.000000
  70
    32
  0
VERTEX
  8
SJC2
  5
1C0C5
 10
1603.68
 20
327.143
 30
0.000000
  70
    32
  0
VERTEX
  8
SJC2
  5
1C0C6
 10
1604.97
 20
329.565
 30
0.000000
  70
    32
  0
VERTEX
  8
SJC2
  5
1C0C7
 10
1606.19
 20
332.008
 30
0.000000
  70
    32
  0
VERTEX
  8
SJC2
  5
1C0C8
 10
1607.35
 20
334.465
 30
0.000000
  70
    32
  0
VERTEX
  8
SJC2
  5
1C0C9
 10
1608.44
 20
336.931
 30
0.000000
  70
    32
  0
VERTEX
  8
SJC2
  5
1C0CA
 10
1609.47
 20
339.400
 30
0.000000
  70
    32
  0
VERTEX
  8
SJC2
  5
1C0CB
 10
1610.42
 20
341.865
 30
0.000000
  70
    32
  0
VERTEX
  8
SJC2
  5
1C0CC
 10
1611.29
 20
344.322
 30
0.000000
  70
    32
  0
VERTEX
  8
SJC2
  5
1C0CD
 10
1612.09
 20
346.763
 30
0.000000
  70
    32
  0
VERTEX
  8
SJC2
  5
1C0CE
 10
1612.81
 20
349.183
 30
0.000000
  70
    32
  0
VERTEX
  8
SJC2
  5
1C0CF
 10
1613.44
 20
351.577
 30
0.000000
  70
    32
  0
VERTEX
  8
SJC2
  5
1C0D0
 10
1614.00
 20
353.938
 30
0.000000
  70
    32
  0
VERTEX
  8
SJC2
  5
1C0D1
 10
1614.47
 20
356.260
 30
0.000000
  70
    32
  0
VERTEX
  8
SJC2
  5
1C0D2
 10
1614.86
 20
358.539
 30
0.000000
  70
    32
  0
VERTEX
  8
SJC2
  5
1C0D3
 10
1615.16
 20
360.769
 30
0.000000
  70
    32
  0
VERTEX
  8
SJC2
  5
1C0D4
 10
1615.37
 20
362.944
 30
0.000000
  70
    32
  0
VERTEX
  8
SJC2
  5
1C0D5
 10
1615.50
 20
365.059
 30
0.000000
  70
    32
  0
VERTEX
  8
SJC2
  5
1C0D6
 10
1615.54
 20
367.109
 30
0.000000
  70
    32
  0
VERTEX
  8
SJC2
  5
1C0D7
 10
1615.49
 20
369.089
 30
0.000000
  70
    32
  0
VERTEX
  8
SJC2
  5
1C0D8
 10
1615.36
 20
370.994
 30
0.000000
  70
    32
  0
VERTEX
  8
SJC2
  5
1C0D9
 10
1615.14
 20
372.820
 30
0.000000
  70
    32
  0
VERTEX
  8
SJC2
  5
1C0DA
 10
1614.83
 20
374.563
 30
0.000000
  70
    32
  0
VERTEX
  8
SJC2
  5
1C0DB
 10
1614.43
 20
376.217
 30
0.000000
  70
    32
  0
VERTEX
  8
SJC2
  5
1C0DC
 10
1613.96
 20
377.780
 30
0.000000
  70
    32
  0
VERTEX
  8
SJC2
  5
1C0DD
 10
1613.39
 20
379.247
 30
0.000000
  70
    32
  0
VERTEX
  8
SJC2
  5
1C0DE
 10
1612.75
 20
380.614
 30
0.000000
  70
    32
  0
VERTEX
  8
SJC2
  5
1C0DF
 10
1612.02
 20
381.879
 30
0.000000
  70
    32
  0
VERTEX
  8
SJC2
  5
1C0E0
 10
1611.22
 20
383.039
 30
0.000000
  70
    32
  0
VERTEX
  8
SJC2
  5
1C0E1
 10
1610.34
 20
384.090
 30
0.000000
  70
    32
  0
VERTEX
  8
SJC2
  5
1C0E2
 10
1609.38
 20
385.031
 30
0.000000
  70
    32
  0
VERTEX
  8
SJC2
  5
1C0E3
 10
1608.36
 20
385.858
 30
0.000000
  70
    32
  0
VERTEX
  8
SJC2
  5
1C0E4
 10
1607.26
 20
386.570
 30
0.000000
  70
    32
  0
VERTEX
  8
SJC2
  5
1C0E5
 10
1606.09
 20
387.165
 30
0.000000
  70
    32
  0
VERTEX
  8
SJC2
  5
1C0E6
 10
1604.86
 20
387.643
 30
0.000000
  70
    32
  0
VERTEX
  8
SJC2
  5
1C0E7
 10
1603.57
 20
388.000
 30
0.000000
  70
    32
  0
VERTEX
  8
SJC2
  5
1C0E8
 10
1602.22
 20
388.238
 30
0.000000
  70
    32
  0
VERTEX
  8
SJC2
  5
1C0E9
 10
1600.81
 20
388.354
 30
0.000000
  70
    32
  0
VERTEX
  8
SJC2
  5
1C0EA
 10
1599.35
 20
388.349
 30
0.000000
  70
    32
  0
VERTEX
  8
SJC2
  5
1C0EB
 10
1597.85
 20
388.224
 30
0.000000
  70
    32
  0
VERTEX
  8
SJC2
  5
1C0EC
 10
1596.29
 20
387.977
 30
0.000000
  70
    32
  0
VERTEX
  8
SJC2
  5
1C0ED
 10
1594.70
 20
387.610
 30
0.000000
  70
    32
  0
VERTEX
  8
SJC2
  5
1C0EE
 10
1593.07
 20
387.124
 30
0.000000
  70
    32
  0
VERTEX
  8
SJC2
  5
1C0EF
 10
1591.41
 20
386.520
 30
0.000000
  70
    32
  0
VERTEX
  8
SJC2
  5
1C0F0
 10
1589.72
 20
385.799
 30
0.000000
  70
    32
  0
VERTEX
  8
SJC2
  5
1C0F1
 10
1588.00
 20
384.963
 30
0.000000
  70
    32
  0
VERTEX
  8
SJC2
  5
1C0F2
 10
1586.26
 20
384.014
 30
0.000000
  70
    32
  0
VERTEX
  8
SJC2
  5
1C0F3
 10
1584.51
 20
382.954
 30
0.000000
  70
    32
  0
VERTEX
  8
SJC2
  5
1C0F4
 10
1582.74
 20
381.786
 30
0.000000
  70
    32
  0
VERTEX
  8
SJC2
  5
1C0F5
 10
1580.96
 20
380.513
 30
0.000000
  70
    32
  0
VERTEX
  8
SJC2
  5
1C0F6
 10
1579.18
 20
379.138
 30
0.000000
  70
    32
  0
VERTEX
  8
SJC2
  5
1C0F7
 10
1577.40
 20
377.663
 30
0.000000
  70
    32
  0
VERTEX
  8
SJC2
  5
1C0F8
 10
1575.62
 20
376.094
 30
0.000000
  70
    32
  0
VERTEX
  8
SJC2
  5
1C0F9
 10
1573.86
 20
374.432
 30
0.000000
  70
    32
  0
VERTEX
  8
SJC2
  5
1C0FA
 10
1572.10
 20
372.684
 30
0.000000
  70
    32
  0
VERTEX
  8
SJC2
  5
1C0FB
 10
1570.37
 20
370.851
 30
0.000000
  70
    32
  0
VERTEX
  8
SJC2
  5
1C0FC
 10
1568.65
 20
368.940
 30
0.000000
  70
    32
  0
VERTEX
  8
SJC2
  5
1C0FD
 10
1566.96
 20
366.954
 30
0.000000
  70
    32
  0
VERTEX
  8
SJC2
  5
1C0FE
 10
1565.30
 20
364.899
 30
0.000000
  70
    32
  0
VERTEX
  8
SJC2
  5
1C0FF
 10
1563.67
 20
362.779
 30
0.000000
  70
    32
  0
VERTEX
  8
SJC2
  5
1C100
 10
1562.08
 20
360.600
 30
0.000000
  70
    32
  0
VERTEX
  8
SJC2
  5
1C101
 10
1560.54
 20
358.367
 30
0.000000
  70
    32
  0
VERTEX
  8
SJC2
  5
1C102
 10
1559.03
 20
356.084
 30
0.000000
  70
    32
  0
VERTEX
  8
SJC2
  5
1C103
 10
1557.58
 20
353.758
 30
0.000000
  70
    32
  0
VERTEX
  8
SJC2
  5
1C104
 10
1556.18
 20
351.394
 30
0.000000
  70
    32
  0
VERTEX
  8
SJC2
  5
1C105
 10
1554.83
 20
348.999
 30
0.000000
  70
    32
  0
VERTEX
  8
SJC2
  5
1C106
 10
1553.55
 20
346.577
 30
0.000000
  70
    32
  0
VERTEX
  8
SJC2
  5
1C107
 10
1552.32
 20
344.134
 30
0.000000
  70
    32
  0
VERTEX
  8
SJC2
  5
1C108
 10
1551.16
 20
341.677
 30
0.000000
  70
    32
  0
VERTEX
  8
SJC2
  5
1C109
 10
1550.07
 20
339.211
 30
0.000000
  70
    32
  0
VERTEX
  8
SJC2
  5
1C10A
 10
1549.04
 20
336.742
 30
0.000000
  70
    32
  0
VERTEX
  8
SJC2
  5
1C10B
 10
1548.09
 20
334.277
 30
0.000000
  70
    32
  0
VERTEX
  8
SJC2
  5
1C10C
 10
1547.22
 20
331.820
 30
0.000000
  70
    32
  0
VERTEX
  8
SJC2
  5
1C10D
 10
1546.42
 20
329.379
 30
0.000000
  70
    32
  0
VERTEX
  8
SJC2
  5
1C10E
 10
1545.70
 20
326.959
 30
0.000000
  70
    32
  0
VERTEX
  8
SJC2
  5
1C10F
 10
1545.07
 20
324.565
 30
0.000000
  70
    32
  0
VERTEX
  8
SJC2
  5
1C110
 10
1544.51
 20
322.204
 30
0.000000
  70
    32
  0
VERTEX
  8
SJC2
  5
1C111
 10
1544.04
 20
319.882
 30
0.000000
  70
    32
  0
VERTEX
  8
SJC2
  5
1C112
 10
1543.65
 20
317.603
 30
0.000000
  70
    32
  0
VERTEX
  8
SJC2
  5
1C113
 10
1543.35
 20
315.373
 30
0.000000
  70
    32
  0
VERTEX
  8
SJC2
  5
1C114
 10
1543.14
 20
313.198
 30
0.000000
  70
    32
  0
VERTEX
  8
SJC2
  5
1C115
 10
1543.01
 20
311.083
 30
0.000000
  70
    32
  0
VERTEX
  8
SJC2
  5
1C116
 10
1542.97
 20
309.033
 30
0.000000
  70
    32
  0
VERTEX
  8
SJC2
  5
1C117
 10
1543.02
 20
307.053
 30
0.000000
  70
    32
  0
VERTEX
  8
SJC2
  5
1C118
 10
1543.15
 20
305.147
 30
0.000000
  70
    32
  0
VERTEX
  8
SJC2
  5
1C119
 10
1543.37
 20
303.321
 30
0.000000
  70
    32
  0
VERTEX
  8
SJC2
  5
1C11A
 10
1543.68
 20
301.579
 30
0.000000
  70
    32
  0
VERTEX
  8
SJC2
  5
1C11B
 10
1544.08
 20
299.925
 30
0.000000
  70
    32
  0
VERTEX
  8
SJC2
  5
1C11C
 10
1544.55
 20
298.362
 30
0.000000
  70
    32
  0
VERTEX
  8
SJC2
  5
1C11D
 10
1545.12
 20
296.895
 30
0.000000
  70
    32
  0
VERTEX
  8
SJC2
  5
1C11E
 10
1545.76
 20
295.528
 30
0.000000
  70
    32
  0
VERTEX
  8
SJC2
  5
1C11F
 10
1546.49
 20
294.263
 30
0.000000
  70
    32
  0
VERTEX
  8
SJC2
  5
1C120
 10
1547.29
 20
293.103
 30
0.000000
  70
    32
  0
VERTEX
  8
SJC2
  5
1C121
 10
1548.17
 20
292.052
 30
0.000000
  70
    32
  0
VERTEX
  8
SJC2
  5
1C122
 10
1549.13
 20
291.111
 30
0.000000
  70
    32
  0
VERTEX
  8
SJC2
  5
1C123
 10
1550.16
 20
290.284
 30
0.000000
  70
    32
  0
VERTEX
  8
SJC2
  5
1C124
 10
1551.25
 20
289.572
 30
0.000000
  70
    32
  0
SEQEND
  8
SJC2
  5
1C125
  0
LINE
  5
1B58A
  8
SJC
 10
1216.8632148796351
 20
287.58889876454123
 30
0.0
 11
1616.8632148796351
 21
287.58889876454123
 31
0.0
1001
ACAD
1000
ASC_BOUNDS
1002
{
1070
    19
1005
0
1005
0
1005
0
1002
}
  0
LINE
  5
1B7EE
  8
HASEN
 10
1379.363214879636
 20
1787.588898764541
 30
0.0
 11
1454.363214879636
 21
1787.5888987645401
 31
0.0
  0
DIMENSION
  5
1B7EF
  8
SUNPOU
  2
*D26
 10
1720.7399750962941
 20
387.58889876454123
 30
0.0
 11
1693.7399750962941
 21
1087.588898764541
 31
0.0
 70
     0
 13
1454.363214879636
 23
1787.5888987645401
 33
0.0
 14
1616.8632148796351
 24
387.58889876454123
 34
0.0
 50
90.0
1001
ACAD
1000
DSTYLE
1002
{
1070
   287
1070
     5
1070
    40
1040
10.0
1070
    41
1040
2.0
1070
    42
1040
1.0
1070
    43
1040
6.0
1070
    44
1040
1.0
1070
    73
1070
     0
1070
    74
1070
     0
1070
    77
1070
     1
1070
    78
1070
     8
1070
   140
1040
3.0
1070
   147
1040
1.1999999999999991
1070
   172
1070
     1
1070
   179
1070
     2
1070
   271
1070
     2
1070
   279
1070
     2
1070
   340
1005
55
1002
}
  0
TEXT
  5
1B7FC
  8
MOJI
 10
2934.3431438828788
 20
2090.4653334809768
 30
0.0
 40
30.0
  1
鉄製
 41
0.8
  7
EXT08
 11
2934.3431438828788
 21
2105.4653334809759
 31
0.0
 73
     2
  0
TEXT
  5
1B836
  8
SUNPOU
 10
409.63597446921659
 20
847.23693616989476
 30
0.0
 40
30.0
  1
φ9×150
 41
0.8
  7
EXT08
 72
     4
 11
484.83597446921658
 21
862.23693616989465
 31
0.0
  0
LINE
  5
1B952
  8
SJC
 10
2978.6942880838401
 20
2651.462121184511
 30
0.0
 11
3648.6942880838401
 21
2651.462121184511
 31
0.0
  0
LINE
  5
1B953
  8
SJC
 10
2978.6942880838401
 20
2501.462121184511
 30
0.0
 11
3648.6942880838401
 21
2501.462121184511
 31
0.0
  0
LINE
  5
1B954
  8
SJC
 10
2963.6942880838401
 20
2551.462121184511
 30
0.0
 11
3663.6942880838401
 21
2551.462121184511
 31
0.0
  0
LINE
  5
1B955
  8
SJC
 10
2963.6942880838401
 20
2601.462121184511
 30
0.0
 11
3663.6942880838401
 21
2601.462121184511
 31
0.0
  0
TEXT
  5
1B956
  8
MOJI
 10
3120.6854416030642
 20
2511.7388454641582
 30
0.0
 40
30.0
  1
KEKH00571※1
 41
0.8
  7
EXT08
  0
TEXT
  5
1B957
  8
MOJI
 10
3120.6854416030642
 20
2611.7388454641582
 30
0.0
 40
30.0
  1
ジスロンパイプサインポール（単柱式）
 41
0.8
  7
EXT08
  0
TEXT
  5
1B958
  8
MOJI
 10
2996.4657166552688
 20
2610.8621211845111
 30
0.0
 40
30.0
  1
タイプ
 41
0.8
  7
EXT08
 72
     4
 11
3038.6942880838401
 21
2626.462121184511
 31
0.0
  0
LINE
  5
1B959
  8
SJC
 10
3113.6942880838401
 20
2501.462121184511
 30
0.0
 11
3113.6942880838401
 21
2651.462121184511
 31
0.0
  0
ARC
  5
1B95A
  8
SJC
 10
2978.6942880838401
 20
2636.462121184511
 30
0.0
 40
15.0
 50
90.0
 51
180.0
  0
ARC
  5
1B95B
  8
SJC
 10
2978.6942880838401
 20
2516.462121184511
 30
0.0
 40
15.0
 50
180.0
 51
270.0
  0
LINE
  5
1B95C
  8
SJC
 10
2963.6942880838401
 20
2516.462121184511
 30
0.0
 11
2963.6942880838401
 21
2636.462121184511
 31
0.0
  0
TEXT
  5
1B95D
  8
MOJI
 10
2998.6942880838401
 20
2561.4621211845101
 30
0.0
 40
30.0
  1
品  番
 41
0.8
  7
EXT08
 72
     4
 11
3038.6942880838401
 21
2576.462121184511
 31
0.0
  0
TEXT
  5
1B95E
  8
MOJI
 10
2983.4942880838398
 20
2511.462121184511
 30
0.0
 40
30.0
  1
図面番号
 41
0.8
  7
EXT08
 72
     4
 11
3038.6942880838401
 21
2526.462121184511
 31
0.0
  0
ARC
  5
1B95F
  8
SJC
 10
3648.6942880838401
 20
2636.462121184511
 30
0.0
 40
15.0
 50
0.0
 51
90.0
  0
ARC
  5
1B960
  8
SJC
 10
3648.6942880838401
 20
2516.462121184511
 30
0.0
 40
15.0
 50
270.0
 51
0.0
  0
LINE
  5
1B961
  8
SJC
 10
3663.6942880838401
 20
2516.462121184511
 30
0.0
 11
3663.6942880838401
 21
2636.462121184511
 31
0.0
  0
TEXT
  5
1B962
  8
MOJI
 10
3120.6854416030642
 20
2561.7388454641582
 30
0.0
 40
30.0
  1
89SPE-2S-C
 41
0.8
  7
EXT08
  0
LINE
  5
1BAB9
  8
MOJI
 10
3663.0844272244772
 20
2225.465333450973
 30
0.0
 11
2539.8840360922268
 21
2225.465333450973
 31
0.0
  0
TEXT
  5
1BABA
  8
MOJI
 10
2593.2144519859548
 20
2186.4653334569762
 30
0.0
 40
30.0
  1
サインシート
 41
0.8
  7
EXT08
 72
     4
 11
2675.6144519859549
 21
2201.4653334569762
 31
0.0
  0
TEXT
  5
1BABB
  8
MOJI
 10
2934.3431438828802
 20
2186.4653334569762
 30
0.0
 40
30.0
  1
封入レンズ型反射シート
 41
0.8
  7
EXT08
 11
2934.3431438828802
 21
2201.4653334569762
 31
0.0
 73
     2
  0
TEXT
  5
1BABC
  8
MOJI
 10
2850.9145724723089
 20
2186.4653334569762
 30
0.0
 40
30.0
  1
2
 41
0.8
  7
EXT08
 72
     4
 11
2862.3431439008809
 21
2201.4653334569762
 31
0.0
  0
TEXT
  5
1BABD
  8
MOJI
 10
3407.9976583548132
 20
2186.4653334569762
 30
0.0
 40
30.0
  1
デジタル印刷
 41
0.8
  7
EXT08
 72
     4
 11
3492.7976583548129
 21
2201.4653334569762
 31
0.0
  0
INSERT
  5
1BABE
  8
0
  2
*U40
 10
0.0
 20
0.0
 30
0.0
1001
ACAD
1000
DSTYLE
1002
{
1070
   140
1040
30.0
1070
   144
1040
0.5
1070
   147
1040
15.0
1070
    42
1040
10.0
1070
    44
1040
10.0
1070
    43
1040
60.0
1070
    41
1040
20.0
1002
}
  0
TEXT
  5
1BABF
  8
SUNPOU
 10
846.52642983389967
 20
2054.326345521119
 30
0.0
 40
30.0
  1
封入レンズ型反射シート
 41
0.8
  7
EXT08
  0
LINE
  5
1BAC0
  8
SUNPOU
 10
844.05024905782295
 20
2089.1542087779771
 30
0.0
 11
1162.97257582153
 21
2089.1542087779771
 31
0.0
1001
ACAD
1000
DSTYLE
1002
{
1070
    77
1070
     0
1070
    40
1040
10.0
1070
   147
1040
1.1999999999999991
1070
   176
1070
     0
1070
   177
1070
     0
1070
   178
1070
     0
1070
   179
1070
     2
1070
   271
1070
     2
1002
}
  0
TEXT
  5
1BAC1
  8
SUNPOU
 10
846.52642983389967
 20
2094.912229270089
 30
0.0
 40
30.0
  1
サインシート
 41
0.8
  7
EXT08
  0
TEXT
  5
1BAC2
  8
SUNPOU
 10
846.52642983389967
 20
2009.696432998617
 30
0.0
 40
30.0
  1
デジタル印刷
 41
0.8
  7
EXT08
  0
VIEWPORT
  5
1464C
 67
     1
  8
0
 10
128.5
 20
97.5
 30
0.0
 40
314.226
 41
243.9518146964856
 68
     1
 69
     1
1001
ACAD
1000
MVIEW
1002
{
1070
    16
1010
0.0
1020
0.0
1030
0.0
1010
0.0
1020
0.0
1030
1.0
1040
0.0
1040
243.9518146964856
1040
128.5
1040
97.5
1040
50.0
1040
0.0
1040
0.0
1070
     0
1070
   100
1070
     1
1070
     1
1070
     0
1070
     0
1070
     0
1070
     0
1040
0.0
1040
0.0
1040
0.0
1040
10.0
1040
10.0
1040
10.0
1040
10.0
1070
     0
1002
{
1002
}
1002
}
  0
VIEWPORT
  5
1464E
 67
     1
  8
SUNPOU
 10
128.5
 20
97.5
 30
0.0
 40
205.59999999999999
 41
156.0
 68
     2
 69
     2
1001
ACAD
1000
MVIEW
1002
{
1070
    16
1010
0.0
1020
0.0
1030
0.0
1010
0.0
1020
0.0
1030
1.0
1040
0.0
1040
5536.5396555471661
1040
-4689.111563369348
1040
1441.2182828350519
1040
50.0
1040
0.0
1040
0.0
1070
     0
1070
   100
1070
     1
1070
     3
1070
     0
1070
     0
1070
     0
1070
     0
1040
0.0
1040
0.0
1040
0.0
1040
10.0
1040
10.0
1040
10.0
1040
10.0
1070
     0
1002
{
1002
}
1002
}
  0
ENDSEC
  0
EOF
