  0
SECTION
  2
HEADER
  9
$ACADVER
  1
AC1009
  9
$INSBASE
 10
0.0
 20
0.0
 30
0.0
  9
$EXTMIN
 10
-0.7058929444392561
 20
37.540982692415128
 30
0.0
  9
$EXTMAX
 10
4019.2941070555598
 20
2782.5409826924151
 30
0.0
  9
$LIMMIN
 10
0.0
 20
0.0
  9
$LIMMAX
 10
4200.0
 20
2970.0
  9
$ORTHOMODE
 70
     1
  9
$REGENMODE
 70
     1
  9
$FILLMODE
 70
     1
  9
$QTEXTMODE
 70
     0
  9
$MIRRTEXT
 70
     0
  9
$DRAGMODE
 70
     2
  9
$LTSCALE
 40
100.0
  9
$OSMODE
 70
    37
  9
$ATTMODE
 70
     1
  9
$TEXTSIZE
 40
30.0
  9
$TRACEWID
 40
1.0
  9
$TEXTSTYLE
  7
EXT08
  9
$CLAYER
  8
0
  9
$CELTYPE
  6
BYLAYER
  9
$CECOLOR
 62
   256
  9
$DIMSCALE
 40
10.0
  9
$DIMASZ
 40
2.0
  9
$DIMEXO
 40
1.0
  9
$DIMDLI
 40
6.0
  9
$DIMRND
 40
0.0
  9
$DIMDLE
 40
0.0
  9
$DIMEXE
 40
1.0
  9
$DIMTP
 40
0.0
  9
$DIMTM
 40
0.0
  9
$DIMTXT
 40
3.0
  9
$DIMCEN
 40
0.09
  9
$DIMTSZ
 40
0.0
  9
$DIMTOL
 70
     0
  9
$DIMLIM
 70
     0
  9
$DIMTIH
 70
     0
  9
$DIMTOH
 70
     0
  9
$DIMSE1
 70
     0
  9
$DIMSE2
 70
     0
  9
$DIMTAD
 70
     1
  9
$DIMZIN
 70
     8
  9
$DIMBLK
  1

  9
$DIMASO
 70
     1
  9
$DIMSHO
 70
     1
  9
$DIMPOST
  1

  9
$DIMAPOST
  1

  9
$DIMALT
 70
     0
  9
$DIMALTD
 70
     2
  9
$DIMALTF
 40
25.399999999999999
  9
$DIMLFAC
 40
1.0
  9
$DIMTOFL
 70
     1
  9
$DIMTVP
 40
0.0
  9
$DIMTIX
 70
     0
  9
$DIMSOXD
 70
     0
  9
$DIMSAH
 70
     0
  9
$DIMBLK1
  1

  9
$DIMBLK2
  1

  9
$DIMSTYLE
  2
SJC
  9
$DIMCLRD
 70
     0
  9
$DIMCLRE
 70
     0
  9
$DIMCLRT
 70
     0
  9
$DIMTFAC
 40
1.0
  9
$DIMGAP
 40
1.1999999999999991
  9
$LUNITS
 70
     2
  9
$LUPREC
 70
     2
  9
$SKETCHINC
 40
1.0
  9
$FILLETRAD
 40
1.0
  9
$AUNITS
 70
     0
  9
$AUPREC
 70
     0
  9
$MENU
  1
.
  9
$ELEVATION
 40
0.0
  9
$PELEVATION
 40
0.0
  9
$THICKNESS
 40
0.0
  9
$LIMCHECK
 70
     0
  9
$BLIPMODE
 70
     0
  9
$CHAMFERA
 40
0.0
  9
$CHAMFERB
 40
0.0
  9
$SKPOLY
 70
     0
  9
$TDCREATE
 40
2453122.4465482058
  9
$TDUPDATE
 40
2456388.8274703361
  9
$TDINDWG
 40
1.4472298148
  9
$TDUSRTIMER
 40
1.4472296412000001
  9
$USRTIMER
 70
     1
  9
$ANGBASE
 50
0.0
  9
$ANGDIR
 70
     0
  9
$PDMODE
 70
    33
  9
$PDSIZE
 40
5.0
  9
$PLINEWID
 40
0.0
  9
$COORDS
 70
     1
  9
$SPLFRAME
 70
     0
  9
$SPLINETYPE
 70
     6
  9
$SPLINESEGS
 70
     8
  9
$ATTDIA
 70
     0
  9
$ATTREQ
 70
     1
  9
$HANDLING
 70
     1
  9
$HANDSEED
  5
1C751
  9
$SURFTAB1
 70
     6
  9
$SURFTAB2
 70
     6
  9
$SURFTYPE
 70
     6
  9
$SURFU
 70
     6
  9
$SURFV
 70
     6
  9
$UCSNAME
  2

  9
$UCSORG
 10
0.0
 20
0.0
 30
0.0
  9
$UCSXDIR
 10
1.0
 20
0.0
 30
0.0
  9
$UCSYDIR
 10
0.0
 20
1.0
 30
0.0
  9
$PUCSNAME
  2

  9
$PUCSORG
 10
0.0
 20
0.0
 30
0.0
  9
$PUCSXDIR
 10
1.0
 20
0.0
 30
0.0
  9
$PUCSYDIR
 10
0.0
 20
1.0
 30
0.0
  9
$USERI1
 70
     3
  9
$USERI2
 70
    10
  9
$USERI3
 70
     0
  9
$USERI4
 70
     0
  9
$USERI5
 70
     0
  9
$USERR1
 40
0.0
  9
$USERR2
 40
0.0
  9
$USERR3
 40
0.0
  9
$USERR4
 40
0.0
  9
$USERR5
 40
0.0
  9
$WORLDVIEW
 70
     1
  9
$SHADEDGE
 70
     3
  9
$SHADEDIF
 70
    70
  9
$TILEMODE
 70
     1
  9
$MAXACTVP
 70
    48
  9
$PLIMCHECK
 70
     0
  9
$PEXTMIN
 10
25.699999999999989
 20
19.5
 30
0.0
  9
$PEXTMAX
 10
231.30000000000001
 20
175.5
 30
0.0
  9
$PLIMMIN
 10
-20.0
 20
-7.5
  9
$PLIMMAX
 10
277.0
 20
202.5
  9
$UNITMODE
 70
     0
  9
$VISRETAIN
 70
     1
  9
$PLINEGEN
 70
     0
  9
$PSLTSCALE
 70
     1
  0
ENDSEC
  0
SECTION
  2
TABLES
  0
TABLE
  2
VPORT
 70
     2
  0
VPORT
  2
*ACTIVE
 70
     0
 10
0.0
 20
0.0
 11
1.0
 21
1.0
 12
2833.8310530275039
 22
1409.389135888074
 13
0.0
 23
0.0
 14
10.0
 24
10.0
 15
10.0
 25
10.0
 16
0.0
 26
0.0
 36
1.0
 17
0.0
 27
0.0
 37
0.0
 40
2937.5094370783668
 41
1.9010526315789471
 42
50.0
 43
0.0
 44
0.0
 50
0.0
 51
0.0
 71
     0
 72
   100
 73
     1
 74
     3
 75
     0
 76
     0
 77
     0
 78
     0
  0
ENDTAB
  0
TABLE
  2
LTYPE
 70
     4
  0
LTYPE
  2
CONTINUOUS
 70
     0
  3
Solid line
 72
    65
 73
     0
 40
0.0
  0
LTYPE
  2
CENTER
 70
     0
  3
____ _ ____ _ ____ _ ____ _ ____ _ ____ _ ____ 
 72
    65
 73
     4
 40
2.0
 49
1.25
 49
-0.25
 49
0.25
 49
-0.25
  0
LTYPE
  2
HIDDEN
 70
     0
  3
__ __ __ __ __ __ __ __ __ __ __ __ __ __ __ __
 72
    65
 73
     2
 40
0.375
 49
0.25
 49
-0.125
  0
LTYPE
  2
PHANTOM
 70
     0
  3
______  __  __  ______  __  __  ______  __  __ 
 72
    65
 73
     6
 40
2.5
 49
1.25
 49
-0.25
 49
0.25
 49
-0.25
 49
0.25
 49
-0.25
  0
ENDTAB
  0
TABLE
  2
LAYER
 70
    15
  0
LAYER
  2
0
 70
     0
 62
     7
  6
CONTINUOUS
  0
LAYER
  2
ZWAKU
 70
     1
 62
    -7
  6
CONTINUOUS
  0
LAYER
  2
CENTER
 70
     0
 62
     3
  6
CENTER
  0
LAYER
  2
HASEN
 70
     0
 62
     7
  6
HIDDEN
  0
LAYER
  2
KASOU
 70
     0
 62
     2
  6
PHANTOM
  0
LAYER
  2
MOJI
 70
     0
 62
     6
  6
CONTINUOUS
  0
LAYER
  2
WAKU
 70
     0
 62
     5
  6
CONTINUOUS
  0
LAYER
  2
HOJO
 70
     0
 62
    -8
  6
CONTINUOUS
  0
LAYER
  2
SUNPOU
 70
     0
 62
     4
  6
CONTINUOUS
  0
LAYER
  2
SJC
 70
     0
 62
     1
  6
CONTINUOUS
  0
LAYER
  2
INFORMATION
 70
     1
 62
     7
  6
CONTINUOUS
  0
LAYER
  2
SJC2
 70
     0
 62
     7
  6
CONTINUOUS
  0
LAYER
  2
MOJI2
 70
     0
 62
     1
  6
CONTINUOUS
  0
LAYER
  2
HATCH
 70
     0
 62
     2
  6
CONTINUOUS
  0
LAYER
  2
DEFPOINTS
 70
     0
 62
     7
  6
CONTINUOUS
  0
ENDTAB
  0
TABLE
  2
STYLE
 70
     9
  0
STYLE
  2
STANDARD
 70
     0
 40
0.0
 41
1.0
 50
0.0
 71
     0
 42
3.0
  3
txt
  4

  0
STYLE
  2
KANJI
 70
     0
 40
0.0
 41
1.0
 50
0.0
 71
     0
 42
0.0
  3
ROMANS.SHX
  4
BIGFONT.SHX
  0
STYLE
  2
SIMPLEX
 70
     0
 40
0.0
 41
1.0
 50
0.0
 71
     0
 42
0.0
  3
SCRIPTS.SHX
  4

  0
STYLE
  2
TATEEXT
 70
     4
 40
0.0
 41
1.0
 50
0.0
 71
     0
 42
0.0
  3
ROMANS.shx
  4
EXTFONT.shx
  0
STYLE
  2
TATEBIG
 70
     4
 40
0.0
 41
1.0
 50
0.0
 71
     0
 42
0.0
  3
ROMANS.shx
  4
BIGFONT.shx
  0
STYLE
  2
EXT08
 70
     0
 40
0.0
 41
0.8
 50
0.0
 71
     0
 42
30.0
  3
ROMANS.shx
  4
EXTFONT.shx
  0
STYLE
  2
EXT
 70
     0
 40
0.0
 41
1.0
 50
0.0
 71
     0
 42
0.0
  3
ROMANS.shx
  4
EXTFONT.shx
  0
STYLE
  2
KANJI08
 70
     0
 40
0.0
 41
0.8
 50
0.0
 71
     0
 42
0.0
  3
ROMANS.shx
  4
BIGFONT.shx
  0
STYLE
  2
MOJI1
 70
     0
 40
0.0
 41
0.8
 50
0.0
 71
     0
 42
3.0
  3
ROMANS
  4
EXTFONT
  0
ENDTAB
  0
TABLE
  2
VIEW
 70
     0
  0
ENDTAB
  0
TABLE
  2
UCS
 70
     0
  0
ENDTAB
  0
TABLE
  2
APPID
 70
     2
  0
APPID
  2
ACAD
 70
     0
  0
APPID
  2
ACAD_PSEXT
 70
     0
  0
ENDTAB
  0
TABLE
  2
DIMSTYLE
 70
     5
  0
DIMSTYLE
  2
ISO-25
 70
     0
  3

  4

  5

  6

  7

 40
1.0
 41
2.5
 42
0.625
 43
3.75
 44
1.25
 45
0.0
 46
0.0
 47
0.0
 48
0.0
140
2.5
141
2.5
142
0.0
143
0.03937007874016
144
1.0
145
0.0
146
1.0
147
0.625
 71
     0
 72
     0
 73
     0
 74
     0
 75
     0
 76
     0
 77
     1
 78
     8
170
     0
171
     3
172
     1
173
     0
174
     0
175
     0
176
     0
177
     0
178
     0
  0
DIMSTYLE
  2
STANDARD
 70
     0
  3

  4

  5

  6

  7

 40
1.0
 41
0.18
 42
0.0625
 43
0.38
 44
0.18
 45
0.0
 46
0.0
 47
0.0
 48
0.0
140
0.18
141
0.09
142
0.0
143
25.399999999999999
144
1.0
145
0.0
146
1.0
147
0.09
 71
     0
 72
     0
 73
     1
 74
     1
 75
     0
 76
     0
 77
     0
 78
     0
170
     0
171
     2
172
     0
173
     0
174
     0
175
     0
176
     0
177
     0
178
     0
  0
DIMSTYLE
  2
RUISEKI1
 70
     0
  3

  4

  5

  6
DOT
  7

 40
10.0
 41
2.0
 42
1.0
 43
6.0
 44
30.0
 45
0.0
 46
0.0
 47
0.0
 48
0.0
140
0.18
141
0.09
142
0.0
143
25.399999999999999
144
1.0
145
0.0
146
1.0
147
1.5
 71
     0
 72
     0
 73
     1
 74
     1
 75
     0
 76
     0
 77
     1
 78
     0
170
     0
171
     2
172
     0
173
     1
174
     0
175
     0
176
     0
177
     0
178
     0
  0
DIMSTYLE
  2
RUISEKI2
 70
     0
  3

  4

  5

  6
NONE
  7

 40
10.0
 41
2.0
 42
1.0
 43
6.0
 44
30.0
 45
0.0
 46
0.0
 47
0.0
 48
0.0
140
0.18
141
0.09
142
0.0
143
25.399999999999999
144
1.0
145
0.0
146
1.0
147
1.5
 71
     0
 72
     0
 73
     1
 74
     1
 75
     0
 76
     0
 77
     1
 78
     0
170
     0
171
     2
172
     0
173
     1
174
     0
175
     0
176
     0
177
     0
178
     0
  0
DIMSTYLE
  2
SJC
 70
     0
  3

  4

  5

  6

  7

 40
1.0
 41
0.18
 42
0.0625
 43
0.38
 44
0.18
 45
0.0
 46
0.0
 47
0.0
 48
0.0
140
0.18
141
0.09
142
0.0
143
25.399999999999999
144
1.0
145
0.0
146
1.0
147
0.09
 71
     0
 72
     0
 73
     1
 74
     1
 75
     0
 76
     0
 77
     0
 78
     0
170
     0
171
     2
172
     0
173
     0
174
     0
175
     0
176
     0
177
     0
178
     0
  0
ENDTAB
  0
ENDSEC
  0
SECTION
  2
BLOCKS
  0
BLOCK
  8
0
  2
$MODEL_SPACE
 70
     0
 10
0.0
 20
0.0
 30
0.0
  3
$MODEL_SPACE
  1

  0
ENDBLK
  5
21
  8
0
  0
BLOCK
 67
     1
  8
0
  2
$PAPER_SPACE
 70
     0
 10
0.0
 20
0.0
 30
0.0
  3
$PAPER_SPACE
  1

  0
ENDBLK
  5
1D
 67
     1
  8
0
  0
BLOCK
  8
0
  2
SYSTEMA3
 70
     0
 10
0.0
 20
0.0
 30
0.0
  3
SYSTEMA3
  1

  0
POLYLINE
  5
3B
  8
ZWAKU
 66
     1
 10
0.0
 20
0.0
 30
0.0
 70
     1
  0
VERTEX
  5
1C090
  8
ZWAKU
 10
0.0
 20
0.0
 30
0.0
  0
VERTEX
  5
1C091
  8
ZWAKU
 10
0.0
 20
274.5
 30
0.0
  0
VERTEX
  5
1C092
  8
ZWAKU
 10
402.0
 20
274.5
 30
0.0
  0
VERTEX
  5
1C093
  8
ZWAKU
 10
402.0
 20
0.0
 30
0.0
  0
SEQEND
  5
1C094
  8
ZWAKU
  0
ENDBLK
  5
3D
  8
0
  0
BLOCK
  8
0
  2
_DOT
 70
     0
 10
0.0
 20
0.0
 30
0.0
  3
_DOT
  1

  0
POLYLINE
  5
49
  8
0
  6
BYBLOCK
 62
     0
 66
     1
 10
0.0
 20
0.0
 30
0.0
 70
     1
 40
0.5
 41
0.5
  0
VERTEX
  5
1C095
  8
0
  6
BYBLOCK
 62
     0
 10
-0.25
 20
0.0
 30
0.0
 42
1.0
  0
VERTEX
  5
1C096
  8
0
  6
BYBLOCK
 62
     0
 10
0.25
 20
0.0
 30
0.0
 42
1.0
  0
SEQEND
  5
1C097
  8
0
  6
BYBLOCK
 62
     0
  0
LINE
  5
4A
  8
0
  6
BYBLOCK
 62
     0
 10
-0.5
 20
0.0
 30
0.0
 11
-1.0
 21
0.0
 31
0.0
  0
ENDBLK
  5
4C
  8
0
  0
BLOCK
  8
0
  2
_NONE
 70
     0
 10
0.0
 20
0.0
 30
0.0
  3
_NONE
  1

  0
ENDBLK
  5
50
  8
0
  0
BLOCK
  8
0
  2
CALCOMP_TECHJET720A3
 70
     0
 10
0.0
 20
0.0
 30
0.0
  3
CALCOMP_TECHJET720A3
  1

  0
POLYLINE
  5
5B
  8
ZWAKU
 62
     2
 66
     1
 10
0.0
 20
0.0
 30
0.0
 70
     1
  0
VERTEX
  5
1C098
  8
ZWAKU
 62
     2
 10
0.0
 20
0.0
 30
0.0
  0
VERTEX
  5
1C099
  8
ZWAKU
 62
     2
 10
0.0
 20
267.0
 30
0.0
  0
VERTEX
  5
1C09A
  8
ZWAKU
 62
     2
 10
370.0
 20
267.0
 30
0.0
  0
VERTEX
  5
1C09B
  8
ZWAKU
 62
     2
 10
370.0
 20
0.0
 30
0.0
  0
SEQEND
  5
1C09C
  8
ZWAKU
 62
     2
  0
ENDBLK
  5
5D
  8
0
  0
BLOCK
  8
0
  2
B0040007
 70
     0
 10
0.0
 20
0.0
 30
0.0
  3
B0040007
  1

  0
LINE
  5
D1
  8
HATCH
 10
9.6000000000000227
 20
-2.4000000000000901
 30
0.0
 11
10.399999999999981
 21
-1.5999999999999091
 31
0.0
  0
LINE
  5
D2
  8
HATCH
 10
8.0
 20
-2.4000000000000901
 30
0.0
 11
10.399999999999981
 21
0.0
 31
0.0
  0
LINE
  5
D3
  8
HATCH
 10
9.6000000000000227
 20
-0.7999999999999546
 30
0.0
 11
8.7999999999999545
 21
0.0
 31
0.0
  0
TEXT
  5
D4
  8
MOJI
 10
-0.1065189878078172
 20
0.6260561220324235
 30
0.0
 40
2.0
  1
G.L.
 41
0.8
  7
EXT08
  0
LINE
  5
D5
  8
HATCH
 10
6.4000000000000901
 20
-2.4000000000000901
 30
0.0
 11
7.2000000000000446
 21
-1.5999999999999091
 31
0.0
  0
LINE
  5
D6
  8
HATCH
 10
4.7999999999999536
 20
-2.4000000000000901
 30
0.0
 11
6.4000000000000901
 21
-0.7999999999999546
 31
0.0
  0
LINE
  5
D7
  8
HATCH
 10
1.6000000000000221
 20
-2.4000000000000901
 30
0.0
 11
3.200000000000045
 21
-0.7999999999999546
 31
0.0
  0
LINE
  5
D8
  8
HATCH
 10
0.7999999999999546
 20
-1.5999999999999091
 30
0.0
 11
0.0
 21
-0.8000000000001818
 31
0.0
  0
LINE
  5
D9
  8
HATCH
 10
3.200000000000045
 20
-2.4000000000000901
 30
0.0
 11
5.5999999999999091
 21
0.0
 31
0.0
  0
LINE
  5
DA
  8
HATCH
 10
4.0
 20
-1.5999999999999091
 30
0.0
 11
2.3999999999999768
 21
0.0
 31
0.0
  0
LINE
  5
DB
  8
HATCH
 10
0.0
 20
-2.4000000000000901
 30
0.0
 11
2.3999999999999768
 21
0.0
 31
0.0
  0
LINE
  5
DC
  8
HATCH
 10
1.6000000000000221
 20
-0.7999999999999546
 30
0.0
 11
0.7999999999999546
 21
0.0
 31
0.0
  0
LINE
  5
DD
  8
HATCH
 10
4.7999999999999536
 20
-0.7999999999999546
 30
0.0
 11
4.0
 21
0.0
 31
0.0
  0
LINE
  5
DE
  8
HATCH
 10
8.0
 20
-2.4000000000000901
 30
0.0
 11
5.6000000000000218
 21
0.0
 31
0.0
  0
LINE
  5
DF
  8
HATCH
 10
8.7999999999999545
 20
-1.5999999999999091
 30
0.0
 11
7.2000000000000446
 21
0.0
 31
0.0
  0
ENDBLK
  5
E1
  8
0
  0
BLOCK
  8
0
  2
B0040005
 70
     0
 10
0.0
 20
0.0
 30
0.0
  3
B0040005
  1

  0
POLYLINE
  5
1FD9
  8
SUNPOU
 66
     1
 10
0.0
 20
0.0
 30
0.0
  0
VERTEX
  5
1C09D
  8
SUNPOU
 10
10.0
 20
80.0
 30
0.0
  0
VERTEX
  5
1C09E
  8
SUNPOU
 10
10.0
 20
0.0000000000001137
 30
0.0
  0
VERTEX
  5
1C09F
  8
SUNPOU
 10
0.0
 20
0.0
 30
0.0
  0
VERTEX
  5
1C0A0
  8
SUNPOU
 10
20.0
 20
-40.0
 30
0.0
  0
VERTEX
  5
1C0A1
  8
SUNPOU
 10
10.0
 20
-39.99999999999995
 30
0.0
  0
VERTEX
  5
1C0A2
  8
SUNPOU
 10
10.0
 20
-120.0
 30
0.0
  0
SEQEND
  5
1C0A3
  8
SUNPOU
  0
ENDBLK
  5
1FDB
  8
0
  0
BLOCK
  8
0
  2
GL
 70
     0
 10
0.0
 20
0.0
 30
0.0
  3
GL
  1

  0
LINE
  5
17EC2
  8
SUNPOU
 10
2.8284271247462121
 20
0.0
 30
0.0
 11
1.4142135623728791
 21
-1.414213562373106
 31
0.0
  0
LINE
  5
17EC3
  8
SUNPOU
 10
4.9497474683057581
 20
0.0
 30
0.0
 11
2.474873734152879
 21
-2.474873734152879
 31
0.0
  0
LINE
  5
17EC4
  8
SUNPOU
 10
-2.121320343559546
 20
-2.121320343559546
 30
0.0
 11
-0.707106781186667
 21
-3.535533905932652
 31
0.0
  0
LINE
  5
17EC5
  8
SUNPOU
 10
-1.0606601717799999
 20
-1.060660171779773
 30
0.0
 11
1.4142135623728791
 21
-3.535533905932652
 31
0.0
  0
TEXT
  5
17EC6
  8
SUNPOU
 10
-3.2571428571428571
 20
0.9172380209058701
 30
0.0
 40
3.0
  1
G.L.
 41
0.8
  7
MOJI1
 72
     4
 11
0.0
 21
2.4172380209058701
 31
0.0
  0
LINE
  5
17EC7
  8
SUNPOU
 10
7.0710678118653041
 20
0.0
 30
0.0
 11
3.535533905932879
 21
-3.535533905932652
 31
0.0
  0
LINE
  5
17EC8
  8
SUNPOU
 10
0.0
 20
0.0
 30
0.0
 11
3.5355339059324251
 21
-3.535533905932652
 31
0.0
  0
LINE
  5
17EC9
  8
SUNPOU
 10
0.0
 20
0.0
 30
0.0
 11
-3.5355339059324251
 21
-3.535533905932652
 31
0.0
  0
ENDBLK
  5
17ECA
  8
0
  0
BLOCK
  8
0
  2
*D8
 70
     1
 10
0.0
 20
0.0
 30
0.0
  3
*D8
  1

  0
LINE
  5
1C0DE
  8
SUNPOU
 62
     0
 10
450.11334604726449
 20
787.58889876454123
 30
0.0
 11
377.68044119141223
 21
787.58889876454123
 31
0.0
  0
LINE
  5
1C0DF
  8
SUNPOU
 62
     0
 10
609.64738174553963
 20
2287.5888987645412
 30
0.0
 11
377.68044119141251
 21
2287.5888987645412
 31
0.0
  0
LINE
  5
1C0E0
  8
SUNPOU
 62
     0
 10
387.68044119141223
 20
807.58889876454111
 30
0.0
 11
387.68044119141251
 21
2267.5888987645412
 31
0.0
  0
SOLID
  5
1C0E1
  8
SUNPOU
 62
     0
 10
384.34710785807891
 20
807.58889876454111
 30
0.0
 11
391.01377452474549
 21
807.58889876454111
 31
0.0
 12
387.68044119141223
 22
787.58889876454123
 32
0.0
 13
387.68044119141223
 23
787.58889876454123
 33
0.0
  0
SOLID
  5
1C0E2
  8
SUNPOU
 62
     0
 10
384.3471078580792
 20
2267.5888987645412
 30
0.0
 11
391.01377452474583
 21
2267.5888987645412
 31
0.0
 12
387.68044119141251
 22
2287.5888987645412
 32
0.0
 13
387.68044119141251
 23
2287.5888987645412
 33
0.0
  0
TEXT
  8
SUNPOU
  40
30
  5
1C22E
  62
0
  72
0
  71
0
 10
300.680
 20
1484.49
 30
0.000000
  1
1500
  7
EXT08
  0
POINT
  5
1C0E4
  8
DEFPOINTS
 62
     0
 10
460.11334604726437
 20
787.58889876454123
 30
0.0
  0
POINT
  5
1C0E5
  8
DEFPOINTS
 62
     0
 10
619.64738174553963
 20
2287.5888987645412
 30
0.0
  0
POINT
  5
1C0E6
  8
DEFPOINTS
 62
     0
 10
387.68044119141251
 20
2287.5888987645412
 30
0.0
  0
ENDBLK
  5
195ED
  8
0
  0
BLOCK
  8
0
  2
*D9
 70
     1
 10
0.0
 20
0.0
 30
0.0
  3
*D9
  1

  0
LINE
  5
1C0E7
  8
SUNPOU
 62
     0
 10
609.64738174553963
 20
2287.5888987645412
 30
0.0
 11
458.6774305903071
 21
2287.5888987645412
 31
0.0
  0
LINE
  5
1C0E8
  8
SUNPOU
 62
     0
 10
609.64738174554145
 20
1777.588898764541
 30
0.0
 11
458.67743059030698
 21
1777.588898764541
 31
0.0
  0
LINE
  5
1C0E9
  8
SUNPOU
 62
     0
 10
468.6774305903071
 20
2267.5888987645412
 30
0.0
 11
468.67743059030698
 21
1797.588898764541
 31
0.0
  0
SOLID
  5
1C0EA
  8
SUNPOU
 62
     0
 10
465.34409725697378
 20
2267.5888987645412
 30
0.0
 11
472.01076392364041
 21
2267.5888987645412
 31
0.0
 12
468.6774305903071
 22
2287.5888987645412
 32
0.0
 13
468.6774305903071
 23
2287.5888987645412
 33
0.0
  0
SOLID
  5
1C0EB
  8
SUNPOU
 62
     0
 10
465.34409725697373
 20
1797.588898764541
 30
0.0
 11
472.0107639236403
 21
1797.588898764541
 31
0.0
 12
468.67743059030698
 22
1777.588898764541
 32
0.0
 13
468.67743059030698
 23
1777.588898764541
 33
0.0
  0
TEXT
  8
SUNPOU
  40
30
  5
1C22F
  62
0
  72
0
  71
0
 10
381.677
 20
1979.49
 30
0.000000
  1
510
  7
EXT08
  0
POINT
  5
1C0ED
  8
DEFPOINTS
 62
     0
 10
619.64738174553963
 20
2287.5888987645412
 30
0.0
  0
POINT
  5
1C0EE
  8
DEFPOINTS
 62
     0
 10
619.64738174554145
 20
1777.588898764541
 30
0.0
  0
POINT
  5
1C0EF
  8
DEFPOINTS
 62
     0
 10
468.67743059030698
 20
1777.588898764541
 30
0.0
  0
ENDBLK
  5
195F9
  8
0
  0
BLOCK
  8
0
  2
*D10
 70
     1
 10
0.0
 20
0.0
 30
0.0
  3
*D10
  1

  0
LINE
  5
1C0F0
  8
SUNPOU
 62
     0
 10
607.64738174553963
 20
2285.5888987645412
 30
0.0
 11
607.64738174553963
 21
2451.5652057546758
 31
0.0
  0
LINE
  5
1C0F1
  8
SUNPOU
 62
     0
 10
767.64738174554316
 20
2285.5888987645412
 30
0.0
 11
767.64738174554316
 21
2451.5652057546758
 31
0.0
  0
LINE
  5
1C0F2
  8
SUNPOU
 62
     0
 10
627.64738174553963
 20
2441.5652057546758
 30
0.0
 11
747.64738174554316
 21
2441.5652057546758
 31
0.0
  0
SOLID
  5
1C0F3
  8
SUNPOU
 62
     0
 10
627.64738174553963
 20
2444.8985390880098
 30
0.0
 11
627.64738174553963
 21
2438.2318724213419
 31
0.0
 12
607.64738174553963
 22
2441.5652057546758
 32
0.0
 13
607.64738174553963
 23
2441.5652057546758
 33
0.0
  0
SOLID
  5
1C0F4
  8
SUNPOU
 62
     0
 10
747.64738174554316
 20
2444.8985390880098
 30
0.0
 11
747.64738174554316
 21
2438.2318724213419
 31
0.0
 12
767.64738174554316
 22
2441.5652057546758
 32
0.0
 13
767.64738174554316
 23
2441.5652057546758
 33
0.0
  0
TEXT
  8
SUNPOU
  40
30
  5
1C230
  62
0
  72
0
  71
0
 10
627.647
 20
2415.47
 30
0.000000
  1
160
  7
EXT08
  0
POINT
  5
1C0F6
  8
DEFPOINTS
 62
     0
 10
607.64738174553963
 20
2275.5888987645412
 30
0.0
  0
POINT
  5
1C0F7
  8
DEFPOINTS
 62
     0
 10
767.64738174554316
 20
2275.5888987645412
 30
0.0
  0
POINT
  5
1C0F8
  8
DEFPOINTS
 62
     0
 10
767.64738174554316
 20
2441.5652057546758
 30
0.0
  0
ENDBLK
  5
19605
  8
0
  0
BLOCK
  8
0
  2
*D11
 70
     1
 10
0.0
 20
0.0
 30
0.0
  3
*D11
  1

  0
LINE
  5
1C0F9
  8
SUNPOU
 62
     0
 10
450.11334604726449
 20
787.58889876454123
 30
0.0
 11
223.93867437074721
 21
787.58889876454134
 31
0.0
  0
LINE
  5
1C0FA
  8
SUNPOU
 62
     0
 10
477.64738174554049
 20
387.58889876454123
 30
0.0
 11
223.93867437074709
 21
387.58889876454128
 31
0.0
  0
LINE
  5
1C0FB
  8
SUNPOU
 62
     0
 10
233.93867437074709
 20
767.58889876454134
 30
0.0
 11
233.93867437074709
 21
407.58889876454123
 31
0.0
  0
SOLID
  5
1C0FC
  8
SUNPOU
 62
     0
 10
230.60534103741381
 20
767.58889876454134
 30
0.0
 11
237.27200770408049
 21
767.58889876454134
 31
0.0
 12
233.93867437074709
 22
787.58889876454134
 32
0.0
 13
233.93867437074709
 23
787.58889876454134
 33
0.0
  0
SOLID
  5
1C0FD
  8
SUNPOU
 62
     0
 10
230.60534103741369
 20
407.58889876454123
 30
0.0
 11
237.27200770408041
 21
407.58889876454123
 31
0.0
 12
233.93867437074709
 22
387.58889876454128
 32
0.0
 13
233.93867437074709
 23
387.58889876454128
 33
0.0
  0
TEXT
  8
SUNPOU
  40
30
  5
1C231
  62
0
  72
0
  71
0
 10
146.939
 20
534.489
 30
0.000000
  1
400
  7
EXT08
  0
POINT
  5
1C0FF
  8
DEFPOINTS
 62
     0
 10
460.11334604726437
 20
787.58889876454123
 30
0.0
  0
POINT
  5
1C100
  8
DEFPOINTS
 62
     0
 10
487.64738174554049
 20
387.58889876454123
 30
0.0
  0
POINT
  5
1C101
  8
DEFPOINTS
 62
     0
 10
233.93867437074709
 20
387.58889876454128
 30
0.0
  0
ENDBLK
  5
1962B
  8
0
  0
BLOCK
  8
0
  2
*D12
 70
     1
 10
0.0
 20
0.0
 30
0.0
  3
*D12
  1

  0
LINE
  5
1C102
  8
SUNPOU
 62
     0
 10
537.64738174554054
 20
377.58889876454123
 30
0.0
 11
537.64738174554054
 21
222.66611865349751
 31
0.0
  0
LINE
  5
1C103
  8
SUNPOU
 62
     0
 10
837.64738174554054
 20
377.58889876454123
 30
0.0
 11
837.64738174554054
 21
222.66611865349751
 31
0.0
  0
LINE
  5
1C104
  8
SUNPOU
 62
     0
 10
557.64738174554054
 20
232.66611865349751
 30
0.0
 11
817.64738174554066
 21
232.66611865349751
 31
0.0
  0
SOLID
  5
1C105
  8
SUNPOU
 62
     0
 10
557.64738174554054
 20
235.99945198683079
 30
0.0
 11
557.64738174554054
 21
229.33278532016419
 31
0.0
 12
537.64738174554054
 22
232.66611865349751
 32
0.0
 13
537.64738174554054
 23
232.66611865349751
 33
0.0
  0
SOLID
  5
1C106
  8
SUNPOU
 62
     0
 10
817.64738174554066
 20
235.99945198683079
 30
0.0
 11
817.64738174554066
 21
229.33278532016419
 31
0.0
 12
837.64738174554054
 22
232.66611865349751
 32
0.0
 13
837.64738174554054
 23
232.66611865349751
 33
0.0
  0
TEXT
  8
SUNPOU
  40
30
  5
1C232
  62
0
  72
0
  71
0
 10
627.647
 20
206.566
 30
0.000000
  1
□300
  7
EXT08
  0
POINT
  5
1C108
  8
DEFPOINTS
 62
     0
 10
537.64738174554054
 20
387.58889876454123
 30
0.0
  0
POINT
  5
1C109
  8
DEFPOINTS
 62
     0
 10
837.64738174554054
 20
387.58889876454123
 30
0.0
  0
POINT
  5
1C10A
  8
DEFPOINTS
 62
     0
 10
837.64738174554054
 20
232.66611865349751
 30
0.0
  0
ENDBLK
  5
19683
  8
0
  0
BLOCK
  8
0
  2
*D13
 70
     1
 10
0.0
 20
0.0
 30
0.0
  3
*D13
  1

  0
LINE
  5
1C11D
  8
SUNPOU
 62
     0
 10
1983.829355828233
 20
1436.507178536805
 30
0.0
 11
1880.500388950459
 21
1436.507178536805
 31
0.0
  0
LINE
  5
1C11E
  8
SUNPOU
 62
     0
 10
1983.829355828236
 20
416.50717853680538
 30
0.0
 11
1880.500388950459
 21
416.5071785368055
 31
0.0
  0
LINE
  5
1C11F
  8
SUNPOU
 62
     0
 10
1890.500388950459
 20
1416.507178536805
 30
0.0
 11
1890.500388950458
 21
436.5071785368055
 31
0.0
  0
SOLID
  5
1C120
  8
SUNPOU
 62
     0
 10
1887.1670556171259
 20
1416.507178536805
 30
0.0
 11
1893.833722283792
 21
1416.507178536805
 31
0.0
 12
1890.500388950459
 22
1436.507178536805
 32
0.0
 13
1890.500388950459
 23
1436.507178536805
 33
0.0
  0
SOLID
  5
1C121
  8
SUNPOU
 62
     0
 10
1887.1670556171259
 20
436.5071785368055
 30
0.0
 11
1893.833722283792
 21
436.5071785368055
 31
0.0
 12
1890.500388950458
 22
416.5071785368055
 32
0.0
 13
1890.500388950458
 23
416.5071785368055
 33
0.0
  0
TEXT
  8
SUNPOU
  40
30
  5
1C233
  62
0
  72
0
  71
0
 10
1803.50
 20
873.407
 30
0.000000
  1
510
  7
EXT08
  0
POINT
  5
1C123
  8
DEFPOINTS
 62
     0
 10
1993.829355828233
 20
1436.507178536805
 30
0.0
  0
POINT
  5
1C124
  8
DEFPOINTS
 62
     0
 10
1993.8293558282371
 20
416.50717853680538
 30
0.0
  0
POINT
  5
1C125
  8
DEFPOINTS
 62
     0
 10
1890.500388950458
 20
416.5071785368055
 30
0.0
  0
ENDBLK
  5
1969B
  8
0
  0
BLOCK
  8
0
  2
*D14
 70
     1
 10
0.0
 20
0.0
 30
0.0
  3
*D14
  1

  0
LINE
  5
1C126
  8
SUNPOU
 62
     0
 10
1969.829355828233
 20
1422.507178536805
 30
0.0
 11
1969.829355828233
 21
1609.019615007488
 31
0.0
  0
LINE
  5
1C127
  8
SUNPOU
 62
     0
 10
2289.8293558282398
 20
1422.507178536805
 30
0.0
 11
2289.8293558282398
 21
1609.019615007488
 31
0.0
  0
LINE
  5
1C128
  8
SUNPOU
 62
     0
 10
1989.829355828233
 20
1599.019615007488
 30
0.0
 11
2269.8293558282412
 21
1599.019615007488
 31
0.0
  0
SOLID
  5
1C129
  8
SUNPOU
 62
     0
 10
1989.829355828233
 20
1602.3529483408211
 30
0.0
 11
1989.829355828233
 21
1595.686281674155
 31
0.0
 12
1969.829355828233
 22
1599.019615007488
 32
0.0
 13
1969.829355828233
 23
1599.019615007488
 33
0.0
  0
SOLID
  5
1C12A
  8
SUNPOU
 62
     0
 10
2269.8293558282412
 20
1602.3529483408211
 30
0.0
 11
2269.8293558282412
 21
1595.686281674155
 31
0.0
 12
2289.8293558282398
 22
1599.019615007488
 32
0.0
 13
2289.8293558282398
 23
1599.019615007488
 33
0.0
  0
TEXT
  8
SUNPOU
  40
30
  5
1C234
  62
0
  72
0
  71
0
 10
2069.83
 20
1572.92
 30
0.000000
  1
160
  7
EXT08
  0
POINT
  5
1C12C
  8
DEFPOINTS
 62
     0
 10
1969.829355828233
 20
1412.507178536805
 30
0.0
  0
POINT
  5
1C12D
  8
DEFPOINTS
 62
     0
 10
2289.8293558282398
 20
1412.507178536805
 30
0.0
  0
POINT
  5
1C12E
  8
DEFPOINTS
 62
     0
 10
2289.8293558282398
 20
1599.019615007488
 30
0.0
  0
ENDBLK
  5
196A7
  8
0
  0
BLOCK
  8
0
  2
*D15
 70
     1
 10
0.0
 20
0.0
 30
0.0
  3
*D15
  1

  0
LINE
  5
1C12F
  8
SUNPOU
 62
     0
 10
1969.8293558282351
 20
946.50717853680555
 30
0.0
 11
1969.8293558282351
 21
990.17885190819288
 31
0.0
  0
LINE
  5
1C130
  8
SUNPOU
 62
     0
 10
1979.829355828236
 20
946.50717853680555
 30
0.0
 11
1979.829355828236
 21
990.17885190819288
 31
0.0
  0
LINE
  5
1C131
  8
SUNPOU
 62
     0
 10
1949.8293558282351
 20
980.17885190819288
 30
0.0
 11
1929.8293558282351
 21
980.17885190819288
 31
0.0
  0
LINE
  5
1C132
  8
SUNPOU
 62
     0
 10
1999.829355828236
 20
980.17885190819288
 30
0.0
 11
2019.829355828236
 21
980.17885190819288
 31
0.0
  0
TEXT
  8
SUNPOU
  40
30
  5
1C235
  62
0
  72
0
  71
0
 10
1889.31
 20
953.958
 30
0.000000
  1
5
  7
EXT08
  0
LINE
  5
1C134
  8
SUNPOU
 62
     0
 10
1969.8293558282351
 20
980.17885190819288
 30
0.0
 11
1979.829355828236
 21
980.17885190819288
 31
0.0
  0
SOLID
  5
1C135
  8
SUNPOU
 62
     0
 10
1949.8293558282351
 20
983.51218524152625
 30
0.0
 11
1949.8293558282351
 21
976.8455185748594
 31
0.0
 12
1969.8293558282351
 22
980.17885190819288
 32
0.0
 13
1969.8293558282351
 23
980.17885190819288
 33
0.0
  0
SOLID
  5
1C136
  8
SUNPOU
 62
     0
 10
1999.829355828236
 20
983.51218524152625
 30
0.0
 11
1999.829355828236
 21
976.8455185748594
 31
0.0
 12
1979.829355828236
 22
980.17885190819288
 32
0.0
 13
1979.829355828236
 23
980.17885190819288
 33
0.0
  0
POINT
  5
1C137
  8
DEFPOINTS
 62
     0
 10
1969.8293558282351
 20
936.50717853680555
 30
0.0
  0
POINT
  5
1C138
  8
DEFPOINTS
 62
     0
 10
1979.829355828236
 20
936.50717853680555
 30
0.0
  0
POINT
  5
1C139
  8
DEFPOINTS
 62
     0
 10
1979.829355828236
 20
980.17885190819288
 30
0.0
  0
ENDBLK
  5
196C7
  8
0
  0
BLOCK
  8
0
  2
*D16
 70
     1
 10
0.0
 20
0.0
 30
0.0
  3
*D16
  1

  0
LINE
  5
1C13A
  8
SUNPOU
 62
     0
 10
2788.9786626568889
 20
1442.5071785368109
 30
0.0
 11
2788.9786626568889
 21
1555.1350931014349
 31
0.0
  0
LINE
  5
1C13B
  8
SUNPOU
 62
     0
 10
2776.9786626568889
 20
1442.507178536805
 30
0.0
 11
2776.9786626568889
 21
1555.1350931014349
 31
0.0
  0
LINE
  5
1C13C
  8
SUNPOU
 62
     0
 10
2808.9786626568898
 20
1545.1350931014349
 30
0.0
 11
2828.9786626568898
 21
1545.1350931014349
 31
0.0
  0
LINE
  5
1C13D
  8
SUNPOU
 62
     0
 10
2756.9786626568889
 20
1545.1350931014349
 30
0.0
 11
2736.9786626568898
 21
1545.1350931014349
 31
0.0
  0
TEXT
  8
SUNPOU
  40
30
  5
1C236
  62
0
  72
0
  71
0
 10
2691.73
 20
1522.03
 30
0.000000
  1
6
  7
EXT08
  0
LINE
  5
1C13F
  8
SUNPOU
 62
     0
 10
2788.9786626568889
 20
1545.1350931014349
 30
0.0
 11
2776.9786626568889
 21
1545.1350931014349
 31
0.0
  0
SOLID
  5
1C140
  8
SUNPOU
 62
     0
 10
2808.9786626568898
 20
1548.4684264347679
 30
0.0
 11
2808.9786626568898
 21
1541.8017597681021
 31
0.0
 12
2788.9786626568889
 22
1545.1350931014349
 32
0.0
 13
2788.9786626568889
 23
1545.1350931014349
 33
0.0
  0
SOLID
  5
1C141
  8
SUNPOU
 62
     0
 10
2756.9786626568889
 20
1548.4684264347679
 30
0.0
 11
2756.9786626568889
 21
1541.8017597681021
 31
0.0
 12
2776.9786626568889
 22
1545.1350931014349
 32
0.0
 13
2776.9786626568889
 23
1545.1350931014349
 33
0.0
  0
POINT
  5
1C142
  8
DEFPOINTS
 62
     0
 10
2788.9786626568889
 20
1432.5071785368109
 30
0.0
  0
POINT
  5
1C143
  8
DEFPOINTS
 62
     0
 10
2776.9786626568889
 20
1432.507178536805
 30
0.0
  0
POINT
  5
1C144
  8
DEFPOINTS
 62
     0
 10
2776.9786626568889
 20
1545.1350931014349
 30
0.0
  0
ENDBLK
  5
196EA
  8
0
  0
BLOCK
  8
0
  2
*D17
 70
     1
 10
0.0
 20
0.0
 30
0.0
  3
*D17
  1

  0
LINE
  5
1C15D
  8
SUNPOU
 62
     0
 10
643.89738174553895
 20
2337.588898764544
 30
0.0
 11
643.89738174553895
 21
2388.5770522596108
 31
0.0
  0
LINE
  5
1C15E
  8
SUNPOU
 62
     0
 10
731.39738174553713
 20
2337.5888987645458
 30
0.0
 11
731.39738174553713
 21
2388.5770522596108
 31
0.0
  0
LINE
  5
1C15F
  8
SUNPOU
 62
     0
 10
663.89738174553895
 20
2378.5770522596099
 30
0.0
 11
711.39738174553713
 21
2378.5770522596099
 31
0.0
  0
TEXT
  8
SUNPOU
  40
30
  5
1C237
  62
0
  72
0
  71
0
 10
627.647
 20
2355.16
 30
0.000000
  1
φ89
  7
EXT08
  0
SOLID
  5
1C161
  8
SUNPOU
 62
     0
 10
663.89738174553895
 20
2381.9103855929438
 30
0.0
 11
663.89738174553895
 21
2375.2437189262769
 31
0.0
 12
643.89738174553895
 22
2378.5770522596099
 32
0.0
 13
643.89738174553895
 23
2378.5770522596099
 33
0.0
  0
SOLID
  5
1C162
  8
SUNPOU
 62
     0
 10
711.39738174553713
 20
2381.9103855929438
 30
0.0
 11
711.39738174553713
 21
2375.2437189262769
 31
0.0
 12
731.39738174553713
 22
2378.5770522596099
 32
0.0
 13
731.39738174553713
 23
2378.5770522596099
 33
0.0
  0
POINT
  5
1C163
  8
DEFPOINTS
 62
     0
 10
643.89738174553895
 20
2327.588898764544
 30
0.0
  0
POINT
  5
1C164
  8
DEFPOINTS
 62
     0
 10
731.39738174553713
 20
2327.5888987645458
 30
0.0
  0
POINT
  5
1C165
  8
DEFPOINTS
 62
     0
 10
731.39738174553713
 20
2378.5770522596099
 30
0.0
  0
ENDBLK
  5
19E0E
  8
0
  0
BLOCK
  8
0
  2
*D18
 70
     1
 10
0.0
 20
0.0
 30
0.0
  3
*D18
  1

  0
LINE
  5
1C176
  8
SUNPOU
 62
     0
 10
477.64738174554071
 20
287.58889876454123
 30
0.0
 11
223.93867437074701
 21
287.58889876454128
 31
0.0
  0
LINE
  5
1C177
  8
SUNPOU
 62
     0
 10
467.64738174554049
 20
387.58889876454123
 30
0.0
 11
223.93867437074709
 21
387.58889876454128
 31
0.0
  0
LINE
  5
1C178
  8
SUNPOU
 62
     0
 10
233.93867437074701
 20
307.58889876454128
 30
0.0
 11
233.93867437074709
 21
367.58889876454128
 31
0.0
  0
SOLID
  5
1C179
  8
SUNPOU
 62
     0
 10
230.60534103741369
 20
307.58889876454128
 30
0.0
 11
237.27200770408041
 21
307.58889876454128
 31
0.0
 12
233.93867437074701
 22
287.58889876454128
 32
0.0
 13
233.93867437074701
 23
287.58889876454128
 33
0.0
  0
SOLID
  5
1C17A
  8
SUNPOU
 62
     0
 10
230.60534103741369
 20
367.58889876454128
 30
0.0
 11
237.27200770408041
 21
367.58889876454128
 31
0.0
 12
233.93867437074709
 22
387.58889876454128
 32
0.0
 13
233.93867437074709
 23
387.58889876454128
 33
0.0
  0
TEXT
  8
SUNPOU
  40
30
  5
1C238
  62
0
  72
0
  71
0
 10
146.939
 20
284.489
 30
0.000000
  1
100
  7
EXT08
  0
POINT
  5
1C17C
  8
DEFPOINTS
 62
     0
 10
487.64738174554083
 20
287.58889876454123
 30
0.0
  0
POINT
  5
1C17D
  8
DEFPOINTS
 62
     0
 10
477.64738174554049
 20
387.58889876454123
 30
0.0
  0
POINT
  5
1C17E
  8
DEFPOINTS
 62
     0
 10
233.93867437074709
 20
387.58889876454128
 30
0.0
  0
ENDBLK
  5
1AAD2
  8
0
  0
BLOCK
  8
0
  2
*D19
 70
     1
 10
0.0
 20
0.0
 30
0.0
  3
*D19
  1

  0
LINE
  5
1C17F
  8
SUNPOU
 62
     0
 10
887.64738174554066
 20
277.58889876454123
 30
0.0
 11
887.64738174554066
 21
167.33611180880141
 31
0.0
  0
LINE
  5
1C180
  8
SUNPOU
 62
     0
 10
487.64738174554083
 20
277.58889876454123
 30
0.0
 11
487.64738174554083
 21
167.33611180880141
 31
0.0
  0
LINE
  5
1C181
  8
SUNPOU
 62
     0
 10
867.64738174554066
 20
177.33611180880141
 30
0.0
 11
507.64738174554071
 21
177.33611180880141
 31
0.0
  0
SOLID
  5
1C182
  8
SUNPOU
 62
     0
 10
867.64738174554066
 20
180.6694451421348
 30
0.0
 11
867.64738174554066
 21
174.00277847546809
 31
0.0
 12
887.64738174554066
 22
177.33611180880141
 32
0.0
 13
887.64738174554066
 23
177.33611180880141
 33
0.0
  0
SOLID
  5
1C183
  8
SUNPOU
 62
     0
 10
507.64738174554071
 20
180.6694451421348
 30
0.0
 11
507.64738174554071
 21
174.00277847546809
 31
0.0
 12
487.64738174554083
 22
177.33611180880141
 32
0.0
 13
487.64738174554083
 23
177.33611180880141
 33
0.0
  0
TEXT
  8
SUNPOU
  40
30
  5
1C239
  62
0
  72
0
  71
0
 10
627.647
 20
151.236
 30
0.000000
  1
□400
  7
EXT08
  0
POINT
  5
1C185
  8
DEFPOINTS
 62
     0
 10
887.64738174554066
 20
287.58889876454123
 30
0.0
  0
POINT
  5
1C186
  8
DEFPOINTS
 62
     0
 10
487.64738174554083
 20
287.58889876454123
 30
0.0
  0
POINT
  5
1C187
  8
DEFPOINTS
 62
     0
 10
487.64738174554083
 20
177.33611180880141
 30
0.0
  0
ENDBLK
  5
1AADF
  8
0
  0
BLOCK
  8
0
  2
*D20
 70
     1
 10
0.0
 20
0.0
 30
0.0
  3
*D20
  1

  0
LINE
  5
1C204
  8
SUNPOU
 62
     0
 10
633.89738174553895
 20
2327.5888987645412
 30
0.0
 11
458.6774305903071
 21
2327.5888987645412
 31
0.0
  0
LINE
  5
1C205
  8
SUNPOU
 62
     0
 10
609.64738174553975
 20
2287.5888987645412
 30
0.0
 11
458.6774305903071
 21
2287.5888987645412
 31
0.0
  0
LINE
  5
1C206
  8
SUNPOU
 62
     0
 10
468.6774305903071
 20
2347.5888987645412
 30
0.0
 11
468.6774305903071
 21
2367.5888987645412
 31
0.0
  0
LINE
  5
1C207
  8
SUNPOU
 62
     0
 10
468.6774305903071
 20
2267.5888987645412
 30
0.0
 11
468.6774305903071
 21
2247.5888987645412
 31
0.0
  0
TEXT
  8
SUNPOU
  40
30
  5
1C23A
  62
0
  72
0
  71
0
 10
365.677
 20
2254.49
 30
0.000000
  1
40
  7
EXT08
  0
LINE
  5
1C209
  8
SUNPOU
 62
     0
 10
468.6774305903071
 20
2327.5888987645412
 30
0.0
 11
468.6774305903071
 21
2287.5888987645412
 31
0.0
  0
SOLID
  5
1C20A
  8
SUNPOU
 62
     0
 10
465.34409725697378
 20
2347.5888987645412
 30
0.0
 11
472.01076392364041
 21
2347.5888987645412
 31
0.0
 12
468.6774305903071
 22
2327.5888987645412
 32
0.0
 13
468.6774305903071
 23
2327.5888987645412
 33
0.0
  0
SOLID
  5
1C20B
  8
SUNPOU
 62
     0
 10
465.34409725697378
 20
2267.5888987645412
 30
0.0
 11
472.01076392364041
 21
2267.5888987645412
 31
0.0
 12
468.6774305903071
 22
2287.5888987645412
 32
0.0
 13
468.6774305903071
 23
2287.5888987645412
 33
0.0
  0
POINT
  5
1C20C
  8
DEFPOINTS
 62
     0
 10
643.89738174553895
 20
2327.5888987645412
 30
0.0
  0
POINT
  5
1C20D
  8
DEFPOINTS
 62
     0
 10
619.64738174553975
 20
2287.5888987645412
 30
0.0
  0
POINT
  5
1C20E
  8
DEFPOINTS
 62
     0
 10
468.6774305903071
 20
2287.5888987645412
 30
0.0
  0
ENDBLK
  5
1AE37
  8
0
  0
BLOCK
  8
0
  2
*D21
 70
     1
 10
0.0
 20
0.0
 30
0.0
  3
*D21
  1

  0
LINE
  5
1C20F
  8
SUNPOU
 62
     0
 10
677.64738174554066
 20
2347.5888987645349
 30
0.0
 11
223.93867437074749
 21
2347.5888987645349
 31
0.0
  0
LINE
  5
1C210
  8
SUNPOU
 62
     0
 10
450.1133460472646
 20
787.58889876454123
 30
0.0
 11
223.93867437074721
 21
787.58889876454134
 31
0.0
  0
LINE
  5
1C211
  8
SUNPOU
 62
     0
 10
233.93867437074749
 20
2327.5888987645349
 30
0.0
 11
233.93867437074709
 21
807.58889876454134
 31
0.0
  0
SOLID
  5
1C212
  8
SUNPOU
 62
     0
 10
230.60534103741421
 20
2327.5888987645349
 30
0.0
 11
237.27200770408089
 21
2327.5888987645349
 31
0.0
 12
233.93867437074749
 22
2347.5888987645349
 32
0.0
 13
233.93867437074749
 23
2347.5888987645349
 33
0.0
  0
SOLID
  5
1C213
  8
SUNPOU
 62
     0
 10
230.60534103741381
 20
807.58889876454134
 30
0.0
 11
237.27200770408049
 21
807.58889876454134
 31
0.0
 12
233.93867437074709
 22
787.58889876454134
 32
0.0
 13
233.93867437074709
 23
787.58889876454134
 33
0.0
  0
TEXT
  8
SUNPOU
  40
30
  5
1C23B
  62
0
  72
0
  71
0
 10
146.939
 20
1514.49
 30
0.000000
  1
1560
  7
EXT08
  0
POINT
  5
1C215
  8
DEFPOINTS
 62
     0
 10
687.64738174554077
 20
2347.5888987645349
 30
0.0
  0
POINT
  5
1C216
  8
DEFPOINTS
 62
     0
 10
460.11334604726471
 20
787.58889876454123
 30
0.0
  0
POINT
  5
1C217
  8
DEFPOINTS
 62
     0
 10
233.93867437074709
 20
787.58889876454134
 30
0.0
  0
ENDBLK
  5
1AE44
  8
0
  0
BLOCK
  8
0
  2
A$C0175063D
 70
     0
 10
0.0
 20
0.0
 30
0.0
  3
A$C0175063D
  1

  0
POLYLINE
  5
1B119
  8
SUNPOU
 66
     1
 10
0.0
 20
0.0
 30
0.0
 70
     1
  0
VERTEX
  5
1C218
  8
SUNPOU
 10
-0.0000067140144893
 20
100.00000589002219
 30
0.0
  0
VERTEX
  5
1C219
  8
SUNPOU
 10
599.99999328598551
 20
100.00000589002219
 30
0.0
  0
VERTEX
  5
1C21A
  8
SUNPOU
 10
599.99999328598551
 20
0.0000058900221802
 30
0.0
  0
VERTEX
  5
1C21B
  8
SUNPOU
 10
-0.0000067140144893
 20
0.0000058900221802
 30
0.0
  0
SEQEND
  5
1C21C
  8
SUNPOU
  0
POLYLINE
  5
1B11A
  8
SUNPOU
 10
472.13157659485717
 20
1.9828827908732833
 30
0.0
 66
     1
 70
     8
  0
VERTEX
  8
SUNPOU
  5
1C23C
 10
472.132
 20
1.98288
 30
0.000000
  70
    32
  0
VERTEX
  8
SUNPOU
  5
1C23D
 10
473.298
 20
1.38755
 30
0.000000
  70
    32
  0
VERTEX
  8
SUNPOU
  5
1C23E
 10
474.528
 20
0.910493
 30
0.000000
  70
    32
  0
VERTEX
  8
SUNPOU
  5
1C23F
 10
475.821
 20
0.552856
 30
0.000000
  70
    32
  0
VERTEX
  8
SUNPOU
  5
1C240
 10
477.172
 20
0.315504
 30
0.000000
  70
    32
  0
VERTEX
  8
SUNPOU
  5
1C241
 10
478.578
 20
0.199007
 30
0.000000
  70
    32
  0
VERTEX
  8
SUNPOU
  5
1C242
 10
480.036
 20
0.203647
 30
0.000000
  70
    32
  0
VERTEX
  8
SUNPOU
  5
1C243
 10
481.543
 20
0.329411
 30
0.000000
  70
    32
  0
VERTEX
  8
SUNPOU
  5
1C244
 10
483.094
 20
0.575998
 30
0.000000
  70
    32
  0
VERTEX
  8
SUNPOU
  5
1C245
 10
484.687
 20
0.942813
 30
0.000000
  70
    32
  0
VERTEX
  8
SUNPOU
  5
1C246
 10
486.316
 20
1.42897
 30
0.000000
  70
    32
  0
VERTEX
  8
SUNPOU
  5
1C247
 10
487.979
 20
2.03330
 30
0.000000
  70
    32
  0
VERTEX
  8
SUNPOU
  5
1C248
 10
489.671
 20
2.75435
 30
0.000000
  70
    32
  0
VERTEX
  8
SUNPOU
  5
1C249
 10
491.389
 20
3.59038
 30
0.000000
  70
    32
  0
VERTEX
  8
SUNPOU
  5
1C24A
 10
493.127
 20
4.53938
 30
0.000000
  70
    32
  0
VERTEX
  8
SUNPOU
  5
1C24B
 10
494.883
 20
5.59906
 30
0.000000
  70
    32
  0
VERTEX
  8
SUNPOU
  5
1C24C
 10
496.651
 20
6.76686
 30
0.000000
  70
    32
  0
VERTEX
  8
SUNPOU
  5
1C24D
 10
498.427
 20
8.03998
 30
0.000000
  70
    32
  0
VERTEX
  8
SUNPOU
  5
1C24E
 10
500.208
 20
9.41534
 30
0.000000
  70
    32
  0
VERTEX
  8
SUNPOU
  5
1C24F
 10
501.988
 20
10.8896
 30
0.000000
  70
    32
  0
VERTEX
  8
SUNPOU
  5
1C250
 10
503.764
 20
12.4593
 30
0.000000
  70
    32
  0
VERTEX
  8
SUNPOU
  5
1C251
 10
505.531
 20
14.1206
 30
0.000000
  70
    32
  0
VERTEX
  8
SUNPOU
  5
1C252
 10
507.285
 20
15.8695
 30
0.000000
  70
    32
  0
VERTEX
  8
SUNPOU
  5
1C253
 10
509.022
 20
17.7017
 30
0.000000
  70
    32
  0
VERTEX
  8
SUNPOU
  5
1C254
 10
510.737
 20
19.6130
 30
0.000000
  70
    32
  0
VERTEX
  8
SUNPOU
  5
1C255
 10
512.427
 20
21.5986
 30
0.000000
  70
    32
  0
VERTEX
  8
SUNPOU
  5
1C256
 10
514.088
 20
23.6537
 30
0.000000
  70
    32
  0
VERTEX
  8
SUNPOU
  5
1C257
 10
515.714
 20
25.7736
 30
0.000000
  70
    32
  0
VERTEX
  8
SUNPOU
  5
1C258
 10
517.303
 20
27.9529
 30
0.000000
  70
    32
  0
VERTEX
  8
SUNPOU
  5
1C259
 10
518.851
 20
30.1865
 30
0.000000
  70
    32
  0
VERTEX
  8
SUNPOU
  5
1C25A
 10
520.354
 20
32.4690
 30
0.000000
  70
    32
  0
VERTEX
  8
SUNPOU
  5
1C25B
 10
521.808
 20
34.7949
 30
0.000000
  70
    32
  0
VERTEX
  8
SUNPOU
  5
1C25C
 10
523.210
 20
37.1586
 30
0.000000
  70
    32
  0
VERTEX
  8
SUNPOU
  5
1C25D
 10
524.556
 20
39.5544
 30
0.000000
  70
    32
  0
VERTEX
  8
SUNPOU
  5
1C25E
 10
525.843
 20
41.9765
 30
0.000000
  70
    32
  0
VERTEX
  8
SUNPOU
  5
1C25F
 10
527.068
 20
44.4191
 30
0.000000
  70
    32
  0
VERTEX
  8
SUNPOU
  5
1C260
 10
528.229
 20
46.8763
 30
0.000000
  70
    32
  0
VERTEX
  8
SUNPOU
  5
1C261
 10
529.322
 20
49.3422
 30
0.000000
  70
    32
  0
VERTEX
  8
SUNPOU
  5
1C262
 10
530.344
 20
51.8109
 30
0.000000
  70
    32
  0
VERTEX
  8
SUNPOU
  5
1C263
 10
531.294
 20
54.2763
 30
0.000000
  70
    32
  0
VERTEX
  8
SUNPOU
  5
1C264
 10
532.168
 20
56.7326
 30
0.000000
  70
    32
  0
VERTEX
  8
SUNPOU
  5
1C265
 10
532.966
 20
59.1739
 30
0.000000
  70
    32
  0
VERTEX
  8
SUNPOU
  5
1C266
 10
533.684
 20
61.5942
 30
0.000000
  70
    32
  0
VERTEX
  8
SUNPOU
  5
1C267
 10
534.322
 20
63.9877
 30
0.000000
  70
    32
  0
VERTEX
  8
SUNPOU
  5
1C268
 10
534.877
 20
66.3487
 30
0.000000
  70
    32
  0
VERTEX
  8
SUNPOU
  5
1C269
 10
535.348
 20
68.6715
 30
0.000000
  70
    32
  0
VERTEX
  8
SUNPOU
  5
1C26A
 10
535.735
 20
70.9505
 30
0.000000
  70
    32
  0
VERTEX
  8
SUNPOU
  5
1C26B
 10
536.036
 20
73.1801
 30
0.000000
  70
    32
  0
VERTEX
  8
SUNPOU
  5
1C26C
 10
536.250
 20
75.3551
 30
0.000000
  70
    32
  0
VERTEX
  8
SUNPOU
  5
1C26D
 10
536.377
 20
77.4701
 30
0.000000
  70
    32
  0
VERTEX
  8
SUNPOU
  5
1C26E
 10
536.418
 20
79.5201
 30
0.000000
  70
    32
  0
VERTEX
  8
SUNPOU
  5
1C26F
 10
536.370
 20
81.5002
 30
0.000000
  70
    32
  0
VERTEX
  8
SUNPOU
  5
1C270
 10
536.235
 20
83.4056
 30
0.000000
  70
    32
  0
VERTEX
  8
SUNPOU
  5
1C271
 10
536.014
 20
85.2316
 30
0.000000
  70
    32
  0
VERTEX
  8
SUNPOU
  5
1C272
 10
535.706
 20
86.9739
 30
0.000000
  70
    32
  0
VERTEX
  8
SUNPOU
  5
1C273
 10
535.312
 20
88.6283
 30
0.000000
  70
    32
  0
VERTEX
  8
SUNPOU
  5
1C274
 10
534.833
 20
90.1908
 30
0.000000
  70
    32
  0
VERTEX
  8
SUNPOU
  5
1C275
 10
534.271
 20
91.6577
 30
0.000000
  70
    32
  0
VERTEX
  8
SUNPOU
  5
1C276
 10
533.627
 20
93.0253
 30
0.000000
  70
    32
  0
VERTEX
  8
SUNPOU
  5
1C277
 10
532.902
 20
94.2905
 30
0.000000
  70
    32
  0
VERTEX
  8
SUNPOU
  5
1C278
 10
532.098
 20
95.4501
 30
0.000000
  70
    32
  0
VERTEX
  8
SUNPOU
  5
1C279
 10
531.217
 20
96.5014
 30
0.000000
  70
    32
  0
VERTEX
  8
SUNPOU
  5
1C27A
 10
530.261
 20
97.4418
 30
0.000000
  70
    32
  0
VERTEX
  8
SUNPOU
  5
1C27B
 10
529.232
 20
98.2691
 30
0.000000
  70
    32
  0
VERTEX
  8
SUNPOU
  5
1C27C
 10
528.134
 20
98.9813
 30
0.000000
  70
    32
  0
VERTEX
  8
SUNPOU
  5
1C27D
 10
526.968
 20
99.5766
 30
0.000000
  70
    32
  0
VERTEX
  8
SUNPOU
  5
1C27E
 10
525.737
 20
100.054
 30
0.000000
  70
    32
  0
VERTEX
  8
SUNPOU
  5
1C27F
 10
524.444
 20
100.411
 30
0.000000
  70
    32
  0
VERTEX
  8
SUNPOU
  5
1C280
 10
523.094
 20
100.649
 30
0.000000
  70
    32
  0
VERTEX
  8
SUNPOU
  5
1C281
 10
521.687
 20
100.765
 30
0.000000
  70
    32
  0
VERTEX
  8
SUNPOU
  5
1C282
 10
520.229
 20
100.761
 30
0.000000
  70
    32
  0
VERTEX
  8
SUNPOU
  5
1C283
 10
518.722
 20
100.635
 30
0.000000
  70
    32
  0
VERTEX
  8
SUNPOU
  5
1C284
 10
517.171
 20
100.388
 30
0.000000
  70
    32
  0
VERTEX
  8
SUNPOU
  5
1C285
 10
515.579
 20
100.021
 30
0.000000
  70
    32
  0
VERTEX
  8
SUNPOU
  5
1C286
 10
513.949
 20
99.5352
 30
0.000000
  70
    32
  0
VERTEX
  8
SUNPOU
  5
1C287
 10
512.286
 20
98.9308
 30
0.000000
  70
    32
  0
VERTEX
  8
SUNPOU
  5
1C288
 10
510.594
 20
98.2098
 30
0.000000
  70
    32
  0
VERTEX
  8
SUNPOU
  5
1C289
 10
508.876
 20
97.3738
 30
0.000000
  70
    32
  0
VERTEX
  8
SUNPOU
  5
1C28A
 10
507.138
 20
96.4248
 30
0.000000
  70
    32
  0
VERTEX
  8
SUNPOU
  5
1C28B
 10
505.382
 20
95.3651
 30
0.000000
  70
    32
  0
VERTEX
  8
SUNPOU
  5
1C28C
 10
503.614
 20
94.1973
 30
0.000000
  70
    32
  0
VERTEX
  8
SUNPOU
  5
1C28D
 10
501.838
 20
92.9242
 30
0.000000
  70
    32
  0
VERTEX
  8
SUNPOU
  5
1C28E
 10
500.058
 20
91.5488
 30
0.000000
  70
    32
  0
VERTEX
  8
SUNPOU
  5
1C28F
 10
498.277
 20
90.0745
 30
0.000000
  70
    32
  0
VERTEX
  8
SUNPOU
  5
1C290
 10
496.501
 20
88.5048
 30
0.000000
  70
    32
  0
VERTEX
  8
SUNPOU
  5
1C291
 10
494.734
 20
86.8436
 30
0.000000
  70
    32
  0
VERTEX
  8
SUNPOU
  5
1C292
 10
492.980
 20
85.0947
 30
0.000000
  70
    32
  0
VERTEX
  8
SUNPOU
  5
1C293
 10
491.243
 20
83.2624
 30
0.000000
  70
    32
  0
VERTEX
  8
SUNPOU
  5
1C294
 10
489.528
 20
81.3512
 30
0.000000
  70
    32
  0
VERTEX
  8
SUNPOU
  5
1C295
 10
487.838
 20
79.3656
 30
0.000000
  70
    32
  0
VERTEX
  8
SUNPOU
  5
1C296
 10
486.178
 20
77.3104
 30
0.000000
  70
    32
  0
VERTEX
  8
SUNPOU
  5
1C297
 10
484.551
 20
75.1906
 30
0.000000
  70
    32
  0
VERTEX
  8
SUNPOU
  5
1C298
 10
482.962
 20
73.0112
 30
0.000000
  70
    32
  0
VERTEX
  8
SUNPOU
  5
1C299
 10
481.414
 20
70.7776
 30
0.000000
  70
    32
  0
VERTEX
  8
SUNPOU
  5
1C29A
 10
479.911
 20
68.4951
 30
0.000000
  70
    32
  0
VERTEX
  8
SUNPOU
  5
1C29B
 10
478.457
 20
66.1692
 30
0.000000
  70
    32
  0
VERTEX
  8
SUNPOU
  5
1C29C
 10
477.056
 20
63.8055
 30
0.000000
  70
    32
  0
VERTEX
  8
SUNPOU
  5
1C29D
 10
475.710
 20
61.4097
 30
0.000000
  70
    32
  0
VERTEX
  8
SUNPOU
  5
1C29E
 10
474.422
 20
58.9876
 30
0.000000
  70
    32
  0
VERTEX
  8
SUNPOU
  5
1C29F
 10
473.197
 20
56.5450
 30
0.000000
  70
    32
  0
VERTEX
  8
SUNPOU
  5
1C2A0
 10
472.036
 20
54.0878
 30
0.000000
  70
    32
  0
VERTEX
  8
SUNPOU
  5
1C2A1
 10
470.944
 20
51.6219
 30
0.000000
  70
    32
  0
VERTEX
  8
SUNPOU
  5
1C2A2
 10
469.921
 20
49.1533
 30
0.000000
  70
    32
  0
VERTEX
  8
SUNPOU
  5
1C2A3
 10
468.971
 20
46.6878
 30
0.000000
  70
    32
  0
VERTEX
  8
SUNPOU
  5
1C2A4
 10
468.097
 20
44.2315
 30
0.000000
  70
    32
  0
VERTEX
  8
SUNPOU
  5
1C2A5
 10
467.299
 20
41.7903
 30
0.000000
  70
    32
  0
VERTEX
  8
SUNPOU
  5
1C2A6
 10
466.581
 20
39.3700
 30
0.000000
  70
    32
  0
VERTEX
  8
SUNPOU
  5
1C2A7
 10
465.943
 20
36.9764
 30
0.000000
  70
    32
  0
VERTEX
  8
SUNPOU
  5
1C2A8
 10
465.388
 20
34.6154
 30
0.000000
  70
    32
  0
VERTEX
  8
SUNPOU
  5
1C2A9
 10
464.917
 20
32.2926
 30
0.000000
  70
    32
  0
VERTEX
  8
SUNPOU
  5
1C2AA
 10
464.530
 20
30.0137
 30
0.000000
  70
    32
  0
VERTEX
  8
SUNPOU
  5
1C2AB
 10
464.229
 20
27.7840
 30
0.000000
  70
    32
  0
VERTEX
  8
SUNPOU
  5
1C2AC
 10
464.015
 20
25.6091
 30
0.000000
  70
    32
  0
VERTEX
  8
SUNPOU
  5
1C2AD
 10
463.888
 20
23.4940
 30
0.000000
  70
    32
  0
VERTEX
  8
SUNPOU
  5
1C2AE
 10
463.848
 20
21.4440
 30
0.000000
  70
    32
  0
VERTEX
  8
SUNPOU
  5
1C2AF
 10
463.895
 20
19.4639
 30
0.000000
  70
    32
  0
VERTEX
  8
SUNPOU
  5
1C2B0
 10
464.030
 20
17.5586
 30
0.000000
  70
    32
  0
VERTEX
  8
SUNPOU
  5
1C2B1
 10
464.251
 20
15.7326
 30
0.000000
  70
    32
  0
VERTEX
  8
SUNPOU
  5
1C2B2
 10
464.560
 20
13.9902
 30
0.000000
  70
    32
  0
VERTEX
  8
SUNPOU
  5
1C2B3
 10
464.953
 20
12.3358
 30
0.000000
  70
    32
  0
VERTEX
  8
SUNPOU
  5
1C2B4
 10
465.432
 20
10.7733
 30
0.000000
  70
    32
  0
VERTEX
  8
SUNPOU
  5
1C2B5
 10
465.994
 20
9.30649
 30
0.000000
  70
    32
  0
VERTEX
  8
SUNPOU
  5
1C2B6
 10
466.638
 20
7.93884
 30
0.000000
  70
    32
  0
VERTEX
  8
SUNPOU
  5
1C2B7
 10
467.364
 20
6.67368
 30
0.000000
  70
    32
  0
VERTEX
  8
SUNPOU
  5
1C2B8
 10
468.168
 20
5.51406
 30
0.000000
  70
    32
  0
VERTEX
  8
SUNPOU
  5
1C2B9
 10
469.049
 20
4.46277
 30
0.000000
  70
    32
  0
VERTEX
  8
SUNPOU
  5
1C2BA
 10
470.004
 20
3.52235
 30
0.000000
  70
    32
  0
VERTEX
  8
SUNPOU
  5
1C2BB
 10
471.033
 20
2.69505
 30
0.000000
  70
    32
  0
VERTEX
  8
SUNPOU
  5
1C2BC
 10
472.132
 20
1.98288
 30
0.000000
  70
    32
  0
SEQEND
  8
SUNPOU
  5
1C2BD
  0
POLYLINE
  5
1B11B
  8
SUNPOU
 10
534.39129128751358
 20
1.9828827908732833
 30
0.0
 66
     1
 70
     8
  0
VERTEX
  8
SUNPOU
  5
1C2BE
 10
534.391
 20
1.98288
 30
0.000000
  70
    32
  0
VERTEX
  8
SUNPOU
  5
1C2BF
 10
535.557
 20
1.38755
 30
0.000000
  70
    32
  0
VERTEX
  8
SUNPOU
  5
1C2C0
 10
536.788
 20
0.910493
 30
0.000000
  70
    32
  0
VERTEX
  8
SUNPOU
  5
1C2C1
 10
538.080
 20
0.552856
 30
0.000000
  70
    32
  0
VERTEX
  8
SUNPOU
  5
1C2C2
 10
539.431
 20
0.315504
 30
0.000000
  70
    32
  0
VERTEX
  8
SUNPOU
  5
1C2C3
 10
540.838
 20
0.199007
 30
0.000000
  70
    32
  0
VERTEX
  8
SUNPOU
  5
1C2C4
 10
542.296
 20
0.203647
 30
0.000000
  70
    32
  0
VERTEX
  8
SUNPOU
  5
1C2C5
 10
543.802
 20
0.329411
 30
0.000000
  70
    32
  0
VERTEX
  8
SUNPOU
  5
1C2C6
 10
545.354
 20
0.575998
 30
0.000000
  70
    32
  0
VERTEX
  8
SUNPOU
  5
1C2C7
 10
546.946
 20
0.942813
 30
0.000000
  70
    32
  0
VERTEX
  8
SUNPOU
  5
1C2C8
 10
548.576
 20
1.42897
 30
0.000000
  70
    32
  0
VERTEX
  8
SUNPOU
  5
1C2C9
 10
550.239
 20
2.03330
 30
0.000000
  70
    32
  0
VERTEX
  8
SUNPOU
  5
1C2CA
 10
551.931
 20
2.75435
 30
0.000000
  70
    32
  0
VERTEX
  8
SUNPOU
  5
1C2CB
 10
553.649
 20
3.59038
 30
0.000000
  70
    32
  0
VERTEX
  8
SUNPOU
  5
1C2CC
 10
555.387
 20
4.53938
 30
0.000000
  70
    32
  0
VERTEX
  8
SUNPOU
  5
1C2CD
 10
557.142
 20
5.59906
 30
0.000000
  70
    32
  0
VERTEX
  8
SUNPOU
  5
1C2CE
 10
558.910
 20
6.76686
 30
0.000000
  70
    32
  0
VERTEX
  8
SUNPOU
  5
1C2CF
 10
560.687
 20
8.03998
 30
0.000000
  70
    32
  0
VERTEX
  8
SUNPOU
  5
1C2D0
 10
562.467
 20
9.41534
 30
0.000000
  70
    32
  0
VERTEX
  8
SUNPOU
  5
1C2D1
 10
564.248
 20
10.8896
 30
0.000000
  70
    32
  0
VERTEX
  8
SUNPOU
  5
1C2D2
 10
566.024
 20
12.4593
 30
0.000000
  70
    32
  0
VERTEX
  8
SUNPOU
  5
1C2D3
 10
567.791
 20
14.1206
 30
0.000000
  70
    32
  0
VERTEX
  8
SUNPOU
  5
1C2D4
 10
569.545
 20
15.8695
 30
0.000000
  70
    32
  0
VERTEX
  8
SUNPOU
  5
1C2D5
 10
571.282
 20
17.7017
 30
0.000000
  70
    32
  0
VERTEX
  8
SUNPOU
  5
1C2D6
 10
572.997
 20
19.6130
 30
0.000000
  70
    32
  0
VERTEX
  8
SUNPOU
  5
1C2D7
 10
574.687
 20
21.5986
 30
0.000000
  70
    32
  0
VERTEX
  8
SUNPOU
  5
1C2D8
 10
576.347
 20
23.6537
 30
0.000000
  70
    32
  0
VERTEX
  8
SUNPOU
  5
1C2D9
 10
577.974
 20
25.7736
 30
0.000000
  70
    32
  0
VERTEX
  8
SUNPOU
  5
1C2DA
 10
579.563
 20
27.9529
 30
0.000000
  70
    32
  0
VERTEX
  8
SUNPOU
  5
1C2DB
 10
581.111
 20
30.1865
 30
0.000000
  70
    32
  0
VERTEX
  8
SUNPOU
  5
1C2DC
 10
582.614
 20
32.4690
 30
0.000000
  70
    32
  0
VERTEX
  8
SUNPOU
  5
1C2DD
 10
584.067
 20
34.7949
 30
0.000000
  70
    32
  0
VERTEX
  8
SUNPOU
  5
1C2DE
 10
585.469
 20
37.1586
 30
0.000000
  70
    32
  0
VERTEX
  8
SUNPOU
  5
1C2DF
 10
586.815
 20
39.5544
 30
0.000000
  70
    32
  0
VERTEX
  8
SUNPOU
  5
1C2E0
 10
588.103
 20
41.9765
 30
0.000000
  70
    32
  0
VERTEX
  8
SUNPOU
  5
1C2E1
 10
589.328
 20
44.4191
 30
0.000000
  70
    32
  0
VERTEX
  8
SUNPOU
  5
1C2E2
 10
590.489
 20
46.8763
 30
0.000000
  70
    32
  0
VERTEX
  8
SUNPOU
  5
1C2E3
 10
591.581
 20
49.3422
 30
0.000000
  70
    32
  0
VERTEX
  8
SUNPOU
  5
1C2E4
 10
592.604
 20
51.8109
 30
0.000000
  70
    32
  0
VERTEX
  8
SUNPOU
  5
1C2E5
 10
593.553
 20
54.2763
 30
0.000000
  70
    32
  0
VERTEX
  8
SUNPOU
  5
1C2E6
 10
594.428
 20
56.7326
 30
0.000000
  70
    32
  0
VERTEX
  8
SUNPOU
  5
1C2E7
 10
595.226
 20
59.1739
 30
0.000000
  70
    32
  0
VERTEX
  8
SUNPOU
  5
1C2E8
 10
595.944
 20
61.5942
 30
0.000000
  70
    32
  0
VERTEX
  8
SUNPOU
  5
1C2E9
 10
596.581
 20
63.9877
 30
0.000000
  70
    32
  0
VERTEX
  8
SUNPOU
  5
1C2EA
 10
597.137
 20
66.3487
 30
0.000000
  70
    32
  0
VERTEX
  8
SUNPOU
  5
1C2EB
 10
597.608
 20
68.6715
 30
0.000000
  70
    32
  0
VERTEX
  8
SUNPOU
  5
1C2EC
 10
597.995
 20
70.9505
 30
0.000000
  70
    32
  0
VERTEX
  8
SUNPOU
  5
1C2ED
 10
598.296
 20
73.1801
 30
0.000000
  70
    32
  0
VERTEX
  8
SUNPOU
  5
1C2EE
 10
598.510
 20
75.3551
 30
0.000000
  70
    32
  0
VERTEX
  8
SUNPOU
  5
1C2EF
 10
598.637
 20
77.4701
 30
0.000000
  70
    32
  0
VERTEX
  8
SUNPOU
  5
1C2F0
 10
598.677
 20
79.5201
 30
0.000000
  70
    32
  0
VERTEX
  8
SUNPOU
  5
1C2F1
 10
598.630
 20
81.5002
 30
0.000000
  70
    32
  0
VERTEX
  8
SUNPOU
  5
1C2F2
 10
598.495
 20
83.4056
 30
0.000000
  70
    32
  0
VERTEX
  8
SUNPOU
  5
1C2F3
 10
598.273
 20
85.2316
 30
0.000000
  70
    32
  0
VERTEX
  8
SUNPOU
  5
1C2F4
 10
597.965
 20
86.9739
 30
0.000000
  70
    32
  0
VERTEX
  8
SUNPOU
  5
1C2F5
 10
597.572
 20
88.6283
 30
0.000000
  70
    32
  0
VERTEX
  8
SUNPOU
  5
1C2F6
 10
597.093
 20
90.1908
 30
0.000000
  70
    32
  0
VERTEX
  8
SUNPOU
  5
1C2F7
 10
596.531
 20
91.6577
 30
0.000000
  70
    32
  0
VERTEX
  8
SUNPOU
  5
1C2F8
 10
595.886
 20
93.0253
 30
0.000000
  70
    32
  0
VERTEX
  8
SUNPOU
  5
1C2F9
 10
595.161
 20
94.2905
 30
0.000000
  70
    32
  0
VERTEX
  8
SUNPOU
  5
1C2FA
 10
594.357
 20
95.4501
 30
0.000000
  70
    32
  0
VERTEX
  8
SUNPOU
  5
1C2FB
 10
593.476
 20
96.5014
 30
0.000000
  70
    32
  0
VERTEX
  8
SUNPOU
  5
1C2FC
 10
592.520
 20
97.4418
 30
0.000000
  70
    32
  0
VERTEX
  8
SUNPOU
  5
1C2FD
 10
591.492
 20
98.2691
 30
0.000000
  70
    32
  0
VERTEX
  8
SUNPOU
  5
1C2FE
 10
590.393
 20
98.9813
 30
0.000000
  70
    32
  0
VERTEX
  8
SUNPOU
  5
1C2FF
 10
589.227
 20
99.5766
 30
0.000000
  70
    32
  0
VERTEX
  8
SUNPOU
  5
1C300
 10
587.997
 20
100.054
 30
0.000000
  70
    32
  0
VERTEX
  8
SUNPOU
  5
1C301
 10
586.704
 20
100.411
 30
0.000000
  70
    32
  0
VERTEX
  8
SUNPOU
  5
1C302
 10
585.353
 20
100.649
 30
0.000000
  70
    32
  0
VERTEX
  8
SUNPOU
  5
1C303
 10
583.947
 20
100.765
 30
0.000000
  70
    32
  0
VERTEX
  8
SUNPOU
  5
1C304
 10
582.489
 20
100.761
 30
0.000000
  70
    32
  0
VERTEX
  8
SUNPOU
  5
1C305
 10
580.982
 20
100.635
 30
0.000000
  70
    32
  0
VERTEX
  8
SUNPOU
  5
1C306
 10
579.431
 20
100.388
 30
0.000000
  70
    32
  0
VERTEX
  8
SUNPOU
  5
1C307
 10
577.838
 20
100.021
 30
0.000000
  70
    32
  0
VERTEX
  8
SUNPOU
  5
1C308
 10
576.209
 20
99.5352
 30
0.000000
  70
    32
  0
VERTEX
  8
SUNPOU
  5
1C309
 10
574.546
 20
98.9308
 30
0.000000
  70
    32
  0
VERTEX
  8
SUNPOU
  5
1C30A
 10
572.853
 20
98.2098
 30
0.000000
  70
    32
  0
VERTEX
  8
SUNPOU
  5
1C30B
 10
571.136
 20
97.3738
 30
0.000000
  70
    32
  0
VERTEX
  8
SUNPOU
  5
1C30C
 10
569.398
 20
96.4248
 30
0.000000
  70
    32
  0
VERTEX
  8
SUNPOU
  5
1C30D
 10
567.642
 20
95.3651
 30
0.000000
  70
    32
  0
VERTEX
  8
SUNPOU
  5
1C30E
 10
565.874
 20
94.1973
 30
0.000000
  70
    32
  0
VERTEX
  8
SUNPOU
  5
1C30F
 10
564.098
 20
92.9242
 30
0.000000
  70
    32
  0
VERTEX
  8
SUNPOU
  5
1C310
 10
562.317
 20
91.5488
 30
0.000000
  70
    32
  0
VERTEX
  8
SUNPOU
  5
1C311
 10
560.537
 20
90.0745
 30
0.000000
  70
    32
  0
VERTEX
  8
SUNPOU
  5
1C312
 10
558.761
 20
88.5048
 30
0.000000
  70
    32
  0
VERTEX
  8
SUNPOU
  5
1C313
 10
556.994
 20
86.8436
 30
0.000000
  70
    32
  0
VERTEX
  8
SUNPOU
  5
1C314
 10
555.240
 20
85.0947
 30
0.000000
  70
    32
  0
VERTEX
  8
SUNPOU
  5
1C315
 10
553.503
 20
83.2624
 30
0.000000
  70
    32
  0
VERTEX
  8
SUNPOU
  5
1C316
 10
551.788
 20
81.3512
 30
0.000000
  70
    32
  0
VERTEX
  8
SUNPOU
  5
1C317
 10
550.098
 20
79.3656
 30
0.000000
  70
    32
  0
VERTEX
  8
SUNPOU
  5
1C318
 10
548.437
 20
77.3104
 30
0.000000
  70
    32
  0
VERTEX
  8
SUNPOU
  5
1C319
 10
546.811
 20
75.1906
 30
0.000000
  70
    32
  0
VERTEX
  8
SUNPOU
  5
1C31A
 10
545.222
 20
73.0112
 30
0.000000
  70
    32
  0
VERTEX
  8
SUNPOU
  5
1C31B
 10
543.674
 20
70.7776
 30
0.000000
  70
    32
  0
VERTEX
  8
SUNPOU
  5
1C31C
 10
542.171
 20
68.4951
 30
0.000000
  70
    32
  0
VERTEX
  8
SUNPOU
  5
1C31D
 10
540.717
 20
66.1692
 30
0.000000
  70
    32
  0
VERTEX
  8
SUNPOU
  5
1C31E
 10
539.315
 20
63.8055
 30
0.000000
  70
    32
  0
VERTEX
  8
SUNPOU
  5
1C31F
 10
537.969
 20
61.4097
 30
0.000000
  70
    32
  0
VERTEX
  8
SUNPOU
  5
1C320
 10
536.682
 20
58.9876
 30
0.000000
  70
    32
  0
VERTEX
  8
SUNPOU
  5
1C321
 10
535.457
 20
56.5450
 30
0.000000
  70
    32
  0
VERTEX
  8
SUNPOU
  5
1C322
 10
534.296
 20
54.0878
 30
0.000000
  70
    32
  0
VERTEX
  8
SUNPOU
  5
1C323
 10
533.203
 20
51.6219
 30
0.000000
  70
    32
  0
VERTEX
  8
SUNPOU
  5
1C324
 10
532.181
 20
49.1533
 30
0.000000
  70
    32
  0
VERTEX
  8
SUNPOU
  5
1C325
 10
531.231
 20
46.6878
 30
0.000000
  70
    32
  0
VERTEX
  8
SUNPOU
  5
1C326
 10
530.357
 20
44.2315
 30
0.000000
  70
    32
  0
VERTEX
  8
SUNPOU
  5
1C327
 10
529.559
 20
41.7903
 30
0.000000
  70
    32
  0
VERTEX
  8
SUNPOU
  5
1C328
 10
528.841
 20
39.3700
 30
0.000000
  70
    32
  0
VERTEX
  8
SUNPOU
  5
1C329
 10
528.203
 20
36.9764
 30
0.000000
  70
    32
  0
VERTEX
  8
SUNPOU
  5
1C32A
 10
527.648
 20
34.6154
 30
0.000000
  70
    32
  0
VERTEX
  8
SUNPOU
  5
1C32B
 10
527.177
 20
32.2926
 30
0.000000
  70
    32
  0
VERTEX
  8
SUNPOU
  5
1C32C
 10
526.790
 20
30.0137
 30
0.000000
  70
    32
  0
VERTEX
  8
SUNPOU
  5
1C32D
 10
526.489
 20
27.7840
 30
0.000000
  70
    32
  0
VERTEX
  8
SUNPOU
  5
1C32E
 10
526.275
 20
25.6091
 30
0.000000
  70
    32
  0
VERTEX
  8
SUNPOU
  5
1C32F
 10
526.147
 20
23.4940
 30
0.000000
  70
    32
  0
VERTEX
  8
SUNPOU
  5
1C330
 10
526.107
 20
21.4440
 30
0.000000
  70
    32
  0
VERTEX
  8
SUNPOU
  5
1C331
 10
526.155
 20
19.4639
 30
0.000000
  70
    32
  0
VERTEX
  8
SUNPOU
  5
1C332
 10
526.289
 20
17.5586
 30
0.000000
  70
    32
  0
VERTEX
  8
SUNPOU
  5
1C333
 10
526.511
 20
15.7326
 30
0.000000
  70
    32
  0
VERTEX
  8
SUNPOU
  5
1C334
 10
526.819
 20
13.9902
 30
0.000000
  70
    32
  0
VERTEX
  8
SUNPOU
  5
1C335
 10
527.213
 20
12.3358
 30
0.000000
  70
    32
  0
VERTEX
  8
SUNPOU
  5
1C336
 10
527.692
 20
10.7733
 30
0.000000
  70
    32
  0
VERTEX
  8
SUNPOU
  5
1C337
 10
528.254
 20
9.30649
 30
0.000000
  70
    32
  0
VERTEX
  8
SUNPOU
  5
1C338
 10
528.898
 20
7.93884
 30
0.000000
  70
    32
  0
VERTEX
  8
SUNPOU
  5
1C339
 10
529.623
 20
6.67368
 30
0.000000
  70
    32
  0
VERTEX
  8
SUNPOU
  5
1C33A
 10
530.427
 20
5.51406
 30
0.000000
  70
    32
  0
VERTEX
  8
SUNPOU
  5
1C33B
 10
531.308
 20
4.46277
 30
0.000000
  70
    32
  0
VERTEX
  8
SUNPOU
  5
1C33C
 10
532.264
 20
3.52235
 30
0.000000
  70
    32
  0
VERTEX
  8
SUNPOU
  5
1C33D
 10
533.293
 20
2.69505
 30
0.000000
  70
    32
  0
VERTEX
  8
SUNPOU
  5
1C33E
 10
534.391
 20
1.98288
 30
0.000000
  70
    32
  0
SEQEND
  8
SUNPOU
  5
1C33F
  0
ENDBLK
  5
1B11E
  8
0
  0
BLOCK
  8
0
  2
A$C2B784434
 70
     0
 10
0.0
 20
0.0
 30
0.0
  3
A$C2B784434
  1

  0
LINE
  5
1B18F
  8
MOJI
 10
637.69559560371135
 20
53.31465156467425
 30
0.0
 11
0.0000022009426175
 21
53.314651564673802
 31
0.0
  0
TEXT
  5
1B190
  8
MOJI
 10
60.510485518729183
 20
-0.0000023132927254
 30
0.0
 40
30.0
  1
※サイン板面は反射シート仕様とする。
 41
0.8
  7
EXT08
  0
ENDBLK
  5
1B194
  8
0
  0
BLOCK
  8
0
  2
*D24
 70
     1
 10
0.0
 20
0.0
 30
0.0
  3
*D24
  1

  0
LINE
  5
1C21D
  8
SUNPOU
 62
     0
 10
1464.363214879633
 20
1787.5888987645401
 30
0.0
 11
1751.095408586493
 21
1787.5888987645401
 31
0.0
  0
LINE
  5
1C21E
  8
SUNPOU
 62
     0
 10
1626.8632148796351
 20
387.58889876454123
 30
0.0
 11
1751.0954085864921
 21
387.58889876454123
 31
0.0
  0
LINE
  5
1C21F
  8
SUNPOU
 62
     0
 10
1741.0954085864921
 20
1767.5888987645401
 30
0.0
 11
1741.0954085864921
 21
407.58889876454111
 31
0.0
  0
SOLID
  5
1C220
  8
SUNPOU
 62
     0
 10
1737.7620752531591
 20
1767.5888987645401
 30
0.0
 11
1744.4287419198261
 21
1767.5888987645401
 31
0.0
 12
1741.0954085864921
 22
1787.5888987645401
 32
0.0
 13
1741.0954085864921
 23
1787.5888987645401
 33
0.0
  0
SOLID
  5
1C221
  8
SUNPOU
 62
     0
 10
1737.7620752531591
 20
407.58889876454111
 30
0.0
 11
1744.4287419198249
 21
407.58889876454111
 31
0.0
 12
1741.0954085864921
 22
387.58889876454123
 32
0.0
 13
1741.0954085864921
 23
387.58889876454123
 33
0.0
  0
TEXT
  8
SUNPOU
  40
30
  5
1C340
  62
0
  72
0
  71
0
 10
1654.10
 20
1034.49
 30
0.000000
  1
1400
  7
EXT08
  0
POINT
  5
1C223
  8
DEFPOINTS
 62
     0
 10
1454.3632148796321
 20
1787.5888987645401
 30
0.0
  0
POINT
  5
1C224
  8
DEFPOINTS
 62
     0
 10
1616.8632148796351
 20
387.58889876454123
 30
0.0
  0
POINT
  5
1C225
  8
DEFPOINTS
 62
     0
 10
1741.0954085864921
 20
387.58889876454123
 30
0.0
  0
ENDBLK
  5
1B810
  8
0
  0
BLOCK
  8
0
  2
*U25
 70
     1
 10
0.0
 20
0.0
 30
0.0
  3
*U25
  1

  0
SOLID
  5
1C0CF
  8
SUNPOU
 10
1448.5425803044591
 20
2353.9192129460771
 30
0.0
 11
1429.8085583508339
 21
2346.1637289152632
 31
0.0
 12
1445.014638351026
 22
2359.5758966050462
 32
0.0
 13
1445.014638351026
 23
2359.5758966050462
 33
0.0
  0
POLYLINE
  5
1C0D0
  8
SUNPOU
 66
     1
 10
0.0
 20
0.0
 30
0.0
  0
VERTEX
  5
1C0D1
  8
SUNPOU
 10
1446.778609327743
 20
2356.7475547755621
 30
0.0
  0
VERTEX
  5
1C0D2
  8
SUNPOU
 10
1528.517222797858
 20
2407.7260257422781
 30
0.0
  0
SEQEND
  5
1C0D3
  8
SUNPOU
  0
ENDBLK
  5
1C0D5
  8
0
  0
BLOCK
  8
0
  2
*U26
 70
     1
 10
0.0
 20
0.0
 30
0.0
  3
*U26
  1

  0
SOLID
  5
1C0D7
  8
SUNPOU
 10
780.95231868465669
 20
2061.2458907824489
 30
0.0
 11
762.44104751581995
 21
2052.9728048512561
 31
0.0
 12
777.26854642757598
 22
2066.8023524625478
 32
0.0
 13
777.26854642757598
 23
2066.8023524625478
 33
0.0
  0
POLYLINE
  5
1C0D8
  8
SUNPOU
 66
     1
 10
0.0
 20
0.0
 30
0.0
  0
VERTEX
  5
1C0D9
  8
SUNPOU
 10
779.11043255611639
 20
2064.024121622499
 30
0.0
  0
VERTEX
  5
1C0DA
  8
SUNPOU
 10
872.23297456189812
 20
2125.7616546965392
 30
0.0
  0
SEQEND
  5
1C0DB
  8
SUNPOU
  0
ENDBLK
  5
1C0DD
  8
0
  0
BLOCK
  8
0
  2
*U27
 70
     1
 10
0.0
 20
0.0
 30
0.0
  3
*U27
  1

  0
SOLID
  5
1C10C
  8
SUNPOU
 10
2160.029281255765
 20
1993.401335608175
 30
0.0
 11
2147.722948157978
 21
1977.2872027802059
 31
0.0
 12
2154.137868819786
 22
1996.5215445681081
 32
0.0
 13
2154.137868819786
 23
1996.5215445681081
 33
0.0
  0
POLYLINE
  5
1C10D
  8
SUNPOU
 66
     1
 10
0.0
 20
0.0
 30
0.0
  0
VERTEX
  5
1C10E
  8
SUNPOU
 10
2157.0835750377751
 20
1994.961440088141
 30
0.0
  0
VERTEX
  5
1C10F
  8
SUNPOU
 10
2185.3769961024441
 20
2048.3835713803919
 30
0.0
  0
VERTEX
  5
1C110
  8
SUNPOU
 10
2391.0662789568469
 20
2048.3835713803919
 30
0.0
  0
SEQEND
  5
1C111
  8
SUNPOU
  0
ENDBLK
  5
1C113
  8
0
  0
BLOCK
  8
0
  2
*U28
 70
     1
 10
0.0
 20
0.0
 30
0.0
  3
*U28
  1

  0
SOLID
  5
1C115
  8
SUNPOU
 10
2045.407054553993
 20
1931.8842896966801
 30
0.0
 11
2049.6431739937002
 21
1912.0558655736279
 31
0.0
 12
2039.205193727041
 22
1929.4386064122859
 32
0.0
 13
2039.205193727041
 23
1929.4386064122859
 33
0.0
  0
POLYLINE
  5
1C116
  8
SUNPOU
 66
     1
 10
0.0
 20
0.0
 30
0.0
  0
VERTEX
  5
1C117
  8
SUNPOU
 10
2042.3061241405171
 20
1930.6614480544829
 30
0.0
  0
VERTEX
  5
1C118
  8
SUNPOU
 10
2007.920243499155
 20
2017.8585301585681
 30
0.0
  0
VERTEX
  5
1C119
  8
SUNPOU
 10
1860.2007199658569
 20
2017.8585301585681
 30
0.0
  0
SEQEND
  5
1C11A
  8
SUNPOU
  0
ENDBLK
  5
1C11C
  8
0
  0
BLOCK
  8
0
  2
*U29
 70
     1
 10
0.0
 20
0.0
 30
0.0
  3
*U29
  1

  0
SOLID
  5
1C146
  8
SUNPOU
 10
703.64269115791626
 20
1459.8629999366931
 30
0.0
 11
687.64738174554054
 21
1447.402615194902
 31
0.0
 12
698.73687397612571
 22
1464.3771335438539
 32
0.0
 13
698.73687397612571
 23
1464.3771335438539
 33
0.0
  0
POLYLINE
  5
1C147
  8
SUNPOU
 66
     1
 10
0.0
 20
0.0
 30
0.0
  0
VERTEX
  5
1C148
  8
SUNPOU
 10
701.18978256702087
 20
1462.1200667402729
 30
0.0
  0
VERTEX
  5
1C149
  8
SUNPOU
 10
753.49609912364997
 20
1518.9649120219169
 30
0.0
  0
SEQEND
  5
1C14A
  8
SUNPOU
  0
ENDBLK
  5
1C14C
  8
0
  0
BLOCK
  8
0
  2
*U30
 70
     1
 10
0.0
 20
0.0
 30
0.0
  3
*U30
  1

  0
SOLID
  5
1C14E
  8
SUNPOU
 10
1479.2767206686699
 20
2295.000088448005
 30
0.0
 11
1460.4551252960571
 21
2302.540556519732
 31
0.0
 12
1480.704894347467
 22
2301.5119825186762
 32
0.0
 13
1480.704894347467
 23
2301.5119825186762
 33
0.0
  0
POLYLINE
  5
1C14F
  8
SUNPOU
 66
     1
 10
0.0
 20
0.0
 30
0.0
  0
VERTEX
  5
1C150
  8
SUNPOU
 10
1479.9908075080691
 20
2298.2560354833408
 30
0.0
  0
VERTEX
  5
1C151
  8
SUNPOU
 10
1559.163789743081
 20
2280.8919985268421
 30
0.0
  0
SEQEND
  5
1C152
  8
SUNPOU
  0
ENDBLK
  5
1C154
  8
0
  0
BLOCK
  8
0
  2
*U31
 70
     1
 10
0.0
 20
0.0
 30
0.0
  3
*U31
  1

  0
SOLID
  5
1C156
  8
SUNPOU
 10
703.64269115791626
 20
900.04928350633327
 30
0.0
 11
687.64738174554054
 21
887.58889876454168
 31
0.0
 12
698.73687397612571
 22
904.56341711349353
 32
0.0
 13
698.73687397612571
 23
904.56341711349353
 33
0.0
  0
POLYLINE
  5
1C157
  8
SUNPOU
 66
     1
 10
0.0
 20
0.0
 30
0.0
  0
VERTEX
  5
1C158
  8
SUNPOU
 10
701.18978256702087
 20
902.30635030991346
 30
0.0
  0
VERTEX
  5
1C159
  8
SUNPOU
 10
753.49609912364997
 20
959.1511955915571
 30
0.0
  0
SEQEND
  5
1C15A
  8
SUNPOU
  0
ENDBLK
  5
1C15C
  8
0
  0
BLOCK
  8
0
  2
*U32
 70
     1
 10
0.0
 20
0.0
 30
0.0
  3
*U32
  1

  0
SOLID
  5
1C167
  8
SUNPOU
 10
681.15187428380386
 20
661.29617587311645
 30
0.0
 11
687.64738174554077
 21
642.08889876454032
 31
0.0
 12
675.27359562490017
 22
658.15129360938693
 32
0.0
 13
675.27359562490017
 23
658.15129360938693
 33
0.0
  0
POLYLINE
  5
1C168
  8
SUNPOU
 66
     1
 10
0.0
 20
0.0
 30
0.0
  0
VERTEX
  5
1C169
  8
SUNPOU
 10
678.21273495435207
 20
659.72373474125163
 30
0.0
  0
VERTEX
  5
1C16A
  8
SUNPOU
 10
556.89700559416815
 20
886.48187799893014
 30
0.0
  0
SEQEND
  5
1C16B
  8
SUNPOU
  0
ENDBLK
  5
1C16D
  8
0
  0
BLOCK
  8
0
  2
*U33
 70
     1
 10
0.0
 20
0.0
 30
0.0
  3
*U33
  1

  0
SOLID
  5
1C16F
  8
SUNPOU
 10
2901.3918680063548
 20
1402.80310388612
 30
0.0
 11
2881.879462544654
 21
1397.291557441675
 31
0.0
 12
2898.549614810227
 22
1408.833530173999
 32
0.0
 13
2898.549614810227
 23
1408.833530173999
 33
0.0
  0
POLYLINE
  5
1C170
  8
SUNPOU
 66
     1
 10
0.0
 20
0.0
 30
0.0
  0
VERTEX
  5
1C171
  8
SUNPOU
 10
2899.9707414082909
 20
1405.8183170300599
 30
0.0
  0
VERTEX
  5
1C172
  8
SUNPOU
 10
3019.415015896534
 20
1462.1146474579371
 30
0.0
  0
SEQEND
  5
1C173
  8
SUNPOU
  0
ENDBLK
  5
1C175
  8
0
  0
BLOCK
  8
0
  2
*X34
 70
     1
 10
0.0
 20
0.0
 30
0.0
  3
*X34
  1

  0
LINE
  5
1C189
  8
0
 62
     0
 10
2969.478662656893
 20
1502.6888856355449
 30
0.0
 11
2955.6603697556311
 21
1516.507178536807
 31
0.0
  0
LINE
  5
1C18A
  8
0
 62
     0
 10
2969.478662656893
 20
1484.7283733934071
 30
0.0
 11
2937.699857513493
 21
1516.507178536807
 31
0.0
  0
LINE
  5
1C18B
  8
0
 62
     0
 10
2969.478662656893
 20
1466.767861151269
 30
0.0
 11
2919.7393452713541
 21
1516.507178536807
 31
0.0
  0
LINE
  5
1C18C
  8
0
 62
     0
 10
2969.478662656893
 20
1448.80734890913
 30
0.0
 11
2901.778833029216
 21
1516.507178536807
 31
0.0
  0
LINE
  5
1C18D
  8
0
 62
     0
 10
2963.8183207870788
 20
1436.507178536805
 30
0.0
 11
2883.8183207870779
 21
1516.507178536807
 31
0.0
  0
LINE
  5
1C18E
  8
0
 62
     0
 10
2945.8578085449408
 20
1436.507178536805
 30
0.0
 11
2865.857808544939
 21
1516.507178536807
 31
0.0
  0
LINE
  5
1C18F
  8
0
 62
     0
 10
2927.8972963028032
 20
1436.507178536805
 30
0.0
 11
2847.8972963028018
 21
1516.507178536807
 31
0.0
  0
LINE
  5
1C190
  8
0
 62
     0
 10
2909.9367840606651
 20
1436.507178536805
 30
0.0
 11
2829.9367840606628
 21
1516.507178536807
 31
0.0
  0
LINE
  5
1C191
  8
0
 62
     0
 10
2891.9762718185261
 20
1436.507178536805
 30
0.0
 11
2811.9762718185239
 21
1516.507178536807
 31
0.0
  0
LINE
  5
1C192
  8
0
 62
     0
 10
2874.015759576389
 20
1436.507178536805
 30
0.0
 11
2794.4786626568898
 21
1516.044275456303
 31
0.0
  0
LINE
  5
1C193
  8
0
 62
     0
 10
2856.05524733425
 20
1436.507178536805
 30
0.0
 11
2794.4786626568898
 21
1498.0837632141649
 31
0.0
  0
LINE
  5
1C194
  8
0
 62
     0
 10
2838.094735092111
 20
1436.507178536805
 30
0.0
 11
2794.4786626568912
 21
1480.1232509720251
 31
0.0
  0
LINE
  5
1C195
  8
0
 62
     0
 10
2820.1342228499739
 20
1436.507178536805
 30
0.0
 11
2794.4786626568921
 21
1462.1627387298861
 31
0.0
  0
LINE
  5
1C196
  8
0
 62
     0
 10
2802.1737106078349
 20
1436.507178536805
 30
0.0
 11
2794.478662656893
 21
1444.202226487748
 31
0.0
  0
LINE
  5
1C197
  8
0
 62
     0
 10
2963.1507191185619
 20
1436.507178536805
 30
0.0
 11
2969.478662656893
 21
1442.835122075137
 31
0.0
  0
LINE
  5
1C198
  8
0
 62
     0
 10
2945.1902068764239
 20
1436.507178536805
 30
0.0
 11
2969.478662656893
 21
1460.795634317275
 31
0.0
  0
LINE
  5
1C199
  8
0
 62
     0
 10
2927.2296946342858
 20
1436.507178536805
 30
0.0
 11
2969.478662656893
 21
1478.7561465594131
 31
0.0
  0
LINE
  5
1C19A
  8
0
 62
     0
 10
2909.2691823921468
 20
1436.507178536805
 30
0.0
 11
2969.478662656893
 21
1496.7166588015509
 31
0.0
  0
LINE
  5
1C19B
  8
0
 62
     0
 10
2891.3086701500092
 20
1436.507178536805
 30
0.0
 11
2969.478662656893
 21
1514.6771710436899
 31
0.0
  0
LINE
  5
1C19C
  8
0
 62
     0
 10
2873.3481579078698
 20
1436.507178536805
 30
0.0
 11
2953.3481579078721
 21
1516.507178536807
 31
0.0
  0
LINE
  5
1C19D
  8
0
 62
     0
 10
2855.3876456657322
 20
1436.507178536805
 30
0.0
 11
2935.387645665734
 21
1516.507178536807
 31
0.0
  0
LINE
  5
1C19E
  8
0
 62
     0
 10
2837.4271334235941
 20
1436.507178536805
 30
0.0
 11
2917.4271334235959
 21
1516.507178536807
 31
0.0
  0
LINE
  5
1C19F
  8
0
 62
     0
 10
2819.4666211814551
 20
1436.507178536805
 30
0.0
 11
2899.466621181457
 21
1516.507178536807
 31
0.0
  0
LINE
  5
1C1A0
  8
0
 62
     0
 10
2801.5061089393171
 20
1436.507178536805
 30
0.0
 11
2881.5061089393189
 21
1516.507178536807
 31
0.0
  0
LINE
  5
1C1A1
  8
0
 62
     0
 10
2794.478662656893
 20
1447.440244496519
 30
0.0
 11
2863.5455966971808
 21
1516.507178536807
 31
0.0
  0
LINE
  5
1C1A2
  8
0
 62
     0
 10
2794.4786626568921
 20
1465.400756738657
 30
0.0
 11
2845.5850844550419
 21
1516.507178536807
 31
0.0
  0
LINE
  5
1C1A3
  8
0
 62
     0
 10
2794.4786626568912
 20
1483.361268980794
 30
0.0
 11
2827.6245722129038
 21
1516.507178536807
 31
0.0
  0
LINE
  5
1C1A4
  8
0
 62
     0
 10
2794.4786626568912
 20
1501.321781222932
 30
0.0
 11
2809.6640599707662
 21
1516.507178536807
 31
0.0
  0
ENDBLK
  5
1C1A6
  8
0
  0
BLOCK
  8
0
  2
*X35
 70
     1
 10
0.0
 20
0.0
 30
0.0
  3
*X35
  1

  0
LINE
  5
1C1A8
  8
0
 62
     0
 10
2217.3293558282348
 20
1502.6888856355449
 30
0.0
 11
2203.511062926973
 21
1516.507178536807
 31
0.0
  0
LINE
  5
1C1A9
  8
0
 62
     0
 10
2217.3293558282348
 20
1484.7283733934071
 30
0.0
 11
2185.5505506848349
 21
1516.507178536807
 31
0.0
  0
LINE
  5
1C1AA
  8
0
 62
     0
 10
2217.3293558282348
 20
1466.767861151269
 30
0.0
 11
2167.5900384426968
 21
1516.507178536807
 31
0.0
  0
LINE
  5
1C1AB
  8
0
 62
     0
 10
2217.3293558282348
 20
1448.80734890913
 30
0.0
 11
2149.6295262005578
 21
1516.507178536807
 31
0.0
  0
LINE
  5
1C1AC
  8
0
 62
     0
 10
2211.6690139584211
 20
1436.507178536805
 30
0.0
 11
2131.6690139584198
 21
1516.507178536807
 31
0.0
  0
LINE
  5
1C1AD
  8
0
 62
     0
 10
2193.7085017162831
 20
1436.507178536805
 30
0.0
 11
2113.7085017162822
 21
1516.507178536807
 31
0.0
  0
LINE
  5
1C1AE
  8
0
 62
     0
 10
2175.747989474145
 20
1436.507178536805
 30
0.0
 11
2095.7479894741432
 21
1516.507178536807
 31
0.0
  0
LINE
  5
1C1AF
  8
0
 62
     0
 10
2157.7874772320069
 20
1436.507178536805
 30
0.0
 11
2077.7874772320051
 21
1516.507178536807
 31
0.0
  0
LINE
  5
1C1B0
  8
0
 62
     0
 10
2139.826964989868
 20
1436.507178536805
 30
0.0
 11
2059.8269649898662
 21
1516.507178536807
 31
0.0
  0
LINE
  5
1C1B1
  8
0
 62
     0
 10
2121.8664527477308
 20
1436.507178536805
 30
0.0
 11
2042.3293558282321
 21
1516.044275456303
 31
0.0
  0
LINE
  5
1C1B2
  8
0
 62
     0
 10
2103.9059405055918
 20
1436.507178536805
 30
0.0
 11
2042.3293558282321
 21
1498.083763214164
 31
0.0
  0
LINE
  5
1C1B3
  8
0
 62
     0
 10
2085.9454282634529
 20
1436.507178536805
 30
0.0
 11
2042.329355828233
 21
1480.1232509720251
 31
0.0
  0
LINE
  5
1C1B4
  8
0
 62
     0
 10
2067.9849160213148
 20
1436.507178536805
 30
0.0
 11
2042.3293558282339
 21
1462.1627387298861
 31
0.0
  0
LINE
  5
1C1B5
  8
0
 62
     0
 10
2050.0244037791772
 20
1436.507178536805
 30
0.0
 11
2042.3293558282339
 21
1444.2022264877471
 31
0.0
  0
LINE
  5
1C1B6
  8
0
 62
     0
 10
2211.0014122899029
 20
1436.507178536805
 30
0.0
 11
2217.3293558282348
 21
1442.835122075137
 31
0.0
  0
LINE
  5
1C1B7
  8
0
 62
     0
 10
2193.0409000477648
 20
1436.507178536805
 30
0.0
 11
2217.3293558282348
 21
1460.795634317275
 31
0.0
  0
LINE
  5
1C1B8
  8
0
 62
     0
 10
2175.0803878056272
 20
1436.507178536805
 30
0.0
 11
2217.3293558282348
 21
1478.7561465594131
 31
0.0
  0
LINE
  5
1C1B9
  8
0
 62
     0
 10
2157.1198755634891
 20
1436.507178536805
 30
0.0
 11
2217.3293558282348
 21
1496.7166588015509
 31
0.0
  0
LINE
  5
1C1BA
  8
0
 62
     0
 10
2139.1593633213511
 20
1436.507178536805
 30
0.0
 11
2217.3293558282348
 21
1514.6771710436899
 31
0.0
  0
LINE
  5
1C1BB
  8
0
 62
     0
 10
2121.1988510792121
 20
1436.507178536805
 30
0.0
 11
2201.1988510792139
 21
1516.507178536807
 31
0.0
  0
LINE
  5
1C1BC
  8
0
 62
     0
 10
2103.238338837074
 20
1436.507178536805
 30
0.0
 11
2183.2383388370758
 21
1516.507178536807
 31
0.0
  0
LINE
  5
1C1BD
  8
0
 62
     0
 10
2085.277826594936
 20
1436.507178536805
 30
0.0
 11
2165.2778265949369
 21
1516.507178536807
 31
0.0
  0
LINE
  5
1C1BE
  8
0
 62
     0
 10
2067.317314352797
 20
1436.507178536805
 30
0.0
 11
2147.3173143527988
 21
1516.507178536807
 31
0.0
  0
LINE
  5
1C1BF
  8
0
 62
     0
 10
2049.3568021106589
 20
1436.507178536805
 30
0.0
 11
2129.3568021106612
 21
1516.507178536807
 31
0.0
  0
LINE
  5
1C1C0
  8
0
 62
     0
 10
2042.3293558282339
 20
1447.440244496519
 30
0.0
 11
2111.3962898685231
 21
1516.507178536807
 31
0.0
  0
LINE
  5
1C1C1
  8
0
 62
     0
 10
2042.3293558282339
 20
1465.400756738657
 30
0.0
 11
2093.4357776263842
 21
1516.507178536807
 31
0.0
  0
LINE
  5
1C1C2
  8
0
 62
     0
 10
2042.329355828233
 20
1483.361268980794
 30
0.0
 11
2075.4752653842461
 21
1516.507178536807
 31
0.0
  0
LINE
  5
1C1C3
  8
0
 62
     0
 10
2042.329355828233
 20
1501.321781222932
 30
0.0
 11
2057.514753142108
 21
1516.507178536807
 31
0.0
  0
ENDBLK
  5
1C1C5
  8
0
  0
BLOCK
  8
0
  2
*X36
 70
     1
 10
0.0
 20
0.0
 30
0.0
  3
*X36
  1

  0
LINE
  5
1C1C7
  8
0
 62
     0
 10
1460.6132148796339
 20
2320.0746120904791
 30
0.0
 11
1453.0989282055709
 21
2327.5888987645421
 31
0.0
  0
LINE
  5
1C1C8
  8
0
 62
     0
 10
1460.6132148796351
 20
2311.0943559694101
 30
0.0
 11
1444.1186720845019
 21
2327.5888987645421
 31
0.0
  0
LINE
  5
1C1C9
  8
0
 62
     0
 10
1460.6132148796339
 20
2302.1140998483411
 30
0.0
 11
1435.1384159634331
 21
2327.5888987645421
 31
0.0
  0
LINE
  5
1C1CA
  8
0
 62
     0
 10
1460.6132148796339
 20
2293.1338437272711
 30
0.0
 11
1426.1581598423641
 21
2327.5888987645421
 31
0.0
  0
LINE
  5
1C1CB
  8
0
 62
     0
 10
1457.1779037212959
 20
2287.5888987645412
 30
0.0
 11
1417.177903721295
 21
2327.5888987645421
 31
0.0
  0
LINE
  5
1C1CC
  8
0
 62
     0
 10
1448.197647600226
 20
2287.5888987645412
 30
0.0
 11
1408.1976476002251
 21
2327.5888987645421
 31
0.0
  0
LINE
  5
1C1CD
  8
0
 62
     0
 10
1439.217391479157
 20
2287.5888987645412
 30
0.0
 11
1399.217391479156
 21
2327.5888987645421
 31
0.0
  0
LINE
  5
1C1CE
  8
0
 62
     0
 10
1430.2371353580879
 20
2287.5888987645412
 30
0.0
 11
1390.237135358087
 21
2327.5888987645421
 31
0.0
  0
LINE
  5
1C1CF
  8
0
 62
     0
 10
1421.2568792370189
 20
2287.5888987645412
 30
0.0
 11
1381.256879237018
 21
2327.5888987645421
 31
0.0
  0
LINE
  5
1C1D0
  8
0
 62
     0
 10
1412.2766231159501
 20
2287.5888987645412
 30
0.0
 11
1373.1132148796339
 21
2326.7523070008569
 31
0.0
  0
LINE
  5
1C1D1
  8
0
 62
     0
 10
1403.2963669948799
 20
2287.5888987645412
 30
0.0
 11
1373.1132148796339
 21
2317.7720508797879
 31
0.0
  0
LINE
  5
1C1D2
  8
0
 62
     0
 10
1394.3161108738111
 20
2287.5888987645412
 30
0.0
 11
1373.1132148796339
 21
2308.791794758718
 31
0.0
  0
LINE
  5
1C1D3
  8
0
 62
     0
 10
1385.335854752743
 20
2287.5888987645412
 30
0.0
 11
1373.1132148796339
 21
2299.8115386376498
 31
0.0
  0
LINE
  5
1C1D4
  8
0
 62
     0
 10
1376.355598631673
 20
2287.5888987645412
 30
0.0
 11
1373.1132148796351
 21
2290.8312825165799
 31
0.0
  0
LINE
  5
1C1D5
  8
0
 62
     0
 10
1452.42507950511
 20
2287.5888987645412
 30
0.0
 11
1460.6132148796351
 21
2295.777034139066
 31
0.0
  0
LINE
  5
1C1D6
  8
0
 62
     0
 10
1443.444823384041
 20
2287.5888987645412
 30
0.0
 11
1460.6132148796339
 21
2304.7572902601351
 31
0.0
  0
LINE
  5
1C1D7
  8
0
 62
     0
 10
1434.464567262972
 20
2287.5888987645412
 30
0.0
 11
1460.6132148796339
 21
2313.7375463812041
 31
0.0
  0
LINE
  5
1C1D8
  8
0
 62
     0
 10
1425.4843111419029
 20
2287.5888987645412
 30
0.0
 11
1460.6132148796339
 21
2322.7178025022731
 31
0.0
  0
LINE
  5
1C1D9
  8
0
 62
     0
 10
1416.5040550208339
 20
2287.5888987645412
 30
0.0
 11
1456.5040550208339
 21
2327.5888987645421
 31
0.0
  0
LINE
  5
1C1DA
  8
0
 62
     0
 10
1407.523798899764
 20
2287.5888987645412
 30
0.0
 11
1447.5237988997651
 21
2327.5888987645421
 31
0.0
  0
LINE
  5
1C1DB
  8
0
 62
     0
 10
1398.5435427786949
 20
2287.5888987645412
 30
0.0
 11
1438.5435427786961
 21
2327.5888987645421
 31
0.0
  0
LINE
  5
1C1DC
  8
0
 62
     0
 10
1389.5632866576259
 20
2287.5888987645412
 30
0.0
 11
1429.563286657627
 21
2327.5888987645421
 31
0.0
  0
LINE
  5
1C1DD
  8
0
 62
     0
 10
1380.5830305365571
 20
2287.5888987645412
 30
0.0
 11
1420.583030536558
 21
2327.5888987645421
 31
0.0
  0
LINE
  5
1C1DE
  8
0
 62
     0
 10
1373.1132148796351
 20
2289.0993392286882
 30
0.0
 11
1411.602774415489
 21
2327.5888987645421
 31
0.0
  0
LINE
  5
1C1DF
  8
0
 62
     0
 10
1373.1132148796351
 20
2298.0795953497568
 30
0.0
 11
1402.6225182944199
 21
2327.5888987645421
 31
0.0
  0
LINE
  5
1C1E0
  8
0
 62
     0
 10
1373.1132148796351
 20
2307.0598514708258
 30
0.0
 11
1393.6422621733509
 21
2327.5888987645421
 31
0.0
  0
LINE
  5
1C1E1
  8
0
 62
     0
 10
1373.1132148796351
 20
2316.0401075918949
 30
0.0
 11
1384.662006052281
 21
2327.5888987645421
 31
0.0
  0
LINE
  5
1C1E2
  8
0
 62
     0
 10
1373.1132148796339
 20
2325.0203637129639
 30
0.0
 11
1375.6817499312119
 21
2327.5888987645421
 31
0.0
  0
ENDBLK
  5
1C1E4
  8
0
  0
BLOCK
  8
0
  2
*X37
 70
     1
 10
0.0
 20
0.0
 30
0.0
  3
*X37
  1

  0
LINE
  5
1C1E6
  8
0
 62
     0
 10
731.39738174554032
 20
2320.0746120904919
 30
0.0
 11
723.8830950714771
 21
2327.5888987645549
 31
0.0
  0
LINE
  5
1C1E7
  8
0
 62
     0
 10
731.39738174554054
 20
2311.0943559694228
 30
0.0
 11
714.90283895040795
 21
2327.5888987645558
 31
0.0
  0
LINE
  5
1C1E8
  8
0
 62
     0
 10
731.39738174554032
 20
2302.1140998483538
 30
0.0
 11
705.92258282933881
 21
2327.5888987645558
 31
0.0
  0
LINE
  5
1C1E9
  8
0
 62
     0
 10
731.39738174554032
 20
2293.1338437272839
 30
0.0
 11
696.94232670826955
 21
2327.5888987645549
 31
0.0
  0
LINE
  5
1C1EA
  8
0
 62
     0
 10
727.96207058720165
 20
2287.588898764554
 30
0.0
 11
687.96207058720051
 21
2327.5888987645549
 31
0.0
  0
LINE
  5
1C1EB
  8
0
 62
     0
 10
718.98181446613205
 20
2287.5888987645549
 30
0.0
 11
678.98181446613125
 21
2327.5888987645558
 31
0.0
  0
LINE
  5
1C1EC
  8
0
 62
     0
 10
710.00155834506313
 20
2287.588898764554
 30
0.0
 11
670.00155834506222
 21
2327.5888987645558
 31
0.0
  0
LINE
  5
1C1ED
  8
0
 62
     0
 10
701.02130222399387
 20
2287.588898764554
 30
0.0
 11
661.02130222399296
 21
2327.5888987645549
 31
0.0
  0
LINE
  5
1C1EE
  8
0
 62
     0
 10
692.04104610292484
 20
2287.5888987645549
 30
0.0
 11
652.04104610292393
 21
2327.5888987645549
 31
0.0
  0
LINE
  5
1C1EF
  8
0
 62
     0
 10
683.06078998185558
 20
2287.5888987645549
 30
0.0
 11
643.89738174553963
 21
2326.7523070008701
 31
0.0
  0
LINE
  5
1C1F0
  8
0
 62
     0
 10
674.08053386078643
 20
2287.5888987645549
 30
0.0
 11
643.89738174553975
 21
2317.7720508798011
 31
0.0
  0
LINE
  5
1C1F1
  8
0
 62
     0
 10
665.10027773971728
 20
2287.5888987645549
 30
0.0
 11
643.89738174553975
 21
2308.7917947587321
 31
0.0
  0
LINE
  5
1C1F2
  8
0
 62
     0
 10
656.12002161864825
 20
2287.5888987645549
 30
0.0
 11
643.89738174554009
 21
2299.8115386376621
 31
0.0
  0
LINE
  5
1C1F3
  8
0
 62
     0
 10
647.13976549757876
 20
2287.5888987645549
 30
0.0
 11
643.89738174554009
 21
2290.8312825165931
 31
0.0
  0
LINE
  5
1C1F4
  8
0
 62
     0
 10
723.20924637101587
 20
2287.5888987645549
 30
0.0
 11
731.39738174554088
 21
2295.7770341390792
 31
0.0
  0
LINE
  5
1C1F5
  8
0
 62
     0
 10
714.22899024994683
 20
2287.5888987645549
 30
0.0
 11
731.39738174554043
 21
2304.7572902601478
 31
0.0
  0
LINE
  5
1C1F6
  8
0
 62
     0
 10
705.24873412887757
 20
2287.5888987645549
 30
0.0
 11
731.39738174554032
 21
2313.7375463812168
 31
0.0
  0
LINE
  5
1C1F7
  8
0
 62
     0
 10
696.26847800780843
 20
2287.5888987645549
 30
0.0
 11
731.39738174554032
 21
2322.7178025022858
 31
0.0
  0
LINE
  5
1C1F8
  8
0
 62
     0
 10
687.28822188673928
 20
2287.5888987645549
 30
0.0
 11
727.28822188674008
 21
2327.5888987645558
 31
0.0
  0
LINE
  5
1C1F9
  8
0
 62
     0
 10
678.30796576567013
 20
2287.5888987645549
 30
0.0
 11
718.30796576567104
 21
2327.5888987645558
 31
0.0
  0
LINE
  5
1C1FA
  8
0
 62
     0
 10
669.3277096446011
 20
2287.5888987645549
 30
0.0
 11
709.32770964460167
 21
2327.5888987645549
 31
0.0
  0
LINE
  5
1C1FB
  8
0
 62
     0
 10
660.34745352353207
 20
2287.5888987645549
 30
0.0
 11
700.34745352353275
 21
2327.5888987645549
 31
0.0
  0
LINE
  5
1C1FC
  8
0
 62
     0
 10
651.36719740246235
 20
2287.588898764554
 30
0.0
 11
691.36719740246349
 21
2327.5888987645549
 31
0.0
  0
LINE
  5
1C1FD
  8
0
 62
     0
 10
643.89738174554032
 20
2289.099339228701
 30
0.0
 11
682.38694128139446
 21
2327.5888987645549
 31
0.0
  0
LINE
  5
1C1FE
  8
0
 62
     0
 10
643.89738174554032
 20
2298.07959534977
 30
0.0
 11
673.40668516032542
 21
2327.5888987645558
 31
0.0
  0
LINE
  5
1C1FF
  8
0
 62
     0
 10
643.89738174554032
 20
2307.059851470839
 30
0.0
 11
664.42642903925594
 21
2327.5888987645549
 31
0.0
  0
LINE
  5
1C200
  8
0
 62
     0
 10
643.89738174554009
 20
2316.0401075919081
 30
0.0
 11
655.44617291818668
 21
2327.5888987645549
 31
0.0
  0
LINE
  5
1C201
  8
0
 62
     0
 10
643.89738174553997
 20
2325.020363712978
 30
0.0
 11
646.46591679711764
 21
2327.5888987645558
 31
0.0
  0
ENDBLK
  5
1C203
  8
0
  0
BLOCK
  8
0
  2
*U38
 70
     1
 10
0.0
 20
0.0
 30
0.0
  3
*U38
  1

  0
SOLID
  5
1C227
  8
SUNPOU
 10
748.06755943261157
 20
1916.5860171738079
 30
0.0
 11
729.55628826377483
 21
1908.3129312426149
 31
0.0
 12
744.38378717553087
 22
1922.1424788539071
 32
0.0
 13
744.38378717553087
 23
1922.1424788539071
 33
0.0
  0
POLYLINE
  5
1C228
  8
SUNPOU
 66
     1
 10
0.0
 20
0.0
 30
0.0
  0
VERTEX
  5
1C229
  8
SUNPOU
 10
746.22567330407117
 20
1919.3642480138581
 30
0.0
  0
VERTEX
  5
1C22A
  8
SUNPOU
 10
839.34821530985289
 20
1981.101781087898
 30
0.0
  0
SEQEND
  5
1C22B
  8
SUNPOU
  0
ENDBLK
  5
1C22D
  8
0
  0
ENDSEC
  0
SECTION
  2
ENTITIES
  0
TEXT
  5
43
  8
INFORMATION
 10
1.0
 20
2.0
 30
0.0
 40
0.8
  1
PLOTTER=SYSTEM
 41
0.8
  7
EXT08
  0
TEXT
  5
44
  8
INFORMATION
 10
1.0
 20
3.0
 30
0.0
 40
0.8
  1
PAPER=A3
 41
0.8
  7
EXT08
  0
TEXT
  5
178E9
  8
INFORMATION
 10
1.0
 20
1.0
 30
0.0
 40
0.8
  1
VERSION=3.0
  0
INSERT
  5
19380
  8
ZWAKU
  2
SYSTEMA3
 10
-0.7058929444392561
 20
37.540982692415128
 30
0.0
 41
10.0
 42
10.0
 43
10.0
  0
INSERT
  5
19381
  8
ZWAKU
  2
CALCOMP_TECHJET720A3
 10
-0.7058929444392561
 20
37.540982692415128
 30
0.0
 41
10.0
 42
10.0
 43
10.0
  0
LINE
  5
19382
  8
MOJI
 10
3663.0844272244772
 20
2465.4653333909719
 30
0.0
 11
2539.8840360922268
 21
2465.4653333909719
 31
0.0
  0
LINE
  5
19383
  8
MOJI
 10
3663.0844272244772
 20
2273.4653334389741
 30
0.0
 11
2539.8840360922268
 21
2273.4653334389741
 31
0.0
  0
LINE
  5
19384
  8
MOJI
 10
3663.0844272244772
 20
2225.465333450974
 30
0.0
 11
2539.8840360922268
 21
2225.4653334509749
 31
0.0
  0
LINE
  5
19385
  8
MOJI
 10
3663.0844272244772
 20
2081.4653334869759
 30
0.0
 11
2539.8840360922268
 21
2081.4653334869759
 31
0.0
  0
LINE
  5
19386
  8
MOJI
 10
3663.0844272244772
 20
2129.4653334749751
 30
0.0
 11
2539.8840360922268
 21
2129.4653334749751
 31
0.0
  0
LINE
  5
19387
  8
MOJI
 10
3663.0844272244772
 20
2321.4653334269742
 30
0.0
 11
2539.8840360922268
 21
2321.4653334269728
 31
0.0
  0
LINE
  5
19388
  8
MOJI
 10
3663.0844272244772
 20
2369.4653334149721
 30
0.0
 11
2539.8840360922268
 21
2369.4653334149721
 31
0.0
  0
LINE
  5
19389
  8
MOJI
 10
3663.0844272244772
 20
2417.4653334029722
 30
0.0
 11
2539.8840360922268
 21
2417.4653334029731
 31
0.0
  0
LINE
  5
1938A
  8
MOJI
 10
3663.0844272244772
 20
2033.465333498975
 30
0.0
 11
2539.8840360922268
 21
2033.465333498975
 31
0.0
  0
TEXT
  5
1938B
  8
MOJI
 10
3060.073210921038
 20
2426.4653333969732
 30
0.0
 40
30.0
  1
材　　　質
 41
0.8
  7
EXT08
 72
     4
 11
3128.8732109210382
 21
2441.4653333969732
 31
0.0
  0
TEXT
  5
1938C
  8
MOJI
 10
2622.014451985955
 20
2426.4653333969732
 30
0.0
 40
30.0
  1
品　　名
 41
0.8
  7
EXT08
 72
     4
 11
2675.6144519859549
 21
2441.4653333969732
 31
0.0
  0
TEXT
  5
1938E
  8
MOJI
 10
2829.5431439008812
 20
2426.4653333969732
 30
0.0
 40
30.0
  1
数 量
 41
0.8
  7
EXT08
 72
     4
 11
2862.3431439008809
 21
2441.4653333969732
 31
0.0
  0
LINE
  5
1938F
  8
MOJI
 10
3322.5108894851501
 20
2465.465333390971
 30
0.0
 11
3322.510889485151
 21
2033.465333498975
 31
0.0
  0
LINE
  5
19390
  8
MOJI
 10
2910.3431438888788
 20
2465.465333390971
 30
0.0
 11
2910.3431438888779
 21
2033.465333498975
 31
0.0
  0
LINE
  5
19391
  8
MOJI
 10
2814.343143912879
 20
2465.465333390971
 30
0.0
 11
2814.3431439128781
 21
2033.465333498975
 31
0.0
  0
LINE
  5
19392
  8
MOJI
 10
2539.8840360922268
 20
2465.465333390971
 30
0.0
 11
2539.8840360922268
 21
2033.465333498975
 31
0.0
  0
TEXT
  5
19394
  8
MOJI
 10
2619.7858805573842
 20
2330.865333420973
 30
0.0
 40
30.0
  1
キャップ
 41
0.8
  7
EXT08
 72
     4
 11
2675.6144519859549
 21
2345.465333420972
 31
0.0
  0
TEXT
  5
1939C
  8
MOJI
 10
2556.4144519859551
 20
2234.4653334449749
 30
0.0
 40
30.0
  1
弾性サイン板（大）
 41
0.8
  7
EXT08
 72
     4
 11
2675.6144519859549
 21
2249.4653334449749
 31
0.0
  0
TEXT
  5
1939D
  8
MOJI
 10
2934.3431438828802
 20
2330.465333420972
 30
0.0
 40
30.0
  1
ポリエチレン樹脂
 41
0.8
  7
EXT08
 11
2934.3431438828802
 21
2345.465333420972
 31
0.0
 73
     2
  0
TEXT
  5
1939E
  8
MOJI
 10
2934.3431438828802
 20
2234.4653334449749
 30
0.0
 40
30.0
  1
CRゴム
 41
0.8
  7
EXT08
 11
2934.3431438828802
 21
2249.4653334449749
 31
0.0
 73
     2
  0
TEXT
  5
1939F
  8
MOJI
 10
2852.6288581865952
 20
2234.4653334449749
 30
0.0
 40
30.0
  1
1
 41
0.8
  7
EXT08
 72
     4
 11
2862.3431439008809
 21
2249.4653334449749
 31
0.0
  0
TEXT
  5
193A0
  8
MOJI
 10
2852.6288581865952
 20
2330.465333420972
 30
0.0
 40
30.0
  1
1
 41
0.8
  7
EXT08
 72
     4
 11
2862.3431439008809
 21
2345.465333420972
 31
0.0
  0
LINE
  5
193A1
  8
MOJI
 10
3663.0844272244772
 20
2465.465333390971
 30
0.0
 11
3663.0844272244781
 21
2033.465333498975
 31
0.0
  0
TEXT
  5
193A2
  8
MOJI
 10
3459.9976583548132
 20
2426.4653333969709
 30
0.0
 40
30.0
  1
備 考
 41
0.8
  7
EXT08
 72
     4
 11
3492.7976583548129
 21
2441.4653333969709
 31
0.0
  0
TEXT
  5
193A3
  8
MOJI
 10
3345.711944069099
 20
2042.4653334809759
 30
0.0
 40
30.0
  1
皿ドリルネジM4×35
 41
0.8
  7
EXT08
 72
     4
 11
3492.7976583548129
 21
2057.4653334809759
 31
0.0
  0
TEXT
  5
193A4
  8
MOJI
 10
3459.9976583548132
 20
2378.4653334089721
 30
0.0
 40
30.0
  1
茶 色
 41
0.8
  7
EXT08
 72
     4
 11
3492.7976583548129
 21
2393.4653334089721
 31
0.0
  0
TEXT
  5
193A5
  8
MOJI
 10
2606.8144519859552
 20
2378.4653334089721
 30
0.0
 40
30.0
  1
支　　　柱
 41
0.8
  7
EXT08
 72
     4
 11
2675.6144519859549
 21
2393.4653334089721
 31
0.0
  0
TEXT
  5
193A6
  8
MOJI
 10
2917.6675642437458
 20
2378.4653334089721
 30
0.0
 40
30.0
  1
ポリエチレン樹脂＋ガラス繊維
 41
0.8
  7
EXT08
 11
2917.6675642437458
 21
2393.4653334089721
 31
0.0
 73
     2
  0
TEXT
  5
193A7
  8
MOJI
 10
2852.6288581865952
 20
2378.4653334089721
 30
0.0
 40
30.0
  1
1
 41
0.8
  7
EXT08
 72
     4
 11
2862.3431439008809
 21
2393.4653334089721
 31
0.0
  0
TEXT
  5
193A8
  8
MOJI
 10
2606.8144519859552
 20
2282.4653334329741
 30
0.0
 40
30.0
  1
反　射　材
 41
0.8
  7
EXT08
 72
     4
 11
2675.6144519859549
 21
2297.4653334329741
 31
0.0
  0
TEXT
  5
193A9
  8
MOJI
 10
2934.3431438828802
 20
2282.4653334329741
 30
0.0
 40
30.0
  1
カプセルレンズ型反射シート
 41
0.8
  7
EXT08
 11
2934.3431438828802
 21
2297.4653334329741
 31
0.0
 73
     2
  0
TEXT
  5
193AA
  8
MOJI
 10
2852.6288581865952
 20
2282.4653334329741
 30
0.0
 40
30.0
  1
1
 41
0.8
  7
EXT08
 72
     4
 11
2862.3431439008809
 21
2297.4653334329741
 31
0.0
  0
TEXT
  5
193AB
  8
MOJI
 10
3458.3976583548128
 20
2282.4653334329741
 30
0.0
 40
30.0
  1
白 色
 41
0.8
  7
EXT08
 72
     4
 11
3492.7976583548129
 21
2297.4653334329741
 31
0.0
  0
TEXT
  5
193AC
  8
MOJI
 10
2606.8144519859552
 20
2138.4653334689779
 30
0.0
 40
30.0
  1
芯      材
 41
0.8
  7
EXT08
 72
     4
 11
2675.6144519859549
 21
2153.4653334689779
 31
0.0
  0
TEXT
  5
193AD
  8
MOJI
 10
2934.3431438828802
 20
2138.4653334689779
 30
0.0
 40
30.0
  1
A6063S-T5
 41
0.8
  7
EXT08
 11
2934.3431438828802
 21
2153.4653334689779
 31
0.0
 73
     2
  0
TEXT
  5
193AE
  8
MOJI
 10
2852.6288581865952
 20
2138.4653334689779
 30
0.0
 40
30.0
  1
1
 41
0.8
  7
EXT08
 72
     4
 11
2862.3431439008809
 21
2153.4653334689779
 31
0.0
  0
TEXT
  5
193AF
  8
MOJI
 10
2619.6144519859558
 20
2090.4653334809768
 30
0.0
 40
30.0
  1
ネカセ棒
 41
0.8
  7
EXT08
 72
     4
 11
2675.6144519859558
 21
2105.4653334809768
 31
0.0
  0
TEXT
  5
193B0
  8
MOJI
 10
2852.6288581865952
 20
2090.465333480975
 30
0.0
 40
30.0
  1
1
 41
0.8
  7
EXT08
 72
     4
 11
2862.3431439008809
 21
2105.465333480975
 31
0.0
  0
TEXT
  5
193B1
  8
MOJI
 10
2850.3431439008809
 20
2042.4653334929769
 30
0.0
 40
30.0
  1
6
 41
0.8
  7
EXT08
 72
     4
 11
2862.3431439008809
 21
2057.4653334929772
 31
0.0
  0
TEXT
  5
193B2
  8
MOJI
 10
3417.5976583548131
 20
2090.4653334809759
 30
0.0
 40
30.0
  1
φ9×150
 41
0.8
  7
EXT08
 72
     4
 11
3492.7976583548138
 21
2105.4653334809759
 31
0.0
  0
TEXT
  5
193B3
  8
MOJI
 10
3459.9976583548132
 20
2330.4653334209738
 30
0.0
 40
30.0
  1
茶 色
 41
0.8
  7
EXT08
 72
     4
 11
3492.7976583548129
 21
2345.4653334209752
 31
0.0
  0
TEXT
  5
193B4
  8
MOJI
 10
2932.8415782590441
 20
2043.1142718735091
 30
0.0
 40
30.0
  1
SUS410
 41
0.8
  7
EXT08
 11
2932.8415782590441
 21
2058.1142718735091
 31
0.0
 73
     2
  0
LINE
  5
193B5
  8
SJC
 10
2978.6942880838401
 20
2651.462121184511
 30
0.0
 11
3648.6942880838401
 21
2651.462121184511
 31
0.0
  0
LINE
  5
193B6
  8
SJC
 10
2978.6942880838401
 20
2501.462121184511
 30
0.0
 11
3648.6942880838401
 21
2501.462121184511
 31
0.0
  0
LINE
  5
193B7
  8
SJC
 10
2963.6942880838401
 20
2551.462121184511
 30
0.0
 11
3663.6942880838401
 21
2551.462121184511
 31
0.0
  0
LINE
  5
193B8
  8
SJC
 10
2963.6942880838401
 20
2601.462121184511
 30
0.0
 11
3663.6942880838401
 21
2601.462121184511
 31
0.0
  0
TEXT
  5
193B9
  8
MOJI
 10
3120.6854416030642
 20
2511.7388454641582
 30
0.0
 40
30.0
  1
KEKH00570※1
 41
0.8
  7
EXT08
  0
TEXT
  5
193BA
  8
MOJI
 10
3120.6854416030642
 20
2611.7388454641582
 30
0.0
 40
30.0
  1
ジスロンパイプサインポール（単柱式）
 41
0.8
  7
EXT08
  0
TEXT
  5
193BB
  8
MOJI
 10
2996.4657166552688
 20
2610.8621211845111
 30
0.0
 40
30.0
  1
タイプ
 41
0.8
  7
EXT08
 72
     4
 11
3038.6942880838401
 21
2626.462121184511
 31
0.0
  0
LINE
  5
193BC
  8
SJC
 10
3113.6942880838401
 20
2501.462121184511
 30
0.0
 11
3113.6942880838401
 21
2651.462121184511
 31
0.0
  0
ARC
  5
193BD
  8
SJC
 10
2978.6942880838401
 20
2636.462121184511
 30
0.0
 40
15.0
 50
90.0
 51
180.0
  0
ARC
  5
193BE
  8
SJC
 10
2978.6942880838401
 20
2516.462121184511
 30
0.0
 40
15.0
 50
180.0
 51
270.0
  0
LINE
  5
193BF
  8
SJC
 10
2963.6942880838401
 20
2516.462121184511
 30
0.0
 11
2963.6942880838401
 21
2636.462121184511
 31
0.0
  0
TEXT
  5
193C0
  8
MOJI
 10
2998.6942880838401
 20
2561.4621211845101
 30
0.0
 40
30.0
  1
品  番
 41
0.8
  7
EXT08
 72
     4
 11
3038.6942880838401
 21
2576.462121184511
 31
0.0
  0
TEXT
  5
193C1
  8
MOJI
 10
2983.4942880838398
 20
2511.462121184511
 30
0.0
 40
30.0
  1
図面番号
 41
0.8
  7
EXT08
 72
     4
 11
3038.6942880838401
 21
2526.462121184511
 31
0.0
  0
ARC
  5
193C2
  8
SJC
 10
3648.6942880838401
 20
2636.462121184511
 30
0.0
 40
15.0
 50
0.0
 51
90.0
  0
ARC
  5
193C3
  8
SJC
 10
3648.6942880838401
 20
2516.462121184511
 30
0.0
 40
15.0
 50
270.0
 51
0.0
  0
LINE
  5
193C4
  8
SJC
 10
3663.6942880838401
 20
2516.462121184511
 30
0.0
 11
3663.6942880838401
 21
2636.462121184511
 31
0.0
  0
LINE
  5
193C8
  8
CENTER
 10
687.64738174554077
 20
2367.5888987645349
 30
0.0
 11
687.64738174554077
 21
277.58889876454123
 31
0.0
  0
LINE
  5
193C9
  8
SJC2
 10
612.64738174554077
 20
642.08889876454157
 30
0.0
 11
612.64738174554077
 21
633.08889876454157
 31
0.0
  0
LINE
  5
193CA
  8
SJC2
 10
762.64738174554077
 20
642.08889876454123
 30
0.0
 11
762.64738174554077
 21
633.08889876454123
 31
0.0
  0
LINE
  5
193CB
  8
SJC
 10
650.14738174554066
 20
487.58889876454111
 30
0.0
 11
650.14738174554066
 21
387.58889876454123
 31
0.0
  0
LINE
  5
193CC
  8
SJC
 10
725.14738174554077
 20
487.58889876454128
 30
0.0
 11
725.14738174554077
 21
387.58889876454128
 31
0.0
  0
LINE
  5
193D1
  8
SJC
 10
731.39738174554077
 20
1777.588898764541
 30
0.0
 11
731.39738174554077
 21
487.58889876454123
 31
0.0
1001
ACAD
1000
ASC_BOUNDS
1002
{
1070
    19
1005
0
1002
}
  0
LINE
  5
193D2
  8
SJC
 10
643.89738174554077
 20
1777.5888987645401
 30
0.0
 11
643.89738174554077
 21
487.58889876454123
 31
0.0
1001
ACAD
1000
ASC_BOUNDS
1002
{
1070
    19
1005
0
1002
}
  0
LINE
  5
193D3
  8
SJC
 10
731.39738174554077
 20
787.58889876454123
 30
0.0
 11
976.1518485949581
 21
787.58889876454123
 31
0.0
1001
ACAD
1000
ASC_BOUNDS
1002
{
1070
    19
1005
0
1002
}
  0
LINE
  5
193D5
  8
SJC
 10
487.64738174554083
 20
387.58889876454123
 30
0.0
 11
887.64738174554066
 21
387.58889876454123
 31
0.0
1001
ACAD
1000
ASC_BOUNDS
1002
{
1070
    19
1005
0
1005
0
1005
0
1002
}
  0
LINE
  5
193D6
  8
SJC
 10
460.11334604726471
 20
787.58889876454123
 30
0.0
 11
643.89738174554077
 21
787.58889876454123
 31
0.0
1001
ACAD
1000
ASC_BOUNDS
1002
{
1070
    19
1005
0
1002
}
  0
LINE
  5
193D7
  8
SJC
 10
643.89738174554077
 20
2327.5888987645421
 30
0.0
 11
731.39738174554032
 21
2327.5888987645421
 31
0.0
  0
LINE
  5
193D8
  8
SJC
 10
887.64738174554066
 20
387.58889876454123
 30
0.0
 11
887.64738174554066
 21
287.58889876454123
 31
0.0
  0
LINE
  5
193D9
  8
SJC
 10
487.64738174554083
 20
387.58889876454123
 30
0.0
 11
487.64738174554083
 21
287.58889876454123
 31
0.0
  0
LINE
  5
193DA
  8
SJC
 10
487.64738174554083
 20
287.58889876454123
 30
0.0
 11
887.64738174554066
 21
287.58889876454123
 31
0.0
  0
ARC
  5
193E1
  8
SJC
 10
687.64738174554077
 20
2289.7373362645212
 30
0.0
 40
57.851562500013678
 50
40.865657358811269
 51
139.13434264118931
  0
INSERT
  5
193E2
  8
SJC
  2
GL
 10
892.54864438850927
 20
787.30926014679335
 30
0.0
 41
10.0
 42
10.0
 43
10.0
  0
LINE
  5
193E3
  8
SJC
 10
837.64738174554066
 20
787.58889876454123
 30
0.0
 11
837.64738174554066
 21
387.58889876454123
 31
0.0
1001
ACAD
1000
ASC_BOUNDS
1002
{
1070
    19
1005
0
1002
}
  0
LINE
  5
193E4
  8
SJC
 10
537.64738174554077
 20
787.58889876454123
 30
0.0
 11
537.64738174554077
 21
387.58889876454123
 31
0.0
1001
ACAD
1000
ASC_BOUNDS
1002
{
1070
    19
1005
0
1002
}
  0
TEXT
  5
193E5
  8
MOJI2
 10
530.21344309199765
 20
102.1435321472127
 30
0.0
 40
40.0
  1
設置図 S=1/10
 41
0.8
  7
EXT08
 72
     1
 11
692.65153833009288
 21
102.1435321472127
 31
0.0
 73
     1
  0
LINE
  5
193E6
  8
MOJI2
 10
514.97333899584191
 20
87.143532147212696
 30
0.0
 11
870.3257199482232
 21
87.143532147212696
 31
0.0
  0
LINE
  5
193E7
  8
HATCH
 10
537.64738174554077
 20
782.64907618853795
 30
0.0
 11
542.58720432154314
 21
787.58889876454123
 31
0.0
  0
LINE
  5
193E8
  8
HATCH
 10
537.64738174554077
 20
676.5830590105561
 30
0.0
 11
643.09738174554059
 21
782.03305901055592
 31
0.0
  0
LINE
  5
193E9
  8
HATCH
 10
537.64738174554077
 20
570.5170418325738
 30
0.0
 11
643.89738174554077
 21
676.76704183257425
 31
0.0
  0
LINE
  5
193EA
  8
HATCH
 10
732.19738174554095
 20
765.06704183257443
 30
0.0
 11
754.71923867750775
 21
787.58889876454123
 31
0.0
  0
LINE
  5
193EB
  8
HATCH
 10
537.64738174554077
 20
464.45102465459189
 30
0.0
 11
643.89738174554077
 21
570.7010246545924
 31
0.0
  0
LINE
  5
193EC
  8
HATCH
 10
731.39738174554077
 20
658.20102465459252
 30
0.0
 11
837.64738174554066
 21
764.45102465459138
 31
0.0
  0
LINE
  5
193ED
  8
HATCH
 10
566.85127303347235
 20
387.58889876454123
 30
0.0
 11
650.14738174554066
 21
470.88500747660993
 31
0.0
  0
LINE
  5
193EE
  8
HATCH
 10
731.39738174554077
 20
552.13500747661021
 30
0.0
 11
837.64738174554066
 21
658.38500747660964
 31
0.0
  0
LINE
  5
193EF
  8
HATCH
 10
725.14738174554077
 20
439.8189902986278
 30
0.0
 11
837.64738174554066
 21
552.3189902986278
 31
0.0
  0
LINE
  5
193F0
  8
HATCH
 10
778.98330738943605
 20
387.58889876454123
 30
0.0
 11
837.64738174554066
 21
446.25297312064549
 31
0.0
  0
LINE
  5
193F1
  8
HATCH
 10
537.64738174554077
 20
764.97140668853808
 30
0.0
 11
560.26487382154301
 21
787.58889876454123
 31
0.0
  0
LINE
  5
193F2
  8
HATCH
 10
537.64738174554077
 20
658.90538951055623
 30
0.0
 11
643.09738174554059
 21
764.35538951055605
 31
0.0
  0
LINE
  5
193F3
  8
HATCH
 10
537.64738174554077
 20
552.83937233257427
 30
0.0
 11
617.89690817750852
 21
633.08889876454157
 31
0.0
  0
LINE
  5
193F4
  8
HATCH
 10
732.19738174554095
 20
747.389372332574
 30
0.0
 11
772.3969081775075
 21
787.58889876454123
 31
0.0
  0
LINE
  5
193F5
  8
HATCH
 10
537.64738174554077
 20
446.77335515459202
 30
0.0
 11
643.89738174554077
 21
553.02335515459197
 31
0.0
  0
LINE
  5
193F6
  8
HATCH
 10
732.96292535549014
 20
642.08889876454134
 30
0.0
 11
837.64738174554066
 21
746.77335515459163
 31
0.0
  0
LINE
  5
193F7
  8
HATCH
 10
584.52894253347222
 20
387.58889876454123
 30
0.0
 11
650.14738174554066
 21
453.20733797661012
 31
0.0
  0
LINE
  5
193F8
  8
HATCH
 10
731.39738174554077
 20
534.45733797660989
 30
0.0
 11
837.64738174554066
 21
640.70733797660978
 31
0.0
  0
LINE
  5
193F9
  8
HATCH
 10
725.14738174554077
 20
422.14132079862787
 30
0.0
 11
837.64738174554066
 21
534.64132079862736
 31
0.0
  0
LINE
  5
193FA
  8
HATCH
 10
796.6609768894358
 20
387.58889876454123
 30
0.0
 11
837.64738174554032
 21
428.57530362064512
 31
0.0
  0
LINE
  5
193FB
  8
HATCH
 10
537.64738174554077
 20
747.29373708853825
 30
0.0
 11
577.94254342154363
 21
787.58889876454123
 31
0.0
  0
LINE
  5
193FC
  8
HATCH
 10
537.64738174554077
 20
641.22771991055652
 30
0.0
 11
643.09738174554059
 21
746.67771991055588
 31
0.0
  0
LINE
  5
193FD
  8
HATCH
 10
537.64738174554077
 20
535.16170273257364
 30
0.0
 11
635.57457777750813
 21
633.08889876454145
 31
0.0
  0
LINE
  5
193FE
  8
HATCH
 10
732.19738174554095
 20
729.71170273257394
 30
0.0
 11
790.07457777750767
 21
787.58889876454123
 31
0.0
  0
LINE
  5
193FF
  8
HATCH
 10
537.64738174554077
 20
429.0956855545918
 30
0.0
 11
643.89738174554077
 21
535.34568555459225
 31
0.0
  0
LINE
  5
19400
  8
HATCH
 10
731.39738174554077
 20
622.84568555459214
 30
0.0
 11
741.64059495549452
 21
633.08889876454123
 31
0.0
  0
LINE
  5
19401
  8
HATCH
 10
602.20661213347194
 20
387.58889876454123
 30
0.0
 11
650.14738174554077
 21
435.52966837660898
 31
0.0
  0
LINE
  5
19402
  8
HATCH
 10
731.39738174554077
 20
516.77966837660995
 30
0.0
 11
837.64738174554066
 21
623.02966837660961
 31
0.0
  0
LINE
  5
19403
  8
HATCH
 10
725.14738174554077
 20
404.4636511986277
 30
0.0
 11
837.64738174554066
 21
516.9636511986273
 31
0.0
  0
LINE
  5
19404
  8
HATCH
 10
814.33864648943666
 20
387.58889876454123
 30
0.0
 11
837.64738174554032
 21
410.8976340206454
 31
0.0
  0
LINE
  5
19405
  8
HATCH
 10
537.64738174554077
 20
729.6160675885385
 30
0.0
 11
595.6202129215435
 21
787.58889876454123
 31
0.0
  0
LINE
  5
19406
  8
HATCH
 10
537.64738174554077
 20
623.55005041055608
 30
0.0
 11
643.09738174554059
 21
729.0000504105559
 31
0.0
  0
LINE
  5
19407
  8
HATCH
 10
537.64738174554077
 20
517.48403323257389
 30
0.0
 11
643.25224727750799
 21
623.08889876454145
 31
0.0
  0
LINE
  5
19408
  8
HATCH
 10
732.19738174554095
 20
712.03403323257396
 30
0.0
 11
807.7522472775081
 21
787.58889876454123
 31
0.0
  0
LINE
  5
19409
  8
HATCH
 10
537.64738174554077
 20
411.41801605459199
 30
0.0
 11
643.89738174554077
 21
517.66801605459204
 31
0.0
  0
LINE
  5
1940A
  8
HATCH
 10
731.39738174554077
 20
605.16801605459204
 30
0.0
 11
759.31826445548973
 21
633.08889876454123
 31
0.0
  0
LINE
  5
1940B
  8
HATCH
 10
619.8842816334718
 20
387.58889876454123
 30
0.0
 11
650.14738174554077
 21
417.85199887661008
 31
0.0
  0
LINE
  5
1940C
  8
HATCH
 10
731.39738174554077
 20
499.1019988766102
 30
0.0
 11
837.64738174554066
 21
605.35199887660917
 31
0.0
  0
LINE
  5
1940D
  8
HATCH
 10
725.95029881145365
 20
387.58889876454123
 30
0.0
 11
837.64738174554032
 21
499.28598169862738
 31
0.0
  0
LINE
  5
1940E
  8
HATCH
 10
832.01631598943629
 20
387.58889876454123
 30
0.0
 11
837.64738174553975
 21
393.21996452064519
 31
0.0
  0
INSERT
  5
19411
  8
0
  2
*U25
 10
0.0
 20
0.0
 30
0.0
1001
ACAD
1000
DSTYLE
1002
{
1070
   140
1040
30.0
1070
   144
1040
0.5
1070
   147
1040
15.0
1070
    42
1040
10.0
1070
    44
1040
10.0
1070
    43
1040
60.0
1070
    41
1040
20.0
1002
}
  0
INSERT
  5
19414
  8
0
  2
*U26
 10
0.0
 20
0.0
 30
0.0
1001
ACAD
1000
DSTYLE
1002
{
1070
   140
1040
30.0
1070
   144
1040
0.5
1070
   147
1040
15.0
1070
    42
1040
10.0
1070
    44
1040
10.0
1070
    43
1040
60.0
1070
    41
1040
20.0
1002
}
  0
LINE
  5
19419
  8
SJC
 10
619.64738174553975
 20
2282.5888987645399
 30
0.0
 11
755.6473817455435
 21
2282.5888987645412
 31
0.0
  0
CIRCLE
  5
1941A
  8
SJC
 10
687.64738174554077
 20
2597.2788794709109
 30
0.0
 40
43.75
  0
LINE
  5
1941B
  8
SJC
 10
643.89738174553975
 20
2327.5888987645421
 30
0.0
 11
643.89738174553975
 21
2287.5888987645412
 31
0.0
  0
LINE
  5
1941C
  8
SJC
 10
731.39738174554032
 20
2327.5888987645421
 30
0.0
 11
731.39738174554032
 21
2287.5888987645412
 31
0.0
  0
LINE
  5
1941E
  8
HATCH
 10
643.89738174554077
 20
2327.5888987645421
 30
0.0
 11
731.39738174553975
 21
2327.5888987645421
 31
0.0
  0
LINE
  5
1941F
  8
HATCH
 10
731.39738174553975
 20
2327.5888987645421
 30
0.0
 11
731.39738174554032
 21
2287.5888987645412
 31
0.0
  0
LINE
  5
19420
  8
HATCH
 10
731.39738174554032
 20
2287.5888987645412
 30
0.0
 11
643.89738174553975
 21
2287.5888987645412
 31
0.0
  0
LINE
  5
19421
  8
HATCH
 10
643.89738174553975
 20
2287.5888987645412
 30
0.0
 11
643.89738174553895
 21
2327.5888987645412
 31
0.0
  0
LINE
  5
19422
  8
SJC
 10
619.64738174554168
 20
1782.588898764541
 30
0.0
 11
755.64738174554157
 21
1782.588898764541
 31
0.0
  0
LINE
  5
19423
  8
SJC
 10
612.64738174553975
 20
2275.5888987645412
 30
0.0
 11
612.64738174554248
 21
1789.588898764541
 31
0.0
  0
LINE
  5
19424
  8
SJC
 10
762.64738174554338
 20
2275.5888987645412
 30
0.0
 11
762.64738174554077
 21
1789.588898764541
 31
0.0
  0
LINE
  5
19425
  8
HASEN
 10
650.14738174554077
 20
1787.588898764541
 30
0.0
 11
725.14738174554077
 21
1787.5888987645401
 31
0.0
  0
LINE
  5
19426
  8
SJC
 10
607.64738174553975
 20
2275.5888987645412
 30
0.0
 11
607.64738174554168
 21
1789.588898764541
 31
0.0
  0
ARC
  5
19427
  8
SJC
 10
619.64738174553975
 20
2275.5888987645412
 30
0.0
 40
12.0
 50
90.0
 51
180.0
  0
ARC
  5
19428
  8
SJC
 10
619.64738174553975
 20
2275.5888987645412
 30
0.0
 40
7.0
 50
90.0
 51
180.0
  0
LINE
  5
19429
  8
SJC
 10
767.6473817455435
 20
2275.5888987645412
 30
0.0
 11
767.64738174554157
 21
1789.588898764541
 31
0.0
  0
ARC
  5
1942A
  8
SJC
 10
755.64738174554157
 20
1789.588898764541
 30
0.0
 40
12.0
 50
270.0
 51
0.0
  0
ARC
  5
1942B
  8
SJC
 10
755.64738174554157
 20
1789.588898764541
 30
0.0
 40
7.0
 50
270.0
 51
0.0
  0
ARC
  5
1942C
  8
SJC
 10
755.6473817455435
 20
2275.5888987645412
 30
0.0
 40
12.0
 50
0.0
 51
90.0
  0
ARC
  5
1942D
  8
SJC
 10
755.6473817455435
 20
2275.5888987645412
 30
0.0
 40
7.0
 50
0.0
 51
90.0
  0
ARC
  5
1942E
  8
SJC
 10
619.64738174554168
 20
1789.588898764541
 30
0.0
 40
12.0
 50
180.0
 51
270.0
  0
ARC
  5
1942F
  8
SJC
 10
619.64738174554168
 20
1789.588898764541
 30
0.0
 40
7.0
 50
180.0
 51
270.0
  0
LINE
  5
19430
  8
SJC
 10
755.6473817455435
 20
2287.5888987645412
 30
0.0
 11
619.64738174553975
 21
2287.5888987645412
 31
0.0
  0
LINE
  5
19431
  8
SJC
 10
755.64738174554157
 20
1777.588898764541
 30
0.0
 11
687.64738174554077
 21
1777.588898764541
 31
0.0
  0
LINE
  5
19432
  8
SJC
 10
687.64738174554077
 20
1777.588898764541
 30
0.0
 11
619.64738174554168
 21
1777.588898764541
 31
0.0
  0
DIMENSION
  5
19433
  8
SUNPOU
  2
*D8
 10
387.68044119141251
 20
2287.5888987645412
 30
0.0
 11
360.68044119141211
 21
1537.588898764541
 31
0.0
 70
     0
 13
460.11334604726437
 23
787.58889876454123
 33
0.0
 14
619.64738174553963
 24
2287.5888987645412
 34
0.0
 50
90.0
1001
ACAD
1000
DSTYLE
1002
{
1070
   287
1070
     5
1070
    40
1040
10.0
1070
    41
1040
2.0
1070
    42
1040
1.0
1070
    43
1040
6.0
1070
    44
1040
1.0
1070
    73
1070
     0
1070
    74
1070
     0
1070
    77
1070
     1
1070
    78
1070
     8
1070
   140
1040
3.0
1070
   147
1040
1.1999999999999991
1070
   172
1070
     1
1070
   179
1070
     2
1070
   271
1070
     2
1070
   279
1070
     2
1070
   340
1005
55
1002
}
  0
DIMENSION
  5
19434
  8
SUNPOU
  2
*D9
 10
468.67743059030698
 20
1777.588898764541
 30
0.0
 11
441.6774305903067
 21
2032.588898764541
 31
0.0
 70
     0
 13
619.64738174553963
 23
2287.5888987645412
 33
0.0
 14
619.64738174554145
 24
1777.588898764541
 34
0.0
 50
90.0
1001
ACAD
1000
DSTYLE
1002
{
1070
   287
1070
     5
1070
    40
1040
10.0
1070
    41
1040
2.0
1070
    42
1040
1.0
1070
    43
1040
6.0
1070
    44
1040
1.0
1070
    73
1070
     0
1070
    74
1070
     0
1070
    77
1070
     1
1070
    78
1070
     8
1070
   140
1040
3.0
1070
   147
1040
1.1999999999999991
1070
   172
1070
     1
1070
   179
1070
     2
1070
   271
1070
     2
1070
   279
1070
     2
1070
   340
1005
55
1002
}
  0
LINE
  5
19435
  8
CENTER
 10
687.64738174554077
 20
2533.2340744886792
 30
0.0
 11
687.64738174554077
 21
2653.0288794709109
 31
0.0
  0
LINE
  5
19436
  8
SJC
 10
686.64738174554066
 20
2544.7788794701692
 30
0.0
 11
686.64738174554066
 21
2553.5403095354418
 31
0.0
  0
LINE
  5
19437
  8
SJC
 10
688.64738174554066
 20
2544.7788794701692
 30
0.0
 11
688.64738174554066
 21
2553.5403095354418
 31
0.0
  0
LINE
  5
19438
  8
CENTER
 10
743.39738174553804
 20
2597.2788794709109
 30
0.0
 11
631.89738174554066
 21
2597.2788794709109
 31
0.0
  0
LINE
  5
19439
  8
SJC
 10
607.64738174554077
 20
2546.7788794701678
 30
0.0
 11
607.64738174554077
 21
2548.7788794701678
 31
0.0
  0
ARC
  5
1943A
  8
SJC
 10
609.64738174553975
 20
2546.7788794701678
 30
0.0
 40
2.0
 50
180.0
 51
270.0
  0
ARC
  5
1943B
  8
SJC
 10
609.64738174554066
 20
2548.7788794701678
 30
0.0
 40
2.0
 50
90.0
 51
180.0
  0
LINE
  5
1943C
  8
SJC
 10
609.89738174554168
 20
2550.7788794701678
 30
0.0
 11
609.64738174554157
 21
2550.7788794701678
 31
0.0
  0
ARC
  5
1943D
  8
SJC
 10
765.64738174553975
 20
2548.7788794701678
 30
0.0
 40
2.0
 50
0.0
 51
90.0
  0
LINE
  5
1943E
  8
SJC
 10
765.64738174554168
 20
2544.7788794701701
 30
0.0
 11
609.64738174554066
 21
2544.7788794701692
 31
0.0
  0
ARC
  5
1943F
  8
SJC
 10
765.64738174554066
 20
2546.7788794701692
 30
0.0
 40
2.0
 50
270.0
 51
0.0
  0
LINE
  5
19441
  8
SJC
 10
767.64738174554157
 20
2546.7788794701692
 30
0.0
 11
767.64738174554066
 21
2548.7788794701678
 31
0.0
  0
LINE
  5
19442
  8
SJC
 10
636.89738174553975
 20
2605.2788794709058
 30
0.0
 11
636.89738174554259
 21
2553.7788794701692
 31
0.0
  0
LINE
  5
19443
  8
SJC
 10
738.39738174553804
 20
2605.2788794709072
 30
0.0
 11
738.39738174553895
 21
2553.7788794701692
 31
0.0
  0
ARC
  5
19444
  8
SJC
 10
741.39738174553895
 20
2553.7788794701692
 30
0.0
 40
3.0
 50
180.0
 51
270.0
  0
LINE
  5
19445
  8
SJC
 10
741.39738174553895
 20
2550.7788794701678
 30
0.0
 11
765.64738174554066
 21
2550.7788794701678
 31
0.0
  0
LINE
  5
19446
  8
SJC
 10
643.89738174553975
 20
2607.2788794709072
 30
0.0
 11
643.89738174553975
 21
2597.2788794709099
 31
0.0
  0
LINE
  5
19447
  8
SJC
 10
731.39738174553895
 20
2607.2788794709072
 30
0.0
 11
731.39738174553895
 21
2597.2788794709109
 31
0.0
  0
LINE
  5
19450
  8
SJC
 10
736.39738174553804
 20
2607.2788794709072
 30
0.0
 11
731.39738174553895
 21
2607.2788794709072
 31
0.0
  0
ARC
  5
19451
  8
SJC
 10
736.39738174553895
 20
2605.2788794709072
 30
0.0
 40
2.0
 50
0.0
 51
90.0
  0
LINE
  5
19452
  8
SJC
 10
643.89738174553975
 20
2607.2788794709072
 30
0.0
 11
638.89738174553975
 21
2607.2788794709058
 31
0.0
  0
ARC
  5
19453
  8
SJC
 10
638.89738174554077
 20
2605.2788794709058
 30
0.0
 40
2.0
 50
90.0
 51
180.0
  0
ARC
  5
19454
  8
SJC
 10
633.8973817455435
 20
2553.7788794701692
 30
0.0
 40
3.0
 50
270.0
 51
0.0
  0
LINE
  5
19455
  8
SJC
 10
633.8973817455435
 20
2550.7788794701678
 30
0.0
 11
609.89738174554168
 21
2550.7788794701678
 31
0.0
  0
ARC
  5
1945A
  8
SJC
 10
687.64738174554077
 20
2597.2788794709109
 30
0.0
 40
43.750000000000227
 50
180.0
 51
0.0
  0
DIMENSION
  5
19465
  8
SUNPOU
  2
*D10
 10
767.64738174554316
 20
2441.5652057546758
 30
0.0
 11
687.64738174554145
 21
2468.5652057546758
 31
0.0
 70
     0
 13
607.64738174553963
 23
2275.5888987645412
 33
0.0
 14
767.64738174554316
 24
2275.5888987645412
 34
0.0
1001
ACAD
1000
DSTYLE
1002
{
1070
   287
1070
     5
1070
    40
1040
10.0
1070
    41
1040
2.0
1070
    42
1040
1.0
1070
    43
1040
6.0
1070
    44
1040
1.0
1070
    73
1070
     0
1070
    74
1070
     0
1070
    77
1070
     1
1070
    78
1070
     8
1070
   140
1040
3.0
1070
   147
1040
1.1999999999999991
1070
   172
1070
     1
1070
   179
1070
     2
1070
   271
1070
     2
1070
   279
1070
     2
1070
   340
1005
55
1002
}
  0
DIMENSION
  5
1946B
  8
SUNPOU
  2
*D11
 10
233.93867437074709
 20
387.58889876454128
 30
0.0
 11
206.93867437074701
 21
587.58889876454134
 31
0.0
 70
     0
 13
460.11334604726437
 23
787.58889876454123
 33
0.0
 14
487.64738174554049
 24
387.58889876454123
 34
0.0
 50
90.0
1001
ACAD
1000
DSTYLE
1002
{
1070
   287
1070
     5
1070
    40
1040
10.0
1070
    41
1040
2.0
1070
    42
1040
1.0
1070
    43
1040
6.0
1070
    44
1040
1.0
1070
    73
1070
     0
1070
    74
1070
     0
1070
    77
1070
     1
1070
    78
1070
     8
1070
   140
1040
3.0
1070
   147
1040
1.1999999999999991
1070
   172
1070
     1
1070
   179
1070
     2
1070
   271
1070
     2
1070
   279
1070
     2
1070
   340
1005
55
1002
}
  0
LINE
  5
1946D
  8
CENTER
 10
602.64738174554066
 20
637.58889876454123
 30
0.0
 11
772.64738174554066
 21
637.58889876454123
 31
0.0
  0
LINE
  5
1946E
  8
SJC2
 10
612.64738174554077
 20
633.08889876454157
 30
0.0
 11
762.64738174554077
 21
633.08889876454123
 31
0.0
  0
LINE
  5
1946F
  8
SJC2
 10
612.64738174554077
 20
642.08889876454157
 30
0.0
 11
762.64738174554077
 21
642.08889876454123
 31
0.0
  0
LINE
  5
19470
  8
SJC
 10
643.89738174554077
 20
487.58889876454123
 30
0.0
 11
731.39738174554077
 21
487.58889876454123
 31
0.0
  0
DIMENSION
  5
19478
  8
SUNPOU
  2
*D12
 10
837.64738174554054
 20
232.66611865349751
 30
0.0
 11
687.64738174554054
 21
259.66611865349751
 31
0.0
 70
     0
  1
□<>
 13
537.64738174554054
 23
387.58889876454123
 33
0.0
 14
837.64738174554054
 24
387.58889876454123
 34
0.0
1001
ACAD
1000
DSTYLE
1002
{
1070
   287
1070
     5
1070
    40
1040
10.0
1070
    41
1040
2.0
1070
    42
1040
1.0
1070
    43
1040
6.0
1070
    44
1040
1.0
1070
    73
1070
     0
1070
    74
1070
     0
1070
    77
1070
     1
1070
    78
1070
     8
1070
   140
1040
3.0
1070
   147
1040
1.1999999999999991
1070
   172
1070
     1
1070
   179
1070
     2
1070
   271
1070
     2
1070
   279
1070
     2
1070
   340
1005
55
1002
}
  0
LINE
  5
19479
  8
CENTER
 10
1416.8632148796351
 20
2367.5888987645349
 30
0.0
 11
1416.8632148796351
 21
277.58889876454123
 31
0.0
  0
LINE
  5
1947A
  8
SJC
 10
1379.3632148796351
 20
487.58889876454123
 30
0.0
 11
1379.3632148796351
 21
387.58889876454123
 31
0.0
  0
LINE
  5
1947B
  8
SJC
 10
1454.3632148796351
 20
487.58889876454128
 30
0.0
 11
1454.3632148796351
 21
387.58889876454128
 31
0.0
  0
LINE
  5
1947E
  8
SJC
 10
1460.6132148796351
 20
2327.5888987645421
 30
0.0
 11
1460.6132148796351
 21
487.58889876454123
 31
0.0
1001
ACAD
1000
ASC_BOUNDS
1002
{
1070
    19
1005
0
1002
}
  0
LINE
  5
1947F
  8
SJC
 10
1373.1132148796351
 20
1777.5888987645039
 30
0.0
 11
1373.1132148796351
 21
487.58889876454123
 31
0.0
1001
ACAD
1000
ASC_BOUNDS
1002
{
1070
    19
1005
0
1002
}
  0
LINE
  5
19480
  8
SJC
 10
1460.6132148796351
 20
787.58889876454123
 30
0.0
 11
1705.367681729052
 21
787.58889876454123
 31
0.0
1001
ACAD
1000
ASC_BOUNDS
1002
{
1070
    19
1005
0
1002
}
  0
LINE
  5
19482
  8
SJC
 10
1216.8632148796351
 20
387.58889876454123
 30
0.0
 11
1616.8632148796351
 21
387.58889876454123
 31
0.0
1001
ACAD
1000
ASC_BOUNDS
1002
{
1070
    19
1005
0
1005
0
1005
0
1002
}
  0
LINE
  5
19483
  8
SJC
 10
1189.329179181359
 20
787.58889876454123
 30
0.0
 11
1373.1132148796351
 21
787.58889876454123
 31
0.0
1001
ACAD
1000
ASC_BOUNDS
1002
{
1070
    19
1005
0
1002
}
  0
LINE
  5
19484
  8
SJC
 10
1373.1132148796351
 20
2327.5888987645421
 30
0.0
 11
1460.6132148796351
 21
2327.5888987645421
 31
0.0
  0
ARC
  5
1948E
  8
SJC
 10
1416.8632148796351
 20
2289.7373362645212
 30
0.0
 40
57.851562500013678
 50
40.865657358811269
 51
139.13434264118931
  0
INSERT
  5
1948F
  8
SJC
  2
GL
 10
1621.7644775226031
 20
787.30926014679335
 30
0.0
 41
10.0
 42
10.0
 43
10.0
  0
LINE
  5
19490
  8
SJC
 10
1566.8632148796351
 20
787.58889876454123
 30
0.0
 11
1566.8632148796351
 21
387.58889876454123
 31
0.0
1001
ACAD
1000
ASC_BOUNDS
1002
{
1070
    19
1005
0
1002
}
  0
LINE
  5
19491
  8
SJC
 10
1266.8632148796351
 20
787.58889876454123
 30
0.0
 11
1266.8632148796351
 21
387.58889876454123
 31
0.0
1001
ACAD
1000
ASC_BOUNDS
1002
{
1070
    19
1005
0
1002
}
  0
LINE
  5
19492
  8
HATCH
 10
1266.8632148796351
 20
782.64907618853795
 30
0.0
 11
1271.8030374556381
 21
787.58889876454123
 31
0.0
  0
LINE
  5
19493
  8
HATCH
 10
1266.8632148796351
 20
676.5830590105561
 30
0.0
 11
1372.3132148796351
 21
782.03305901055592
 31
0.0
  0
LINE
  5
19494
  8
HATCH
 10
1266.8632148796351
 20
570.5170418325738
 30
0.0
 11
1373.1132148796351
 21
676.7670418325738
 31
0.0
  0
LINE
  5
19495
  8
HATCH
 10
1461.413214879635
 20
765.06704183257443
 30
0.0
 11
1483.935071811602
 21
787.58889876454123
 31
0.0
  0
LINE
  5
19496
  8
HATCH
 10
1266.8632148796351
 20
464.45102465459189
 30
0.0
 11
1373.1132148796351
 21
570.70102465459195
 31
0.0
  0
LINE
  5
19497
  8
HATCH
 10
1460.6132148796351
 20
658.2010246545924
 30
0.0
 11
1566.8632148796351
 21
764.45102465459138
 31
0.0
  0
LINE
  5
19498
  8
HATCH
 10
1296.0671061675671
 20
387.58889876454123
 30
0.0
 11
1379.3632148796351
 21
470.88500747660942
 31
0.0
  0
LINE
  5
19499
  8
HATCH
 10
1460.6132148796351
 20
552.13500747660964
 30
0.0
 11
1566.8632148796351
 21
658.38500747660964
 31
0.0
  0
LINE
  5
1949A
  8
HATCH
 10
1454.3632148796351
 20
439.81899029862802
 30
0.0
 11
1566.8632148796351
 21
552.3189902986278
 31
0.0
  0
LINE
  5
1949B
  8
HATCH
 10
1508.199140523531
 20
387.58889876454123
 30
0.0
 11
1566.8632148796351
 21
446.25297312064549
 31
0.0
  0
LINE
  5
1949C
  8
HATCH
 10
1266.8632148796351
 20
764.97140668853808
 30
0.0
 11
1289.480706955638
 21
787.58889876454123
 31
0.0
  0
LINE
  5
1949D
  8
HATCH
 10
1266.8632148796351
 20
658.90538951055623
 30
0.0
 11
1372.3132148796351
 21
764.35538951055605
 31
0.0
  0
LINE
  5
1949E
  8
HATCH
 10
1266.8632148796351
 20
552.83937233257427
 30
0.0
 11
1373.1132148796351
 21
659.08937233257348
 31
0.0
  0
LINE
  5
1949F
  8
HATCH
 10
1461.413214879635
 20
747.389372332574
 30
0.0
 11
1501.6127413116019
 21
787.58889876454123
 31
0.0
  0
LINE
  5
194A0
  8
HATCH
 10
1266.8632148796351
 20
446.77335515459202
 30
0.0
 11
1373.1132148796351
 21
553.02335515459163
 31
0.0
  0
LINE
  5
194A1
  8
HATCH
 10
1460.6132148796351
 20
640.52335515459208
 30
0.0
 11
1566.8632148796351
 21
746.77335515459163
 31
0.0
  0
LINE
  5
194A2
  8
HATCH
 10
1313.744775667566
 20
387.58889876454123
 30
0.0
 11
1379.3632148796351
 21
453.20733797660961
 31
0.0
  0
LINE
  5
194A3
  8
HATCH
 10
1460.6132148796351
 20
534.45733797660989
 30
0.0
 11
1566.8632148796351
 21
640.70733797660978
 31
0.0
  0
LINE
  5
194A4
  8
HATCH
 10
1454.3632148796351
 20
422.14132079862861
 30
0.0
 11
1566.8632148796351
 21
534.64132079862736
 31
0.0
  0
LINE
  5
194A5
  8
HATCH
 10
1525.87681002353
 20
387.58889876454123
 30
0.0
 11
1566.8632148796351
 21
428.57530362064512
 31
0.0
  0
LINE
  5
194A6
  8
HATCH
 10
1266.8632148796351
 20
747.29373708853825
 30
0.0
 11
1307.1583765556379
 21
787.58889876454123
 31
0.0
  0
LINE
  5
194A7
  8
HATCH
 10
1266.8632148796351
 20
641.22771991055652
 30
0.0
 11
1372.3132148796351
 21
746.67771991055588
 31
0.0
  0
LINE
  5
194A8
  8
HATCH
 10
1266.8632148796351
 20
535.16170273257364
 30
0.0
 11
1373.1132148796351
 21
641.41170273257387
 31
0.0
  0
LINE
  5
194A9
  8
HATCH
 10
1461.413214879635
 20
729.71170273257394
 30
0.0
 11
1519.2904109116021
 21
787.58889876454123
 31
0.0
  0
LINE
  5
194AA
  8
HATCH
 10
1266.8632148796351
 20
429.0956855545918
 30
0.0
 11
1373.1132148796351
 21
535.34568555459214
 31
0.0
  0
LINE
  5
194AB
  8
HATCH
 10
1460.6132148796351
 20
622.84568555459225
 30
0.0
 11
1566.8632148796351
 21
729.0956855545918
 31
0.0
  0
LINE
  5
194AC
  8
HATCH
 10
1331.422445267566
 20
387.58889876454123
 30
0.0
 11
1379.3632148796351
 21
435.52966837660898
 31
0.0
  0
LINE
  5
194AD
  8
HATCH
 10
1460.6132148796351
 20
516.77966837660995
 30
0.0
 11
1566.8632148796351
 21
623.02966837660961
 31
0.0
  0
LINE
  5
194AE
  8
HATCH
 10
1454.3632148796351
 20
404.46365119862838
 30
0.0
 11
1566.8632148796351
 21
516.9636511986273
 31
0.0
  0
LINE
  5
194AF
  8
HATCH
 10
1543.5544796235311
 20
387.58889876454123
 30
0.0
 11
1566.8632148796351
 21
410.8976340206454
 31
0.0
  0
LINE
  5
194B0
  8
HATCH
 10
1266.8632148796351
 20
729.6160675885385
 30
0.0
 11
1324.836046055638
 21
787.58889876454123
 31
0.0
  0
LINE
  5
194B1
  8
HATCH
 10
1266.8632148796351
 20
623.55005041055608
 30
0.0
 11
1372.3132148796351
 21
729.0000504105559
 31
0.0
  0
LINE
  5
194B2
  8
HATCH
 10
1266.8632148796351
 20
517.48403323257389
 30
0.0
 11
1373.1132148796351
 21
623.73403323257389
 31
0.0
  0
LINE
  5
194B3
  8
HATCH
 10
1461.413214879635
 20
712.03403323257396
 30
0.0
 11
1536.9680804116019
 21
787.58889876454123
 31
0.0
  0
LINE
  5
194B4
  8
HATCH
 10
1266.8632148796351
 20
411.41801605459199
 30
0.0
 11
1373.1132148796351
 21
517.66801605459159
 31
0.0
  0
LINE
  5
194B5
  8
HATCH
 10
1460.6132148796351
 20
605.16801605459216
 30
0.0
 11
1566.8632148796351
 21
711.41801605459204
 31
0.0
  0
LINE
  5
194B6
  8
HATCH
 10
1349.1001147675661
 20
387.58889876454123
 30
0.0
 11
1379.3632148796351
 21
417.85199887660963
 31
0.0
  0
LINE
  5
194B7
  8
HATCH
 10
1460.6132148796351
 20
499.1019988766098
 30
0.0
 11
1566.8632148796351
 21
605.35199887660917
 31
0.0
  0
LINE
  5
194B8
  8
HATCH
 10
1455.1661319455479
 20
387.58889876454123
 30
0.0
 11
1566.8632148796351
 21
499.28598169862738
 31
0.0
  0
LINE
  5
194B9
  8
HATCH
 10
1561.23214912353
 20
387.58889876454123
 30
0.0
 11
1566.8632148796339
 21
393.21996452064519
 31
0.0
  0
LINE
  5
194BA
  8
SJC
 10
1373.1132148796351
 20
2327.5888987645421
 30
0.0
 11
1373.1132148796351
 21
2287.5888987645412
 31
0.0
  0
LINE
  5
194BC
  8
HATCH
 10
1373.1132148796351
 20
2327.5888987645421
 30
0.0
 11
1460.6132148796339
 21
2327.5888987645421
 31
0.0
1001
ACAD
1000
ASC_BOUNDS
1002
{
1070
    19
1005
1AE28
1005
1AE1E
1002
}
  0
LINE
  5
194BD
  8
HATCH
 10
1460.6132148796339
 20
2327.5888987645421
 30
0.0
 11
1460.6132148796351
 21
2287.5888987645412
 31
0.0
1001
ACAD
1000
ASC_BOUNDS
1002
{
1070
    19
1005
1AE28
1005
1AE1E
1002
}
  0
LINE
  5
194BE
  8
HATCH
 10
1460.6132148796351
 20
2287.5888987645412
 30
0.0
 11
1373.1132148796351
 21
2287.5888987645412
 31
0.0
1001
ACAD
1000
ASC_BOUNDS
1002
{
1070
    19
1005
1AE28
1005
1AE1E
1002
}
  0
LINE
  5
194BF
  8
HATCH
 10
1373.1132148796351
 20
2287.5888987645412
 30
0.0
 11
1373.1132148796339
 21
2327.5888987645412
 31
0.0
1001
ACAD
1000
ASC_BOUNDS
1002
{
1070
    19
1005
1AE28
1005
1AE1E
1002
}
  0
LINE
  5
194C0
  8
CENTER
 10
1396.8632148796351
 20
637.58889876454123
 30
0.0
 11
1436.8632148796351
 21
637.58889876454123
 31
0.0
  0
LINE
  5
194C1
  8
SJC
 10
1373.1132148796351
 20
487.58889876454123
 30
0.0
 11
1460.6132148796351
 21
487.58889876454123
 31
0.0
  0
LINE
  5
194C4
  8
SJC
 10
1364.3632148796351
 20
2283.0888987647759
 30
0.0
 11
1364.3632148796351
 21
1779.5888987645531
 31
0.0
  0
LINE
  5
194C5
  8
SJC
 10
1370.363214879799
 20
1865.0888987647349
 30
0.0
 11
1370.363214879799
 21
1785.0888987647199
 31
0.0
  0
LINE
  5
194C6
  8
SJC
 10
1370.363214879688
 20
2282.588898764549
 30
0.0
 11
1370.363214879688
 21
2212.5888987645362
 31
0.0
  0
LINE
  5
194C7
  8
SJC
 10
1368.3632148796321
 20
2287.588898764543
 30
0.0
 11
1366.363214879633
 21
2287.588898764543
 31
0.0
  0
ARC
  5
194C8
  8
SJC
 10
1368.363214879633
 20
2285.588898764543
 30
0.0
 40
2.0
 50
0.0000000000260551
 51
90.0
  0
ARC
  5
194C9
  8
SJC
 10
1366.363214879633
 20
2285.588898764543
 30
0.0
 40
2.0
 50
90.0
 51
180.00000000001299
  0
LINE
  5
194CA
  8
SJC
 10
1364.363214879633
 20
2285.5888987645412
 30
0.0
 11
1364.3632148796351
 21
2283.0888987645412
 31
0.0
  0
LINE
  5
194CB
  8
SJC
 10
1370.363214879633
 20
2285.5888987645449
 30
0.0
 11
1370.3632148797419
 21
1779.588898764544
 31
0.0
  0
LINE
  5
194CD
  8
SJC
 10
1426.8632148803749
 20
2282.5888987645212
 30
0.0
 11
1426.863214880369
 21
2265.5011710060612
 31
0.0
  0
ARC
  5
194CE
  8
SJC
 10
1421.8632148803749
 20
2282.588898764523
 30
0.0
 40
5.0
 50
359.99999999997402
 51
90.0
  0
LINE
  5
194CF
  8
SJC
 10
1421.863214880377
 20
2287.5888987645271
 30
0.0
 11
1367.3632148803781
 21
2287.588898764543
 31
0.0
  0
LINE
  5
194D0
  8
CENTER
 10
1416.863214880374
 20
2273.0888987645249
 30
0.0
 11
1416.863214880372
 21
2264.0888987645249
 31
0.0
  0
LINE
  5
194D1
  8
CENTER
 10
1421.3632148803731
 20
2268.588898764523
 30
0.0
 11
1412.3632148803731
 21
2268.5888987645262
 31
0.0
  0
CIRCLE
  5
194D3
  8
SJC
 10
1416.8632148803731
 20
2268.5888987645249
 30
0.0
 40
4.5
  0
LINE
  5
194D4
  8
SJC
 10
1370.3632148797999
 20
1785.0888987644969
 30
0.0
 11
1370.3632148797999
 21
1865.0888987645101
 31
0.0
  0
LINE
  5
194D8
  8
SJC
 10
1423.065784744751
 20
2260.6479426247402
 30
0.0
 11
1370.3632148796439
 21
2247.588898764543
 31
0.0
  0
ARC
  5
194D9
  8
SJC
 10
1421.863214880369
 20
2265.501171006063
 30
0.0
 40
5.0
 50
283.9168774331053
 51
359.99999999997402
  0
LINE
  5
194DA
  8
SJC
 10
1368.363214879744
 20
1777.588898764501
 30
0.0
 11
1366.3632148797451
 21
1777.5888987645019
 31
0.0
  0
ARC
  5
194DB
  8
SJC
 10
1368.3632148797451
 20
1779.588898764501
 30
0.0
 40
2.0
 50
270.0
 51
359.99999999997402
  0
ARC
  5
194DC
  8
SJC
 10
1366.3632148797451
 20
1779.5888987645019
 30
0.0
 40
2.0
 50
179.99999999998701
 51
270.0
  0
LINE
  5
194DD
  8
SJC
 10
1364.3632148797451
 20
1779.588898764503
 30
0.0
 11
1364.3632148797469
 21
1782.088898764503
 31
0.0
  0
LINE
  5
194DE
  8
SJC
 10
1426.863214880487
 20
1782.588898764523
 30
0.0
 11
1426.8632148804811
 21
1799.676626522983
 31
0.0
  0
ARC
  5
194DF
  8
SJC
 10
1421.863214880487
 20
1782.588898764521
 30
0.0
 40
5.0
 50
270.0
 51
0.0000000000260551
  0
LINE
  5
194E0
  8
SJC
 10
1421.8632148804891
 20
1777.588898764518
 30
0.0
 11
1367.36321488049
 21
1777.588898764501
 31
0.0
  0
LINE
  5
194E1
  8
CENTER
 10
1416.8632148804861
 20
1792.0888987645189
 30
0.0
 11
1416.8632148804829
 21
1801.0888987645189
 31
0.0
  0
LINE
  5
194E2
  8
CENTER
 10
1421.363214880485
 20
1796.588898764521
 30
0.0
 11
1412.363214880485
 21
1796.588898764518
 31
0.0
  0
CIRCLE
  5
194E4
  8
SJC
 10
1416.863214880485
 20
1796.5888987645189
 30
0.0
 40
4.5
  0
LINE
  5
194E7
  8
SJC
 10
1423.0657847448631
 20
1804.5298549043041
 30
0.0
 11
1370.363214879756
 21
1817.588898764501
 31
0.0
  0
ARC
  5
194E8
  8
SJC
 10
1421.8632148804811
 20
1799.676626522981
 30
0.0
 40
5.0
 50
0.0000000000260551
 51
76.083122566894787
  0
LINE
  5
194ED
  8
SJC
 10
1426.863214880369
 20
2041.676626522891
 30
0.0
 11
1426.863214880369
 21
2023.501171005968
 31
0.0
  0
ARC
  5
194EE
  8
SJC
 10
1421.863214880369
 20
2023.50117100597
 30
0.0
 40
5.0
 50
283.9168774331053
 51
359.99999999997402
  0
LINE
  5
194EF
  8
CENTER
 10
1416.863214880374
 20
2037.0888987644321
 30
0.0
 11
1416.863214880372
 21
2028.0888987644321
 31
0.0
  0
LINE
  5
194F0
  8
CENTER
 10
1421.3632148803731
 20
2032.58889876443
 30
0.0
 11
1412.3632148803731
 21
2032.588898764433
 31
0.0
  0
CIRCLE
  5
194F2
  8
SJC
 10
1416.8632148803731
 20
2032.5888987644321
 30
0.0
 40
4.5
  0
LINE
  5
194F3
  8
SJC
 10
1423.0657847447501
 20
2018.647942624646
 30
0.0
 11
1370.3632148796439
 21
2005.5888987644501
 31
0.0
  0
ARC
  5
194F4
  8
SJC
 10
1421.863214880369
 20
2041.676626522891
 30
0.0
 40
5.0
 50
0.0000000000260551
 51
76.083122566894787
  0
LINE
  5
194F5
  8
SJC
 10
1423.0657847447501
 20
2046.529854904215
 30
0.0
 11
1370.3632148796439
 21
2059.5888987644098
 31
0.0
  0
CIRCLE
  5
19503
  8
SJC2
 10
1416.8632148796351
 20
637.58889876454123
 30
0.0
 40
4.5
  0
LINE
  5
19507
  8
CENTER
 10
2129.8293558282348
 20
1576.507178536792
 30
0.0
 11
2129.8293558282348
 21
206.5071785368045
 31
0.0
  0
LINE
  5
19508
  8
SUNPOU
 10
2159.8293558282348
 20
236.50717853680541
 30
0.0
 11
2159.8293558282348
 21
206.5071785368045
 31
0.0
  0
LINE
  5
19509
  8
SUNPOU
 10
2099.8293558282348
 20
266.50717853680447
 30
0.0
 11
2099.8293558282348
 21
236.50717853680541
 31
0.0
  0
LINE
  5
1950E
  8
SJC
 10
2217.3293558282348
 20
416.50717853680578
 30
0.0
 11
2217.3293558282348
 21
236.5071785368059
 31
0.0
1001
ACAD
1000
ASC_BOUNDS
1002
{
1070
    19
1005
0
1002
}
  0
LINE
  5
1950F
  8
SJC
 10
2042.3293558282351
 20
416.50717853680408
 30
0.0
 11
2042.3293558282351
 21
236.5071785368041
 31
0.0
1001
ACAD
1000
ASC_BOUNDS
1002
{
1070
    19
1005
0
1002
}
  0
LINE
  5
19510
  8
SJC
 10
2042.3293558282351
 20
1516.507178536807
 30
0.0
 11
2217.3293558282348
 21
1516.507178536807
 31
0.0
  0
ARC
  5
19511
  8
SJC
 10
2129.8293558282348
 20
1440.804053536765
 30
0.0
 40
115.7031250000273
 50
40.865657358805223
 51
139.13434264119471
  0
LINE
  5
19512
  8
SJC
 10
1993.829355828233
 20
1426.5071785368029
 30
0.0
 11
2265.8293558282398
 21
1426.507178536805
 31
0.0
  0
LINE
  5
19513
  8
SJC
 10
2042.3293558282351
 20
1516.507178536807
 30
0.0
 11
2042.3293558282351
 21
1436.507178536805
 31
0.0
  0
LINE
  5
19514
  8
SJC
 10
2217.3293558282348
 20
1516.507178536807
 30
0.0
 11
2217.3293558282348
 21
1436.5071785368041
 31
0.0
  0
LINE
  5
19516
  8
HATCH
 10
2042.3293558282351
 20
1516.507178536807
 30
0.0
 11
2217.3293558282348
 21
1516.507178536807
 31
0.0
  0
LINE
  5
19517
  8
HATCH
 10
2217.3293558282348
 20
1516.507178536807
 30
0.0
 11
2217.3293558282348
 21
1436.507178536805
 31
0.0
  0
LINE
  5
19518
  8
HATCH
 10
2217.3293558282348
 20
1436.507178536805
 30
0.0
 11
2042.3293558282351
 21
1436.507178536805
 31
0.0
  0
LINE
  5
19519
  8
HATCH
 10
2042.3293558282351
 20
1436.507178536805
 30
0.0
 11
2042.329355828233
 21
1516.507178536805
 31
0.0
  0
LINE
  5
1951A
  8
SJC
 10
1993.8293558282371
 20
426.5071785368059
 30
0.0
 11
2265.8293558282371
 21
426.50717853680629
 31
0.0
  0
LINE
  5
1951B
  8
SJC
 10
1979.829355828233
 20
1412.507178536805
 30
0.0
 11
1979.829355828238
 21
440.50717853680578
 31
0.0
  0
LINE
  5
1951C
  8
SJC
 10
2279.8293558282421
 20
1412.507178536805
 30
0.0
 11
2279.8293558282348
 21
440.50717853680629
 31
0.0
  0
LINE
  5
1951E
  8
SJC
 10
1969.829355828233
 20
1412.507178536805
 30
0.0
 11
1969.829355828236
 21
440.50717853680538
 31
0.0
  0
ARC
  5
1951F
  8
SJC
 10
1993.829355828233
 20
1412.507178536805
 30
0.0
 40
24.0
 50
90.0
 51
180.0
  0
ARC
  5
19520
  8
SJC
 10
1993.829355828233
 20
1412.507178536805
 30
0.0
 40
14.0
 50
90.0
 51
180.0
  0
LINE
  5
19521
  8
SJC
 10
2289.8293558282398
 20
1412.507178536805
 30
0.0
 11
2289.8293558282371
 21
440.50717853680578
 31
0.0
  0
ARC
  5
19522
  8
SJC
 10
2265.8293558282371
 20
440.50717853680629
 30
0.0
 40
24.0
 50
270.0
 51
0.0
  0
ARC
  5
19523
  8
SJC
 10
2265.8293558282371
 20
440.50717853680629
 30
0.0
 40
14.0
 50
270.0
 51
0.0
  0
ARC
  5
19524
  8
SJC
 10
2265.8293558282398
 20
1412.507178536805
 30
0.0
 40
24.0
 50
0.0
 51
90.0
  0
ARC
  5
19525
  8
SJC
 10
2265.8293558282398
 20
1412.507178536805
 30
0.0
 40
14.0
 50
0.0
 51
90.0
  0
ARC
  5
19526
  8
SJC
 10
1993.8293558282371
 20
440.50717853680578
 30
0.0
 40
24.0
 50
180.0
 51
270.0
  0
ARC
  5
19527
  8
SJC
 10
1993.8293558282371
 20
440.50717853680578
 30
0.0
 40
14.0
 50
180.0
 51
270.0
  0
LINE
  5
19528
  8
SJC
 10
2265.8293558282398
 20
1436.507178536805
 30
0.0
 11
1993.829355828233
 21
1436.507178536805
 31
0.0
  0
LINE
  5
19529
  8
SJC
 10
2265.8293558282371
 20
416.50717853680629
 30
0.0
 11
2129.8293558282348
 21
416.50717853680487
 31
0.0
  0
LINE
  5
1952A
  8
SUNPOU
 10
2255.8293558282389
 20
236.50717853680629
 30
0.0
 11
2159.8293558282348
 21
236.50717853680541
 31
0.0
  0
LINE
  5
1952B
  8
SJC
 10
2129.8293558282348
 20
416.50717853680487
 30
0.0
 11
1993.8293558282371
 21
416.50717853680538
 31
0.0
  0
LINE
  5
1952C
  8
CENTER
 10
2881.978662656893
 20
1576.507178536792
 30
0.0
 11
2881.978662656893
 21
206.5071785368045
 31
0.0
  0
LINE
  5
1952F
  8
SJC
 10
2969.478662656893
 20
1516.507178536807
 30
0.0
 11
2969.4786626568939
 21
236.5071785368059
 31
0.0
1001
ACAD
1000
ASC_BOUNDS
1002
{
1070
    19
1005
0
1002
}
  0
LINE
  5
19530
  8
SJC
 10
2794.478662656893
 20
416.50717853673029
 30
0.0
 11
2794.478662656893
 21
236.50717853680359
 31
0.0
1001
ACAD
1000
ASC_BOUNDS
1002
{
1070
    19
1005
0
1002
}
  0
LINE
  5
19531
  8
SJC
 10
2794.478662656893
 20
1516.507178536807
 30
0.0
 11
2969.478662656893
 21
1516.507178536807
 31
0.0
  0
ARC
  5
19532
  8
SJC
 10
2881.978662656893
 20
1440.804053536765
 30
0.0
 40
115.7031250000273
 50
40.865657358805223
 51
139.13434264119471
  0
LINE
  5
19533
  8
SJC
 10
2794.478662656893
 20
1516.507178536807
 30
0.0
 11
2794.478662656893
 21
1436.507178536805
 31
0.0
  0
LINE
  5
19535
  8
HATCH
 10
2794.478662656893
 20
1516.507178536807
 30
0.0
 11
2969.478662656893
 21
1516.507178536807
 31
0.0
1001
ACAD
1000
ASC_BOUNDS
1002
{
1070
    19
1005
1AE1D
1005
1AE1A
1002
}
  0
LINE
  5
19536
  8
HATCH
 10
2969.478662656893
 20
1516.507178536807
 30
0.0
 11
2969.478662656893
 21
1436.507178536805
 31
0.0
1001
ACAD
1000
ASC_BOUNDS
1002
{
1070
    19
1005
1AE1D
1005
1AE1A
1002
}
  0
LINE
  5
19537
  8
HATCH
 10
2969.478662656893
 20
1436.507178536805
 30
0.0
 11
2794.478662656893
 21
1436.507178536805
 31
0.0
1001
ACAD
1000
ASC_BOUNDS
1002
{
1070
    19
1005
1AE1D
1005
1AE1A
1002
}
  0
LINE
  5
19538
  8
HATCH
 10
2794.478662656893
 20
1436.507178536805
 30
0.0
 11
2794.4786626568898
 21
1516.507178536807
 31
0.0
1001
ACAD
1000
ASC_BOUNDS
1002
{
1070
    19
1005
1AE1D
1005
1AE1A
1002
}
  0
LINE
  5
19539
  8
SJC
 10
2776.978662656893
 20
1427.507178537275
 30
0.0
 11
2776.978662656893
 21
420.50717853682897
 31
0.0
  0
LINE
  5
1953A
  8
SJC
 10
2788.9786626572231
 20
591.50717853719277
 30
0.0
 11
2788.9786626572231
 21
431.50717853716372
 31
0.0
  0
LINE
  5
1953B
  8
SJC
 10
2788.9786626570012
 20
1426.5071785368209
 30
0.0
 11
2788.9786626570012
 21
1286.5071785367929
 31
0.0
  0
LINE
  5
1953C
  8
SJC
 10
2784.978662656888
 20
1436.50717853681
 30
0.0
 11
2780.978662656888
 21
1436.5071785368079
 31
0.0
  0
ARC
  5
1953D
  8
SJC
 10
2784.9786626568889
 20
1432.50717853681
 30
0.0
 40
4.0
 50
0.0000000000260551
 51
90.0
  0
ARC
  5
1953E
  8
SJC
 10
2780.9786626568889
 20
1432.5071785368079
 30
0.0
 40
4.0
 50
90.0
 51
180.00000000001299
  0
LINE
  5
1953F
  8
SJC
 10
2776.9786626568889
 20
1432.5071785368059
 30
0.0
 11
2776.978662656893
 21
1427.507178536805
 31
0.0
  0
LINE
  5
19540
  8
SJC
 10
2788.9786626568889
 20
1432.507178536812
 30
0.0
 11
2788.9786626571081
 21
420.5071785368109
 31
0.0
  0
LINE
  5
19542
  8
SJC
 10
2901.9786626583741
 20
1426.5071785367661
 30
0.0
 11
2901.9786626583609
 21
1392.331723019845
 31
0.0
  0
ARC
  5
19543
  8
SJC
 10
2891.9786626583741
 20
1426.5071785367691
 30
0.0
 40
10.0
 50
359.99999999997402
 51
90.0
  0
LINE
  5
19544
  8
SJC
 10
2891.9786626583768
 20
1436.507178536775
 30
0.0
 11
2786.9786626583791
 21
1436.5071785368091
 31
0.0
  0
LINE
  5
19545
  8
CENTER
 10
2881.9786626583718
 20
1407.507178536772
 30
0.0
 11
2881.9786626583668
 21
1389.507178536772
 31
0.0
  0
LINE
  5
19546
  8
CENTER
 10
2890.97866265837
 20
1398.5071785367691
 30
0.0
 11
2872.97866265837
 21
1398.5071785367741
 31
0.0
  0
LINE
  5
19547
  8
SJC
 10
2788.978662657224
 20
431.5071785367162
 30
0.0
 11
2788.978662657224
 21
591.5071785367436
 31
0.0
  0
LINE
  5
1954A
  8
SJC
 10
2776.978662656893
 20
1427.507178536805
 30
0.0
 11
2776.978662656893
 21
420.50717853635979
 31
0.0
  0
LINE
  5
1954B
  8
SJC
 10
2894.3838023871249
 20
1382.6252662572019
 30
0.0
 11
2788.9786626569112
 21
1356.5071785368091
 31
0.0
  0
ARC
  5
1954C
  8
SJC
 10
2891.9786626583609
 20
1392.3317230198479
 30
0.0
 40
10.0
 50
283.9168774331053
 51
359.99999999997402
  0
LINE
  5
1954D
  8
SJC
 10
2784.9786626571122
 20
416.50717853672489
 30
0.0
 11
2780.9786626571122
 21
416.50717853672671
 31
0.0
  0
ARC
  5
1954E
  8
SJC
 10
2784.9786626571131
 20
420.50717853672489
 30
0.0
 40
4.0
 50
270.0
 51
359.99999999997402
  0
ARC
  5
1954F
  8
SJC
 10
2780.9786626571131
 20
420.50717853672671
 30
0.0
 40
4.0
 50
179.99999999998701
 51
270.0
  0
LINE
  5
19550
  8
SJC
 10
2776.9786626571131
 20
420.50717853672859
 30
0.0
 11
2776.9786626571172
 21
425.50717853672899
 31
0.0
  0
LINE
  5
19551
  8
SJC
 10
2901.9786626585978
 20
426.50717853676861
 30
0.0
 11
2901.9786626585851
 21
460.68263405368953
 31
0.0
  0
ARC
  5
19552
  8
SJC
 10
2891.9786626585978
 20
426.50717853676582
 30
0.0
 40
10.0
 50
270.0
 51
0.0000000000260551
  0
LINE
  5
19553
  8
SJC
 10
2891.978662658601
 20
416.50717853675951
 30
0.0
 11
2786.9786626586028
 21
416.5071785367258
 31
0.0
  0
LINE
  5
19554
  8
CENTER
 10
2881.978662658596
 20
445.50717853676269
 30
0.0
 11
2881.9786626585901
 21
463.50717853676258
 31
0.0
  0
LINE
  5
19555
  8
CENTER
 10
2890.9786626585942
 20
454.50717853676542
 30
0.0
 11
2872.9786626585942
 21
454.50717853675991
 31
0.0
  0
LINE
  5
19558
  8
SJC
 10
2894.3838023873491
 20
470.3890908163325
 30
0.0
 11
2788.9786626571349
 21
496.50717853672529
 31
0.0
  0
ARC
  5
19559
  8
SJC
 10
2891.9786626585851
 20
460.68263405368629
 30
0.0
 40
10.0
 50
0.0000000000260551
 51
76.083122566894787
  0
LINE
  5
1955E
  8
SJC
 10
2901.9786626583609
 20
944.68263405350444
 30
0.0
 11
2901.9786626583609
 21
908.33172301965885
 31
0.0
  0
ARC
  5
1955F
  8
SJC
 10
2891.9786626583609
 20
908.33172301966249
 30
0.0
 40
10.0
 50
283.9168774331053
 51
359.99999999997402
  0
LINE
  5
19560
  8
CENTER
 10
2881.9786626583718
 20
935.50717853658625
 30
0.0
 11
2881.9786626583668
 21
917.50717853658625
 31
0.0
  0
LINE
  5
19561
  8
CENTER
 10
2890.97866265837
 20
926.50717853658352
 30
0.0
 11
2872.97866265837
 21
926.50717853658898
 31
0.0
  0
LINE
  5
19562
  8
SJC
 10
2894.3838023871249
 20
898.62526625701594
 30
0.0
 11
2788.9786626569112
 21
872.50717853662354
 31
0.0
  0
ARC
  5
19563
  8
SJC
 10
2891.9786626583609
 20
944.68263405350444
 30
0.0
 40
10.0
 50
0.0000000000260551
 51
76.083122566894787
  0
LINE
  5
19564
  8
SJC
 10
2894.3838023871249
 20
954.38909081615111
 30
0.0
 11
2788.9786626569112
 21
980.50717853654339
 31
0.0
  0
CIRCLE
  5
1956E
  8
SJC
 10
2129.8293558282348
 20
1898.9195343433471
 30
0.0
 40
86.999999999999076
  0
CIRCLE
  5
1956F
  8
SJC
 10
2129.8293558282348
 20
1898.9195343433471
 30
0.0
 40
88.999999999999091
  0
CIRCLE
  5
19570
  8
SJC
 10
2129.8293558282348
 20
1898.9195343433471
 30
0.0
 40
76.999999999999091
  0
CIRCLE
  5
19571
  8
SJC
 10
2129.8293558282348
 20
1979.9195343433471
 30
0.0
 40
0.5
  0
CIRCLE
  5
19572
  8
SJC
 10
2104.7989792838648
 20
1975.9551121632539
 30
0.0
 40
0.5
  0
CIRCLE
  5
19573
  8
SJC
 10
2117.158164159976
 20
1978.922289931553
 30
0.0
 40
0.5
  0
CIRCLE
  5
19574
  8
SJC
 10
2082.2187503925452
 20
1964.4499108877169
 30
0.0
 40
0.5
  0
CIRCLE
  5
19575
  8
SJC
 10
2093.056125349332
 20
1971.0910628026049
 30
0.0
 40
0.5
  0
CIRCLE
  5
19576
  8
SJC
 10
2072.5537065521248
 20
1956.195183619456
 30
0.0
 40
0.5
  0
CIRCLE
  5
19577
  8
SJC
 10
2206.8649336481408
 20
1873.8891577989771
 30
0.0
 40
0.5
  0
CIRCLE
  5
19578
  8
SJC
 10
2064.2989792838648
 20
1946.530139779037
 30
0.0
 40
0.5
  0
CIRCLE
  5
19579
  8
SJC
 10
2057.6578273689779
 20
1935.69276482225
 30
0.0
 40
0.5
  0
CIRCLE
  5
1957A
  8
SJC
 10
2052.7937780083289
 20
1923.949910887718
 30
0.0
 40
0.5
  0
CIRCLE
  5
1957B
  8
SJC
 10
2049.8266002400301
 20
1911.590726011606
 30
0.0
 40
0.5
  0
CIRCLE
  5
1957C
  8
SJC
 10
2048.8293558282362
 20
1898.9195343433471
 30
0.0
 40
0.5
  0
CIRCLE
  5
1957D
  8
SJC
 10
2049.8266002400301
 20
1886.2483426750889
 30
0.0
 40
0.5
  0
CIRCLE
  5
1957E
  8
SJC
 10
2052.7937780083289
 20
1873.8891577989771
 30
0.0
 40
0.5
  0
CIRCLE
  5
1957F
  8
SJC
 10
2057.6578273689779
 20
1862.146303864444
 30
0.0
 40
0.5
  0
CIRCLE
  5
19580
  8
SJC
 10
2064.2989792838648
 20
1851.3089289076579
 30
0.0
 40
0.5
  0
CIRCLE
  5
19581
  8
SJC
 10
2072.5537065521262
 20
1841.6438850672371
 30
0.0
 40
0.5
  0
CIRCLE
  5
19582
  8
SJC
 10
2082.2187503925452
 20
1833.389157798978
 30
0.0
 40
0.5
  0
CIRCLE
  5
19583
  8
SJC
 10
2093.056125349332
 20
1826.7480058840899
 30
0.0
 40
0.5
  0
CIRCLE
  5
19584
  8
SJC
 10
2104.7989792838648
 20
1821.8839565234409
 30
0.0
 40
0.5
  0
CIRCLE
  5
19585
  8
SJC
 10
2117.1581641599769
 20
1818.9167787551421
 30
0.0
 40
0.5
  0
CIRCLE
  5
19586
  8
SJC
 10
2129.8293558282348
 20
1817.919534343348
 30
0.0
 40
0.5
  0
CIRCLE
  5
19587
  8
SJC
 10
2142.5005474964942
 20
1818.9167787551421
 30
0.0
 40
0.5
  0
CIRCLE
  5
19588
  8
SJC
 10
2154.8597323726049
 20
1821.8839565234409
 30
0.0
 40
0.5
  0
CIRCLE
  5
19589
  8
SJC
 10
2166.6025863071382
 20
1826.7480058840899
 30
0.0
 40
0.5
  0
CIRCLE
  5
1958A
  8
SJC
 10
2177.4399612639249
 20
1833.389157798978
 30
0.0
 40
0.5
  0
CIRCLE
  5
1958B
  8
SJC
 10
2187.1050051043449
 20
1841.643885067238
 30
0.0
 40
0.5
  0
CIRCLE
  5
1958C
  8
SJC
 10
2195.3597323726049
 20
1851.3089289076579
 30
0.0
 40
0.5
  0
CIRCLE
  5
1958D
  8
SJC
 10
2202.0008842874922
 20
1862.1463038644449
 30
0.0
 40
0.5
  0
CIRCLE
  5
1958E
  8
SJC
 10
2209.8321114164401
 20
1886.2483426750889
 30
0.0
 40
0.5
  0
CIRCLE
  5
1958F
  8
SJC
 10
2210.8293558282339
 20
1898.9195343433471
 30
0.0
 40
0.5
  0
CIRCLE
  5
19590
  8
SJC
 10
2209.8321114164401
 20
1911.590726011606
 30
0.0
 40
0.5
  0
CIRCLE
  5
19591
  8
SJC
 10
2206.8649336481408
 20
1923.949910887718
 30
0.0
 40
0.5
  0
CIRCLE
  5
19592
  8
SJC
 10
2195.3597323726049
 20
1946.530139779037
 30
0.0
 40
0.5
  0
CIRCLE
  5
19593
  8
SJC
 10
2202.0008842874922
 20
1935.69276482225
 30
0.0
 40
0.5
  0
CIRCLE
  5
19594
  8
SJC
 10
2187.1050051043449
 20
1956.195183619456
 30
0.0
 40
0.5
  0
CIRCLE
  5
19595
  8
SJC
 10
2177.4399612639249
 20
1964.4499108877169
 30
0.0
 40
0.5
  0
CIRCLE
  5
19596
  8
SJC
 10
2166.6025863071382
 20
1971.0910628026049
 30
0.0
 40
0.5
  0
CIRCLE
  5
19597
  8
SJC
 10
2142.5005474964942
 20
1978.922289931553
 30
0.0
 40
0.5
  0
CIRCLE
  5
19598
  8
SJC
 10
2154.8597323726049
 20
1975.9551121632539
 30
0.0
 40
0.5
  0
TEXT
  5
19599
  8
MOJI2
 10
1939.9569878507409
 20
1710.628222164534
 30
0.0
 40
40.0
  1
A-A 断面図 S=1/5
 41
0.8
  7
EXT08
  0
LINE
  5
1959A
  8
SJC
 10
1926.240693278394
 20
1691.8369962181021
 30
0.0
 11
2363.2692647069662
 21
1691.8369962181021
 31
0.0
  0
TEXT
  5
1959B
  8
SUNPOU
 10
1864.1372512987709
 20
2027.858530158567
 30
0.0
 40
30.0
  1
ガラス繊維
 41
0.8
  7
EXT08
  0
TEXT
  5
1959C
  8
SUNPOU
 10
2187.853176878521
 20
2058.3835713803919
 30
0.0
 40
30.0
  1
リサイクル原料
 41
0.8
  7
EXT08
  0
INSERT
  5
1959D
  8
0
  2
*U27
 10
0.0
 20
0.0
 30
0.0
1001
ACAD
1000
DSTYLE
1002
{
1070
    41
1040
2.0
1070
    77
1070
     0
1070
    40
1040
10.0
1070
   147
1040
1.1999999999999991
1070
   176
1070
     0
1070
   177
1070
     0
1070
   178
1070
     0
1070
   179
1070
     2
1070
   271
1070
     2
1002
}
  0
INSERT
  5
1959E
  8
0
  2
*U28
 10
0.0
 20
0.0
 30
0.0
1001
ACAD
1000
DSTYLE
1002
{
1070
    41
1040
2.0
1070
    77
1070
     0
1070
    40
1040
10.0
1070
   147
1040
1.1999999999999991
1070
   176
1070
     0
1070
   177
1070
     0
1070
   178
1070
     0
1070
   179
1070
     2
1070
   271
1070
     2
1002
}
  0
TEXT
  5
1959F
  8
SUNPOU
 10
2228.377861442365
 20
2003.3981399343791
 30
0.0
 40
30.0
  1
(内層材)
 41
0.8
  7
EXT08
  0
LINE
  5
195A0
  8
SUNPOU
 10
2003.829355828231
 20
236.50717853680629
 30
0.0
 11
2099.8293558282348
 21
236.50717853680541
 31
0.0
  0
LINE
  5
195A1
  8
SUNPOU
 10
2099.8293558282348
 20
266.50717853680447
 30
0.0
 11
2159.8293558282348
 21
206.5071785368045
 31
0.0
  0
LINE
  5
195A2
  8
SUNPOU
 10
2911.978662656893
 20
236.50717853680541
 30
0.0
 11
2911.978662656893
 21
206.5071785368045
 31
0.0
  0
LINE
  5
195A3
  8
SUNPOU
 10
2851.978662656893
 20
266.50717853680447
 30
0.0
 11
2851.978662656893
 21
236.50717853680541
 31
0.0
  0
LINE
  5
195A4
  8
SUNPOU
 10
3007.9786626568971
 20
236.50717853680629
 30
0.0
 11
2911.978662656893
 21
236.50717853680541
 31
0.0
  0
LINE
  5
195A5
  8
SUNPOU
 10
2755.9786626568898
 20
236.50717853680629
 30
0.0
 11
2851.978662656893
 21
236.50717853680541
 31
0.0
  0
LINE
  5
195A6
  8
SUNPOU
 10
2851.978662656893
 20
266.50717853680447
 30
0.0
 11
2911.978662656893
 21
206.5071785368045
 31
0.0
  0
TEXT
  5
195A7
  8
SUNPOU
 10
1944.4097130482569
 20
357.36773124331188
 30
0.0
 40
30.0
  1
A
 41
0.8
  7
EXT08
  0
TEXT
  5
195A8
  8
SUNPOU
 10
2289.409713048256
 20
357.36773124331188
 30
0.0
 40
30.0
  1
A
 41
0.8
  7
EXT08
  0
LINE
  5
195A9
  8
SUNPOU
 10
2287.3293558281571
 20
312.82205533425991
 30
0.0
 11
2317.3293558281571
 21
312.82205533425991
 31
0.0
  0
LINE
  5
195AA
  8
SUNPOU
 10
2317.3293558281571
 20
312.82205533425991
 30
0.0
 11
2302.3293558281571
 21
277.8220553342598
 31
0.0
  0
LINE
  5
195AB
  8
SUNPOU
 10
2302.3293558281571
 20
277.8220553342598
 30
0.0
 11
2302.3293558281571
 21
336.9407938884533
 31
0.0
  0
LINE
  5
195AC
  8
SUNPOU
 10
2302.3293558281571
 20
336.9407938884533
 30
0.0
 11
1957.3293558281559
 21
336.9407938884533
 31
0.0
  0
LINE
  5
195AD
  8
SUNPOU
 10
1957.3293558281559
 20
336.9407938884533
 30
0.0
 11
1957.3293558281559
 21
277.8220553342598
 31
0.0
  0
LINE
  5
195AE
  8
SUNPOU
 10
1957.3293558281559
 20
277.8220553342598
 30
0.0
 11
1942.3293558281571
 21
312.82205533425991
 31
0.0
  0
LINE
  5
195AF
  8
SUNPOU
 10
1942.3293558281571
 20
312.82205533425991
 30
0.0
 11
1972.3293558281559
 21
312.82205533425991
 31
0.0
  0
TEXT
  5
195B0
  8
MOJI2
 10
2303.1977054387039
 20
101.4561788148949
 30
0.0
 40
40.0
  1
標示部詳細 S=1/5
 41
0.8
  7
EXT08
 72
     1
 11
2488.7977054387038
 21
101.4561788148949
 31
0.0
 73
     1
  0
LINE
  5
195B1
  8
MOJI2
 10
2299.8594544957082
 20
86.456178814894884
 30
0.0
 11
2699.6263558924552
 21
86.456178814894884
 31
0.0
  0
DIMENSION
  5
195B2
  8
SUNPOU
  2
*D13
 10
1890.500388950458
 20
416.5071785368055
 30
0.0
 11
1863.500388950459
 21
926.50717853680567
 31
0.0
 70
     0
 13
1993.829355828233
 23
1436.507178536805
 33
0.0
 14
1993.8293558282371
 24
416.50717853680538
 34
0.0
 50
90.0
1001
ACAD
1000
DSTYLE
1002
{
1070
   287
1070
     5
1070
   144
1040
0.5
1070
    40
1040
10.0
1070
    41
1040
2.0
1070
    42
1040
1.0
1070
    43
1040
6.0
1070
    44
1040
1.0
1070
    73
1070
     0
1070
    74
1070
     0
1070
    77
1070
     1
1070
    78
1070
     8
1070
   140
1040
3.0
1070
   147
1040
1.1999999999999991
1070
   172
1070
     1
1070
   179
1070
     2
1070
   271
1070
     2
1070
   279
1070
     2
1070
   340
1005
55
1002
}
  0
DIMENSION
  5
195B3
  8
SUNPOU
  2
*D14
 10
2289.8293558282398
 20
1599.019615007488
 30
0.0
 11
2129.8293558282371
 21
1626.019615007488
 31
0.0
 70
     0
 13
1969.829355828233
 23
1412.507178536805
 33
0.0
 14
2289.8293558282398
 24
1412.507178536805
 34
0.0
1001
ACAD
1000
DSTYLE
1002
{
1070
   287
1070
     5
1070
   144
1040
0.5
1070
    40
1040
10.0
1070
    41
1040
2.0
1070
    42
1040
1.0
1070
    43
1040
6.0
1070
    44
1040
1.0
1070
    73
1070
     0
1070
    74
1070
     0
1070
    77
1070
     1
1070
    78
1070
     8
1070
   140
1040
3.0
1070
   147
1040
1.1999999999999991
1070
   172
1070
     1
1070
   179
1070
     2
1070
   271
1070
     2
1070
   279
1070
     2
1070
   340
1005
55
1002
}
  0
DIMENSION
  5
195B6
  8
SUNPOU
  2
*D15
 10
1979.829355828236
 20
980.17885190819288
 30
0.0
 11
1949.30823992303
 21
1007.058261573733
 31
0.0
 70
   128
 13
1969.8293558282351
 23
936.50717853680555
 33
0.0
 14
1979.829355828236
 24
936.50717853680555
 34
0.0
1001
ACAD
1000
DSTYLE
1002
{
1070
   287
1070
     5
1070
   144
1040
0.5
1070
    40
1040
10.0
1070
    41
1040
2.0
1070
    42
1040
1.0
1070
    43
1040
6.0
1070
    44
1040
1.0
1070
    73
1070
     0
1070
    74
1070
     0
1070
    77
1070
     1
1070
    78
1070
     8
1070
   140
1040
3.0
1070
   147
1040
1.1999999999999991
1070
   172
1070
     1
1070
   179
1070
     2
1070
   271
1070
     2
1070
   279
1070
     2
1070
   340
1005
55
1002
}
  0
DIMENSION
  5
195B9
  8
SUNPOU
  2
*D16
 10
2776.9786626568889
 20
1545.1350931014349
 30
0.0
 11
2751.7326096840852
 21
1575.1259537178451
 31
0.0
 70
   128
 13
2788.9786626568889
 23
1432.5071785368109
 33
0.0
 14
2776.9786626568889
 24
1432.507178536805
 34
0.0
1001
ACAD
1000
DSTYLE
1002
{
1070
   287
1070
     5
1070
   144
1040
0.5
1070
    40
1040
10.0
1070
    41
1040
2.0
1070
    42
1040
1.0
1070
    43
1040
6.0
1070
    44
1040
1.0
1070
    73
1070
     0
1070
    74
1070
     0
1070
    77
1070
     1
1070
    78
1070
     8
1070
   140
1040
3.0
1070
   147
1040
1.1999999999999991
1070
   172
1070
     1
1070
   179
1070
     2
1070
   271
1070
     2
1070
   279
1070
     2
1070
   340
1005
55
1002
}
  0
LINE
  5
195BA
  8
CENTER
 10
2881.9786626583732
 20
1407.507178536772
 30
0.0
 11
2881.9786626583659
 21
1389.507178536772
 31
0.0
  0
CIRCLE
  5
195BB
  8
SJC
 10
2881.9786626583691
 20
1398.507178536772
 30
0.0
 40
9.0
  0
CIRCLE
  5
195BC
  8
SJC
 10
2881.9786626583691
 20
1398.507178536772
 30
0.0
 40
8.0
  0
LINE
  5
195BD
  8
SJC2
 10
2881.1275988285811
 20
1404.464625345282
 30
0.0
 11
2882.8297264881562
 21
1404.464625345282
 31
0.0
  0
LINE
  5
195BE
  8
SJC2
 10
2887.9361094668802
 20
1399.358242366558
 30
0.0
 11
2887.9361094668802
 21
1397.6561147069831
 31
0.0
  0
LINE
  5
195BF
  8
SJC2
 10
2876.021215849858
 20
1399.358242366558
 30
0.0
 11
2876.021215849858
 21
1397.6561147069831
 31
0.0
  0
LINE
  5
195C0
  8
SJC2
 10
2881.1275988285811
 20
1392.549731728262
 30
0.0
 11
2882.8297264881562
 21
1392.549731728262
 31
0.0
  0
ARC
  5
195C1
  8
SJC2
 10
2887.9361094668802
 20
1392.549731728262
 30
0.0
 40
5.1063829787233539
 50
90.0
 51
180.0
  0
ARC
  5
195C2
  8
SJC2
 10
2876.021215849858
 20
1392.549731728262
 30
0.0
 40
5.1063829787233539
 50
0.0
 51
90.0
  0
ARC
  5
195C3
  8
SJC2
 10
2887.9361094668802
 20
1404.464625345282
 30
0.0
 40
5.1063829787233539
 50
180.0
 51
270.0
  0
ARC
  5
195C4
  8
SJC2
 10
2876.021215849858
 20
1404.464625345282
 30
0.0
 40
5.1063829787233539
 50
270.0
 51
0.0
  0
LINE
  5
195C5
  8
CENTER
 10
2881.9786626583718
 20
935.50717853658625
 30
0.0
 11
2881.9786626583668
 21
917.50717853658625
 31
0.0
  0
LINE
  5
195C6
  8
CENTER
 10
2881.9786626583732
 20
935.50717853658625
 30
0.0
 11
2881.9786626583659
 21
917.50717853658625
 31
0.0
  0
CIRCLE
  5
195C7
  8
SJC
 10
2881.9786626583691
 20
926.50717853658614
 30
0.0
 40
9.0
  0
CIRCLE
  5
195C8
  8
SJC
 10
2881.9786626583691
 20
926.50717853658614
 30
0.0
 40
8.0
  0
LINE
  5
195C9
  8
SJC2
 10
2881.1275988285811
 20
932.46462534509635
 30
0.0
 11
2882.8297264881562
 21
932.46462534509635
 31
0.0
  0
LINE
  5
195CA
  8
SJC2
 10
2887.9361094668802
 20
927.35824236637291
 30
0.0
 11
2887.9361094668802
 21
925.65611470679778
 31
0.0
  0
LINE
  5
195CB
  8
SJC2
 10
2876.021215849858
 20
927.35824236637291
 30
0.0
 11
2876.021215849858
 21
925.65611470679778
 31
0.0
  0
LINE
  5
195CC
  8
SJC2
 10
2881.1275988285811
 20
920.54973172807615
 30
0.0
 11
2882.8297264881562
 21
920.54973172807615
 31
0.0
  0
ARC
  5
195CD
  8
SJC2
 10
2887.9361094668802
 20
920.54973172807615
 30
0.0
 40
5.1063829787233539
 50
90.0
 51
180.0
  0
ARC
  5
195CE
  8
SJC2
 10
2876.021215849858
 20
920.54973172807615
 30
0.0
 40
5.1063829787233539
 50
0.0
 51
90.0
  0
ARC
  5
195CF
  8
SJC2
 10
2887.9361094668802
 20
932.46462534509635
 30
0.0
 40
5.1063829787233539
 50
180.0
 51
270.0
  0
ARC
  5
195D0
  8
SJC2
 10
2876.021215849858
 20
932.46462534509635
 30
0.0
 40
5.1063829787233539
 50
270.0
 51
0.0
  0
LINE
  5
195D1
  8
CENTER
 10
2881.9786626600721
 20
463.50717853676258
 30
0.0
 11
2881.9786626600671
 21
445.50717853676269
 31
0.0
  0
LINE
  5
195D2
  8
CENTER
 10
2890.9786626600699
 20
454.50717853675991
 30
0.0
 11
2872.9786626600699
 21
454.50717853676542
 31
0.0
  0
LINE
  5
195D3
  8
CENTER
 10
2881.9786626600721
 20
463.50717853676258
 30
0.0
 11
2881.9786626600671
 21
445.50717853676269
 31
0.0
  0
LINE
  5
195D4
  8
CENTER
 10
2881.978662660073
 20
463.50717853676258
 30
0.0
 11
2881.9786626600649
 21
445.50717853676269
 31
0.0
  0
CIRCLE
  5
195D5
  8
SJC
 10
2881.9786626600689
 20
454.50717853676269
 30
0.0
 40
9.0
  0
CIRCLE
  5
195D6
  8
SJC
 10
2881.9786626600689
 20
454.50717853676269
 30
0.0
 40
8.0
  0
LINE
  5
195D7
  8
SJC2
 10
2881.1275988302809
 20
460.46462534527279
 30
0.0
 11
2882.8297264898561
 21
460.46462534527279
 31
0.0
  0
LINE
  5
195D8
  8
SJC2
 10
2887.9361094685801
 20
455.35824236654929
 30
0.0
 11
2887.9361094685801
 21
453.65611470697422
 31
0.0
  0
LINE
  5
195D9
  8
SJC2
 10
2876.0212158515578
 20
455.35824236654929
 30
0.0
 11
2876.0212158515578
 21
453.65611470697422
 31
0.0
  0
LINE
  5
195DA
  8
SJC2
 10
2881.1275988302809
 20
448.54973172825248
 30
0.0
 11
2882.8297264898561
 21
448.54973172825248
 31
0.0
  0
ARC
  5
195DB
  8
SJC2
 10
2887.9361094685801
 20
448.54973172825248
 30
0.0
 40
5.1063829787233539
 50
90.0
 51
180.0
  0
ARC
  5
195DC
  8
SJC2
 10
2876.0212158515578
 20
448.54973172825248
 30
0.0
 40
5.1063829787233539
 50
0.0
 51
90.0
  0
ARC
  5
195DD
  8
SJC2
 10
2887.9361094685801
 20
460.46462534527279
 30
0.0
 40
5.1063829787233539
 50
180.0
 51
270.0
  0
ARC
  5
195DE
  8
SJC2
 10
2876.0212158515578
 20
460.46462534527279
 30
0.0
 40
5.1063829787233539
 50
270.0
 51
0.0
  0
TEXT
  5
195DF
  8
MOJI
 10
3459.9976583548141
 20
2234.465333444974
 30
0.0
 40
30.0
  1
黒 色
 41
0.8
  7
EXT08
 72
     4
 11
3492.7976583548138
 21
2249.465333444974
 31
0.0
  0
TEXT
  5
195E1
  8
MOJI
 10
2622.014451985955
 20
2041.9047310381529
 30
0.0
 40
30.0
  1
固定ビス
 41
0.8
  7
EXT08
 72
     4
 11
2675.6144519859549
 21
2056.9047310381529
 31
0.0
  0
TEXT
  5
197B2
  8
SUNPOU
 10
755.97227989972725
 20
1484.137048765059
 30
0.0
 40
30.0
  1
ポリエチレン樹脂＋ガラス繊維
 41
0.8
  7
EXT08
  0
TEXT
  5
197B5
  8
SUNPOU
 10
755.97227989972725
 20
1524.722932514029
 30
0.0
 40
30.0
  1
支柱（\U+03c689\U+00d7ｔ6）
 41
0.8
  7
EXT08
  0
INSERT
  5
197E7
  8
0
  2
*U29
 10
0.0
 20
0.0
 30
0.0
1001
ACAD
1000
DSTYLE
1002
{
1070
   140
1040
30.0
1070
   144
1040
0.5
1070
   147
1040
15.0
1070
    42
1040
10.0
1070
    44
1040
10.0
1070
    43
1040
60.0
1070
    41
1040
20.0
1002
}
  0
LINE
  5
197EB
  8
SUNPOU
 10
753.49609912365031
 20
1518.9649120219169
 30
0.0
 11
1154.0854528668019
 21
1518.9649120219169
 31
0.0
1001
ACAD
1000
DSTYLE
1002
{
1070
    77
1070
     0
1070
    40
1040
10.0
1070
   147
1040
1.1999999999999991
1070
   176
1070
     0
1070
   177
1070
     0
1070
   178
1070
     0
1070
   179
1070
     2
1070
   271
1070
     2
1002
}
  0
TEXT
  5
197EC
  8
SUNPOU
 10
1530.993403573935
 20
2372.8981624854191
 30
0.0
 40
30.0
  1
ポリエチレン樹脂
 41
0.8
  7
EXT08
  0
LINE
  5
197ED
  8
SUNPOU
 10
1528.517222797858
 20
2407.7260257422781
 30
0.0
 11
1760.098339394586
 21
2407.7260257422781
 31
0.0
1001
ACAD
1000
DSTYLE
1002
{
1070
    77
1070
     0
1070
    40
1040
10.0
1070
   147
1040
1.1999999999999991
1070
   176
1070
     0
1070
   177
1070
     0
1070
   178
1070
     0
1070
   179
1070
     2
1070
   271
1070
     2
1002
}
  0
TEXT
  5
197EE
  8
SUNPOU
 10
1530.993403573935
 20
2413.4840462343891
 30
0.0
 40
30.0
  1
キャップ
 41
0.8
  7
EXT08
  0
TEXT
  5
197F9
  8
SUNPOU
 10
874.70915533797495
 20
2090.933791439681
 30
0.0
 40
30.0
  1
ＣＲゴム
 41
0.8
  7
EXT08
  0
LINE
  5
197FA
  8
SUNPOU
 10
872.23297456189812
 20
2125.7616546965392
 30
0.0
 11
1120.94131231185
 21
2125.7616546965392
 31
0.0
1001
ACAD
1000
DSTYLE
1002
{
1070
    77
1070
     0
1070
    40
1040
10.0
1070
   147
1040
1.1999999999999991
1070
   176
1070
     0
1070
   177
1070
     0
1070
   178
1070
     0
1070
   179
1070
     2
1070
   271
1070
     2
1002
}
  0
TEXT
  5
197FB
  8
SUNPOU
 10
874.70915533797495
 20
2131.519675188651
 30
0.0
 40
30.0
  1
弾性サイン板（大）
 41
0.8
  7
EXT08
  0
INSERT
  5
197FC
  8
0
  2
*U30
 10
0.0
 20
0.0
 30
0.0
1001
ACAD
1000
DSTYLE
1002
{
1070
   140
1040
30.0
1070
   144
1040
0.5
1070
   147
1040
15.0
1070
    42
1040
10.0
1070
    44
1040
10.0
1070
    43
1040
60.0
1070
    41
1040
20.0
1002
}
  0
TEXT
  5
197FD
  8
SUNPOU
 10
1562.145127545431
 20
2246.0641352699831
 30
0.0
 40
30.0
  1
カプセルレンズ型反射シート
 41
0.8
  7
EXT08
  0
LINE
  5
197FE
  8
SUNPOU
 10
1559.6689467693541
 20
2280.8919985268421
 30
0.0
 11
1938.0032679252031
 21
2280.8919985268421
 31
0.0
1001
ACAD
1000
DSTYLE
1002
{
1070
    77
1070
     0
1070
    40
1040
10.0
1070
   147
1040
1.1999999999999991
1070
   176
1070
     0
1070
   177
1070
     0
1070
   178
1070
     0
1070
   179
1070
     2
1070
   271
1070
     2
1002
}
  0
TEXT
  5
197FF
  8
SUNPOU
 10
1562.145127545431
 20
2286.6500190189531
 30
0.0
 40
30.0
  1
反射材
 41
0.8
  7
EXT08
  0
TEXT
  5
19888
  8
SUNPOU
 10
755.97227989972725
 20
924.32333233469899
 30
0.0
 40
30.0
  1
A6063S-T5
 41
0.8
  7
EXT08
  0
LINE
  5
19889
  8
SUNPOU
 10
753.49609912365031
 20
959.1511955915571
 30
0.0
 11
1016.369036365264
 21
959.1511955915571
 31
0.0
1001
ACAD
1000
DSTYLE
1002
{
1070
    77
1070
     0
1070
    40
1040
10.0
1070
   147
1040
1.1999999999999991
1070
   176
1070
     0
1070
   177
1070
     0
1070
   178
1070
     0
1070
   179
1070
     2
1070
   271
1070
     2
1002
}
  0
TEXT
  5
1988A
  8
SUNPOU
 10
755.97227989972725
 20
964.90921608366853
 30
0.0
 40
30.0
  1
芯材（\U+03c675\U+00d7ｔ2）
 41
0.8
  7
EXT08
  0
INSERT
  5
1988B
  8
0
  2
*U31
 10
0.0
 20
0.0
 30
0.0
1001
ACAD
1000
DSTYLE
1002
{
1070
   140
1040
30.0
1070
   144
1040
0.5
1070
   147
1040
15.0
1070
    42
1040
10.0
1070
    44
1040
10.0
1070
    43
1040
60.0
1070
    41
1040
20.0
1002
}
  0
LINE
  5
1988E
  8
HASEN
 10
725.14738174554077
 20
1787.588898764541
 30
0.0
 11
725.14738174554066
 21
487.58889876454111
 31
0.0
  0
LINE
  5
1988F
  8
HASEN
 10
650.14738174554077
 20
1787.588898764541
 30
0.0
 11
650.14738174554066
 21
487.58889876454111
 31
0.0
  0
LINE
  5
1989A
  8
HASEN
 10
1379.3632148796351
 20
1787.588898764541
 30
0.0
 11
1379.3632148796351
 21
487.58889876454111
 31
0.0
  0
LINE
  5
1989B
  8
HASEN
 10
1454.3632148796351
 20
1787.5888987645401
 30
0.0
 11
1454.3632148796351
 21
487.58889876454111
 31
0.0
  0
CIRCLE
  5
19901
  8
SJC
 10
1416.8632148796351
 20
2268.5888987645249
 30
0.0
 40
4.0
  0
LINE
  5
19902
  8
SJC2
 10
1416.4376829647399
 20
2271.56762216878
 30
0.0
 11
1417.2887467945279
 21
2271.56762216878
 31
0.0
  0
LINE
  5
19903
  8
SJC2
 10
1419.8419382838899
 20
2269.0144306794182
 30
0.0
 11
1419.8419382838899
 21
2268.1633668496311
 31
0.0
  0
LINE
  5
19904
  8
SJC2
 10
1413.884491475379
 20
2269.0144306794182
 30
0.0
 11
1413.884491475379
 21
2268.1633668496311
 31
0.0
  0
LINE
  5
19905
  8
SJC2
 10
1416.4376829647399
 20
2265.6101753602702
 30
0.0
 11
1417.2887467945279
 21
2265.6101753602702
 31
0.0
  0
ARC
  5
19906
  8
SJC2
 10
1419.8419382838899
 20
2265.6101753602702
 30
0.0
 40
2.5531914893616769
 50
90.0
 51
180.0
  0
ARC
  5
19907
  8
SJC2
 10
1413.884491475379
 20
2265.6101753602702
 30
0.0
 40
2.5531914893616769
 50
0.0
 51
90.0
  0
ARC
  5
19908
  8
SJC2
 10
1419.8419382838899
 20
2271.56762216878
 30
0.0
 40
2.5531914893616769
 50
180.0
 51
270.0
  0
ARC
  5
19909
  8
SJC2
 10
1413.884491475379
 20
2271.56762216878
 30
0.0
 40
2.5531914893616769
 50
270.0
 51
0.0
  0
CIRCLE
  5
1990A
  8
SJC
 10
1416.8632148788961
 20
2032.5888987644321
 30
0.0
 40
4.0
  0
LINE
  5
1990B
  8
SJC2
 10
1416.4376829640021
 20
2035.5676221686881
 30
0.0
 11
1417.2887467937901
 21
2035.5676221686881
 31
0.0
  0
LINE
  5
1990C
  8
SJC2
 10
1419.841938283151
 20
2033.0144306793261
 30
0.0
 11
1419.841938283151
 21
2032.1633668495381
 31
0.0
  0
LINE
  5
1990D
  8
SJC2
 10
1413.8844914746401
 20
2033.0144306793261
 30
0.0
 11
1413.8844914746401
 21
2032.1633668495381
 31
0.0
  0
LINE
  5
1990E
  8
SJC2
 10
1416.4376829640021
 20
2029.610175360177
 30
0.0
 11
1417.2887467937901
 21
2029.610175360177
 31
0.0
  0
ARC
  5
1990F
  8
SJC2
 10
1419.841938283151
 20
2029.610175360177
 30
0.0
 40
2.5531914893616769
 50
90.0
 51
180.0
  0
ARC
  5
19910
  8
SJC2
 10
1413.8844914746401
 20
2029.610175360177
 30
0.0
 40
2.5531914893616769
 50
0.0
 51
90.0
  0
ARC
  5
19911
  8
SJC2
 10
1419.841938283151
 20
2035.5676221686881
 30
0.0
 40
2.5531914893616769
 50
180.0
 51
270.0
  0
ARC
  5
19912
  8
SJC2
 10
1413.8844914746401
 20
2035.5676221686881
 30
0.0
 40
2.5531914893616769
 50
270.0
 51
0.0
  0
CIRCLE
  5
19913
  8
SJC
 10
1416.8632148788961
 20
1796.5888987645189
 30
0.0
 40
4.0
  0
LINE
  5
19914
  8
SJC2
 10
1416.4376829640021
 20
1799.5676221687741
 30
0.0
 11
1417.2887467937901
 21
1799.5676221687741
 31
0.0
  0
LINE
  5
19915
  8
SJC2
 10
1419.841938283151
 20
1797.014430679413
 30
0.0
 11
1419.841938283151
 21
1796.1633668496249
 31
0.0
  0
LINE
  5
19916
  8
SJC2
 10
1413.8844914746401
 20
1797.014430679413
 30
0.0
 11
1413.8844914746401
 21
1796.1633668496249
 31
0.0
  0
LINE
  5
19917
  8
SJC2
 10
1416.4376829640021
 20
1793.6101753602641
 30
0.0
 11
1417.2887467937901
 21
1793.6101753602641
 31
0.0
  0
ARC
  5
19918
  8
SJC2
 10
1419.841938283151
 20
1793.6101753602641
 30
0.0
 40
2.5531914893616769
 50
90.0
 51
180.0
  0
ARC
  5
19919
  8
SJC2
 10
1413.8844914746401
 20
1793.6101753602641
 30
0.0
 40
2.5531914893616769
 50
0.0
 51
90.0
  0
ARC
  5
1991A
  8
SJC2
 10
1419.841938283151
 20
1799.5676221687741
 30
0.0
 40
2.5531914893616769
 50
180.0
 51
270.0
  0
ARC
  5
1991B
  8
SJC2
 10
1413.8844914746401
 20
1799.5676221687741
 30
0.0
 40
2.5531914893616769
 50
270.0
 51
0.0
  0
DIMENSION
  5
19E02
  8
SUNPOU
  2
*D17
 10
731.39738174553713
 20
2378.5770522596099
 30
0.0
 11
687.64738174553804
 21
2408.2615786987681
 31
0.0
 70
   128
  1
φ89
 13
643.89738174553895
 23
2327.588898764544
 33
0.0
 14
731.39738174553713
 24
2327.5888987645458
 34
0.0
1001
ACAD
1000
DSTYLE
1002
{
1070
   287
1070
     5
1070
    40
1040
10.0
1070
    41
1040
2.0
1070
    42
1040
1.0
1070
    43
1040
6.0
1070
    44
1040
1.0
1070
    73
1070
     0
1070
    74
1070
     0
1070
    77
1070
     1
1070
    78
1070
     8
1070
   140
1040
3.0
1070
   147
1040
1.1999999999999991
1070
   172
1070
     1
1070
   179
1070
     2
1070
   271
1070
     2
1070
   279
1070
     2
1070
   340
1005
55
1002
}
  0
INSERT
  5
19E4B
  8
0
  2
*U32
 10
0.0
 20
0.0
 30
0.0
1001
ACAD
1000
DSTYLE
1002
{
1070
   140
1040
30.0
1070
   144
1040
0.5
1070
   147
1040
15.0
1070
    42
1040
10.0
1070
    44
1040
10.0
1070
    43
1040
60.0
1070
    41
1040
20.0
1002
}
  0
LINE
  5
19E4C
  8
SUNPOU
 10
438.226686468678
 20
886.48187799893014
 30
0.0
 11
556.89700559416815
 21
886.48187799893014
 31
0.0
1001
ACAD
1000
DSTYLE
1002
{
1070
    77
1070
     0
1070
    40
1040
10.0
1070
   147
1040
1.1999999999999991
1070
   176
1070
     0
1070
   177
1070
     0
1070
   178
1070
     0
1070
   179
1070
     2
1070
   271
1070
     2
1002
}
  0
TEXT
  5
19E4D
  8
SUNPOU
 10
440.702867244755
 20
892.23989849104134
 30
0.0
 40
30.0
  1
ネカセ棒
 41
0.8
  7
EXT08
  0
INSERT
  5
1A148
  8
0
  2
*U33
 10
0.0
 20
0.0
 30
0.0
1001
ACAD
1000
DSTYLE
1002
{
1070
     5
1000

1070
    40
1040
10.0
1070
    41
1040
2.0
1070
    42
1040
1.0
1070
    43
1040
6.0
1070
    44
1040
1.0
1070
    73
1070
     0
1070
    74
1070
     0
1070
    77
1070
     1
1070
    78
1070
     8
1070
   140
1040
3.0
1070
   144
1040
0.5
1070
   147
1040
1.1999999999999991
1070
   172
1070
     1
1070
   176
1070
   256
1070
   177
1070
   256
1070
   178
1070
   256
1070
   271
1070
     0
1070
   287
1070
     5
1070
   340
1005
55
1070
   342
1005
0
1002
}
  0
TEXT
  5
1A74E
  8
SUNPOU
 10
3021.89119667261
 20
1427.2867842010789
 30
0.0
 40
30.0
  1
SUS410
 41
0.8
  7
EXT08
  0
LINE
  5
1A74F
  8
SUNPOU
 10
3019.4150158965331
 20
1462.1146474579371
 30
0.0
 11
3178.643092849768
 21
1462.1146474579371
 31
0.0
1001
ACAD
1000
DSTYLE
1002
{
1070
    77
1070
     0
1070
    40
1040
10.0
1070
   147
1040
1.1999999999999991
1070
   176
1070
     0
1070
   177
1070
     0
1070
   178
1070
     0
1070
   179
1070
     2
1070
   271
1070
     2
1002
}
  0
TEXT
  5
1A750
  8
SUNPOU
 10
3028.2828573429242
 20
1467.8726679500489
 30
0.0
 40
30.0
  1
固定ビス
 41
0.8
  7
EXT08
  0
LINE
  5
1A821
  8
HATCH
 10
750.64059495548986
 20
642.08889876454123
 30
0.0
 11
837.64738174554066
 21
729.0956855545918
 31
0.0
  0
LINE
  5
1A822
  8
HATCH
 10
762.64738174554077
 20
636.41801605459204
 30
0.0
 11
837.64738174554066
 21
711.41801605459204
 31
0.0
  0
LINE
  5
1A823
  8
HATCH
 10
626.89690817750875
 20
642.08889876454145
 30
0.0
 11
643.89738174554077
 21
659.08937233257348
 31
0.0
  0
TEXT
  5
1A846
  8
MOJI
 10
3120.6854416030642
 20
2561.7388454641582
 30
0.0
 40
30.0
  1
89SPE-L-C
 41
0.8
  7
EXT08
  0
LINE
  5
1A9C2
  8
SJC
 10
1400.3632148795421
 20
2255.0225270829969
 30
0.0
 11
1400.363214879633
 21
2052.1552704459341
 31
0.0
  0
LINE
  5
1A9C3
  8
SJC
 10
1400.3632148796371
 20
2013.0225270829269
 30
0.0
 11
1400.3632148797269
 21
1810.155270446028
 31
0.0
  0
LINE
  5
1A9C4
  8
SJC
 10
2848.978662656707
 20
1371.3744351737171
 30
0.0
 11
2848.9786626568898
 21
965.63992189959038
 31
0.0
  0
LINE
  5
1A9C5
  8
SJC
 10
2848.9786626567079
 20
887.37443517353142
 30
0.0
 11
2848.9786626568898
 21
481.63992189982758
 31
0.0
  0
DIMENSION
  5
1AAC4
  8
SUNPOU
  2
*D18
 10
233.93867437074709
 20
387.58889876454128
 30
0.0
 11
206.93867437074701
 21
337.5888987645414
 31
0.0
 70
     0
 13
487.64738174554083
 23
287.58889876454123
 33
0.0
 14
477.64738174554049
 24
387.58889876454123
 34
0.0
 50
90.0
1001
ACAD
1000
DSTYLE
1002
{
1070
   287
1070
     5
1070
    40
1040
10.0
1070
    41
1040
2.0
1070
    42
1040
1.0
1070
    43
1040
6.0
1070
    44
1040
1.0
1070
    73
1070
     0
1070
    74
1070
     0
1070
    77
1070
     1
1070
    78
1070
     8
1070
   140
1040
3.0
1070
   147
1040
1.1999999999999991
1070
   172
1070
     1
1070
   179
1070
     2
1070
   271
1070
     2
1070
   279
1070
     2
1070
   340
1005
55
1002
}
  0
DIMENSION
  5
1AAD3
  8
SUNPOU
  2
*D19
 10
487.64738174554083
 20
177.33611180880141
 30
0.0
 11
687.64738174554077
 21
204.33611180880141
 31
0.0
 70
     0
  1
□400
 13
887.64738174554066
 23
287.58889876454123
 33
0.0
 14
487.64738174554083
 24
287.58889876454123
 34
0.0
1001
ACAD
1000
DSTYLE
1002
{
1070
   287
1070
     5
1070
    40
1040
10.0
1070
    41
1040
2.0
1070
    42
1040
1.0
1070
    43
1040
6.0
1070
    44
1040
1.0
1070
    73
1070
     0
1070
    74
1070
     0
1070
    77
1070
     1
1070
    78
1070
     8
1070
   140
1040
3.0
1070
   147
1040
1.1999999999999991
1070
   172
1070
     1
1070
   179
1070
     2
1070
   271
1070
     2
1070
   279
1070
     2
1070
   340
1005
55
1002
}
  0
INSERT
  5
1AE1A
  8
HATCH
  6
CONTINUOUS
  2
*X34
 10
0.0
 20
0.0
 30
0.0
1001
ACAD
1000
HATCH
1002
{
1070
    19
1000
ANSI37
1040
4.0
1040
0.0
1000
ASC_BOUNDS
1070
     1
1070
     2
1070
     4
1005
19536
1005
19535
1005
19538
1005
19537
1000
ASC_SEEDPOINT
1011
0.0
1021
0.0
1031
0.0
1021
0.0
1031
0.0
1000
R14_HATCH_DATA
1000
1AE1A
1011
1.0
1021
0.0
1031
0.0
1021
0.0
1031
0.0
1011
0.0
1021
0.0
1031
0.0
1021
1.0
1031
0.0
1011
0.0
1021
0.0
1031
0.0
1021
0.0
1031
1.0
1040
0.0
1010
0.0
1020
0.0
1030
1.0
1000
ANSI37
1070
     0
1070
     1
1071
        1
1071
        1
1071
        4
1070
     1
1040
2969.478662656893
1040
1436.507178536805
1040
2794.478662656893
1040
1436.507178536805
1070
     1
1040
2794.478662656893
1040
1436.507178536805
1040
2794.4786626568898
1040
1516.507178536807
1070
     1
1040
2794.478662656893
1040
1516.507178536807
1040
2969.478662656893
1040
1516.507178536807
1070
     1
1040
2969.478662656893
1040
1516.507178536807
1040
2969.478662656893
1040
1436.507178536805
1071
        4
1005
19537
1005
19538
1005
19535
1005
19536
1070
     0
1070
     1
1040
0.0
1040
4.0
1070
     0
1070
     2
1040
0.7853981633974483
1040
0.0
1040
0.0
1040
-8.9802561210691518
1040
8.9802561210691536
1070
     0
1040
2.3561944901923439
1040
0.0
1040
0.0
1040
-8.9802561210691536
1040
-8.9802561210691518
1070
     0
1071
        1
1040
0.0
1040
0.0
1040
0.0
1002
}
  0
INSERT
  5
1AE1D
  8
HATCH
  6
CONTINUOUS
  2
*X35
 10
0.0
 20
0.0
 30
0.0
1001
ACAD
1000
HATCH
1002
{
1070
    19
1000
ANSI37
1040
4.0
1040
0.0
1000
ASC_BOUNDS
1070
     1
1070
     2
1070
     4
1005
19536
1005
19535
1005
19538
1005
19537
1000
ASC_SEEDPOINT
1011
-752.14930682865815
1021
0.0
1031
0.0
1021
0.0
1031
0.0
1000
R14_HATCH_DATA
1000
1AE1D
1011
1.0
1021
0.0
1031
0.0
1021
0.0
1031
0.0
1011
0.0
1021
0.0
1031
0.0
1021
1.0
1031
0.0
1011
0.0
1021
0.0
1031
0.0
1021
0.0
1031
1.0
1040
0.0
1010
0.0
1020
0.0
1030
1.0
1000
ANSI37
1070
     0
1070
     1
1071
        1
1071
        1
1071
        4
1070
     1
1040
2217.3293558282348
1040
1436.507178536805
1040
2042.3293558282351
1040
1436.507178536805
1070
     1
1040
2042.3293558282351
1040
1436.507178536805
1040
2042.3293558282321
1040
1516.507178536807
1070
     1
1040
2042.3293558282351
1040
1516.507178536807
1040
2217.3293558282348
1040
1516.507178536807
1070
     1
1040
2217.3293558282348
1040
1516.507178536807
1040
2217.3293558282348
1040
1436.507178536805
1071
        4
1005
19537
1005
19538
1005
19535
1005
19536
1070
     0
1070
     1
1040
0.0
1040
4.0
1070
     0
1070
     2
1040
0.7853981633974483
1040
-752.14930682865815
1040
0.0
1040
-8.9802561210691518
1040
8.9802561210691536
1070
     0
1040
2.3561944901923439
1040
-752.14930682865815
1040
0.0
1040
-8.9802561210691536
1040
-8.9802561210691518
1070
     0
1071
        1
1040
-752.14930682865815
1040
0.0
1040
0.0
1002
}
  0
INSERT
  5
1AE1E
  8
HATCH
  6
CONTINUOUS
  2
*X36
 10
0.0
 20
0.0
 30
0.0
1001
ACAD
1000
HATCH
1002
{
1070
    19
1000
ANSI37
1040
2.0
1040
0.0
1000
ASC_BOUNDS
1070
     1
1070
     2
1070
     4
1005
194BD
1005
194BC
1005
194BF
1005
194BE
1000
ASC_SEEDPOINT
1011
0.0
1021
0.0
1031
0.0
1021
0.0
1031
0.0
1000
R14_HATCH_DATA
1000
1AE1E
1011
1.0
1021
0.0
1031
0.0
1021
0.0
1031
0.0
1011
0.0
1021
0.0
1031
0.0
1021
1.0
1031
0.0
1011
0.0
1021
0.0
1031
0.0
1021
0.0
1031
1.0
1040
0.0
1010
0.0
1020
0.0
1030
1.0
1000
ANSI37
1070
     0
1070
     1
1071
        1
1071
        1
1071
        4
1070
     1
1040
1460.6132148796351
1040
2287.5888987645412
1040
1373.1132148796351
1040
2287.5888987645412
1070
     1
1040
1373.1132148796351
1040
2287.5888987645412
1040
1373.1132148796339
1040
2327.5888987645412
1070
     1
1040
1373.1132148796351
1040
2327.5888987645421
1040
1460.6132148796339
1040
2327.5888987645421
1070
     1
1040
1460.6132148796339
1040
2327.5888987645421
1040
1460.6132148796351
1040
2287.5888987645412
1071
        4
1005
194BE
1005
194BF
1005
194BC
1005
194BD
1070
     0
1070
     1
1040
0.0
1040
2.0
1070
     0
1070
     2
1040
0.7853981633974483
1040
0.0
1040
0.0
1040
-4.490128060534575
1040
4.4901280605345759
1070
     0
1040
2.3561944901923439
1040
0.0
1040
0.0
1040
-4.4901280605345759
1040
-4.490128060534575
1070
     0
1071
        1
1040
0.0
1040
0.0
1040
0.0
1002
}
  0
INSERT
  5
1AE28
  8
HATCH
  6
CONTINUOUS
  2
*X37
 10
0.0
 20
0.0
 30
0.0
1001
ACAD
1000
HATCH
1002
{
1070
    19
1000
ANSI37
1040
2.0
1040
0.0
1000
ASC_BOUNDS
1070
     1
1070
     2
1070
     4
1005
194BD
1005
194BC
1005
194BF
1005
194BE
1000
ASC_SEEDPOINT
1011
-729.21583313409417
1021
0.0
1031
0.0
1021
0.0000000000131877
1031
0.0
1000
R14_HATCH_DATA
1000
1AE28
1011
1.0
1021
0.0
1031
0.0
1021
0.0
1031
0.0
1011
0.0
1021
0.0
1031
0.0
1021
1.0
1031
0.0
1011
0.0
1021
0.0
1031
0.0
1021
0.0
1031
1.0
1040
0.0
1010
0.0
1020
0.0
1030
1.0
1000
ANSI37
1070
     0
1070
     1
1071
        1
1071
        1
1071
        4
1070
     1
1040
731.39738174554077
1040
2287.5888987645549
1040
643.89738174554032
1040
2287.5888987645549
1070
     1
1040
643.89738174554032
1040
2287.5888987645549
1040
643.89738174553975
1040
2327.588898764554
1070
     1
1040
643.89738174554077
1040
2327.5888987645558
1040
731.39738174554032
1040
2327.5888987645558
1070
     1
1040
731.39738174554032
1040
2327.5888987645558
1040
731.39738174554077
1040
2287.5888987645549
1071
        4
1005
194BE
1005
194BF
1005
194BC
1005
194BD
1070
     0
1070
     1
1040
0.0
1040
2.0
1070
     0
1070
     2
1040
0.7853981633974483
1040
-729.21583313409417
1040
0.0000000000131877
1040
-4.490128060534575
1040
4.4901280605345759
1070
     0
1040
2.3561944901923439
1040
-729.21583313409417
1040
0.0000000000131877
1040
-4.4901280605345759
1040
-4.490128060534575
1070
     0
1071
        1
1040
-729.21583313409417
1040
0.0000000000131877
1040
0.0
1002
}
  0
DIMENSION
  5
1AE29
  8
SUNPOU
  2
*D20
 10
468.6774305903071
 20
2287.5888987645412
 30
0.0
 11
425.6774305903067
 21
2307.5888987645412
 31
0.0
 70
     0
 13
643.89738174553895
 23
2327.5888987645412
 33
0.0
 14
619.64738174553975
 24
2287.5888987645412
 34
0.0
 50
90.0
1001
ACAD
1000
DSTYLE
1002
{
1070
   287
1070
     5
1070
    40
1040
10.0
1070
    41
1040
2.0
1070
    42
1040
1.0
1070
    43
1040
6.0
1070
    44
1040
1.0
1070
    73
1070
     0
1070
    74
1070
     0
1070
    77
1070
     1
1070
    78
1070
     8
1070
   140
1040
3.0
1070
   147
1040
1.1999999999999991
1070
   172
1070
     1
1070
   179
1070
     2
1070
   271
1070
     2
1070
   279
1070
     2
1070
   340
1005
55
1002
}
  0
DIMENSION
  5
1AE38
  8
SUNPOU
  2
*D21
 10
233.93867437074709
 20
787.58889876454134
 30
0.0
 11
206.93867437074709
 21
1567.588898764538
 31
0.0
 70
     0
 13
687.64738174554077
 23
2347.5888987645349
 33
0.0
 14
460.11334604726471
 24
787.58889876454123
 34
0.0
 50
90.0
1001
ACAD
1000
DSTYLE
1002
{
1070
   287
1070
     5
1070
    40
1040
10.0
1070
    41
1040
2.0
1070
    42
1040
1.0
1070
    43
1040
6.0
1070
    44
1040
1.0
1070
    73
1070
     0
1070
    74
1070
     0
1070
    77
1070
     1
1070
    78
1070
     8
1070
   140
1040
3.0
1070
   147
1040
1.1999999999999991
1070
   172
1070
     1
1070
   179
1070
     2
1070
   271
1070
     2
1070
   279
1070
     2
1070
   340
1005
55
1002
}
  0
POLYLINE
  5
1B0A1
  8
SJC2
 10
498.42551578931096
 20
289.57177566539235
 30
0.0
 66
     1
 70
     8
  0
VERTEX
  8
SJC2
  5
1C341
 10
498.426
 20
289.572
 30
0.000000
  70
    32
  0
VERTEX
  8
SJC2
  5
1C342
 10
499.592
 20
288.976
 30
0.000000
  70
    32
  0
VERTEX
  8
SJC2
  5
1C343
 10
500.822
 20
288.499
 30
0.000000
  70
    32
  0
VERTEX
  8
SJC2
  5
1C344
 10
502.115
 20
288.142
 30
0.000000
  70
    32
  0
VERTEX
  8
SJC2
  5
1C345
 10
503.466
 20
287.904
 30
0.000000
  70
    32
  0
VERTEX
  8
SJC2
  5
1C346
 10
504.872
 20
287.788
 30
0.000000
  70
    32
  0
VERTEX
  8
SJC2
  5
1C347
 10
506.330
 20
287.793
 30
0.000000
  70
    32
  0
VERTEX
  8
SJC2
  5
1C348
 10
507.837
 20
287.918
 30
0.000000
  70
    32
  0
VERTEX
  8
SJC2
  5
1C349
 10
509.388
 20
288.165
 30
0.000000
  70
    32
  0
VERTEX
  8
SJC2
  5
1C34A
 10
510.981
 20
288.532
 30
0.000000
  70
    32
  0
VERTEX
  8
SJC2
  5
1C34B
 10
512.610
 20
289.018
 30
0.000000
  70
    32
  0
VERTEX
  8
SJC2
  5
1C34C
 10
514.273
 20
289.622
 30
0.000000
  70
    32
  0
VERTEX
  8
SJC2
  5
1C34D
 10
515.965
 20
290.343
 30
0.000000
  70
    32
  0
VERTEX
  8
SJC2
  5
1C34E
 10
517.683
 20
291.179
 30
0.000000
  70
    32
  0
VERTEX
  8
SJC2
  5
1C34F
 10
519.421
 20
292.128
 30
0.000000
  70
    32
  0
VERTEX
  8
SJC2
  5
1C350
 10
521.177
 20
293.188
 30
0.000000
  70
    32
  0
VERTEX
  8
SJC2
  5
1C351
 10
522.945
 20
294.356
 30
0.000000
  70
    32
  0
VERTEX
  8
SJC2
  5
1C352
 10
524.721
 20
295.629
 30
0.000000
  70
    32
  0
VERTEX
  8
SJC2
  5
1C353
 10
526.502
 20
297.004
 30
0.000000
  70
    32
  0
VERTEX
  8
SJC2
  5
1C354
 10
528.282
 20
298.479
 30
0.000000
  70
    32
  0
VERTEX
  8
SJC2
  5
1C355
 10
530.058
 20
300.048
 30
0.000000
  70
    32
  0
VERTEX
  8
SJC2
  5
1C356
 10
531.825
 20
301.709
 30
0.000000
  70
    32
  0
VERTEX
  8
SJC2
  5
1C357
 10
533.579
 20
303.458
 30
0.000000
  70
    32
  0
VERTEX
  8
SJC2
  5
1C358
 10
535.316
 20
305.291
 30
0.000000
  70
    32
  0
VERTEX
  8
SJC2
  5
1C359
 10
537.031
 20
307.202
 30
0.000000
  70
    32
  0
VERTEX
  8
SJC2
  5
1C35A
 10
538.721
 20
309.187
 30
0.000000
  70
    32
  0
VERTEX
  8
SJC2
  5
1C35B
 10
540.381
 20
311.243
 30
0.000000
  70
    32
  0
VERTEX
  8
SJC2
  5
1C35C
 10
542.008
 20
313.362
 30
0.000000
  70
    32
  0
VERTEX
  8
SJC2
  5
1C35D
 10
543.597
 20
315.542
 30
0.000000
  70
    32
  0
VERTEX
  8
SJC2
  5
1C35E
 10
545.145
 20
317.775
 30
0.000000
  70
    32
  0
VERTEX
  8
SJC2
  5
1C35F
 10
546.648
 20
320.058
 30
0.000000
  70
    32
  0
VERTEX
  8
SJC2
  5
1C360
 10
548.102
 20
322.384
 30
0.000000
  70
    32
  0
VERTEX
  8
SJC2
  5
1C361
 10
549.503
 20
324.748
 30
0.000000
  70
    32
  0
VERTEX
  8
SJC2
  5
1C362
 10
550.850
 20
327.143
 30
0.000000
  70
    32
  0
VERTEX
  8
SJC2
  5
1C363
 10
552.137
 20
329.565
 30
0.000000
  70
    32
  0
VERTEX
  8
SJC2
  5
1C364
 10
553.362
 20
332.008
 30
0.000000
  70
    32
  0
VERTEX
  8
SJC2
  5
1C365
 10
554.523
 20
334.465
 30
0.000000
  70
    32
  0
VERTEX
  8
SJC2
  5
1C366
 10
555.616
 20
336.931
 30
0.000000
  70
    32
  0
VERTEX
  8
SJC2
  5
1C367
 10
556.638
 20
339.400
 30
0.000000
  70
    32
  0
VERTEX
  8
SJC2
  5
1C368
 10
557.588
 20
341.865
 30
0.000000
  70
    32
  0
VERTEX
  8
SJC2
  5
1C369
 10
558.462
 20
344.322
 30
0.000000
  70
    32
  0
VERTEX
  8
SJC2
  5
1C36A
 10
559.260
 20
346.763
 30
0.000000
  70
    32
  0
VERTEX
  8
SJC2
  5
1C36B
 10
559.978
 20
349.183
 30
0.000000
  70
    32
  0
VERTEX
  8
SJC2
  5
1C36C
 10
560.616
 20
351.577
 30
0.000000
  70
    32
  0
VERTEX
  8
SJC2
  5
1C36D
 10
561.171
 20
353.938
 30
0.000000
  70
    32
  0
VERTEX
  8
SJC2
  5
1C36E
 10
561.642
 20
356.260
 30
0.000000
  70
    32
  0
VERTEX
  8
SJC2
  5
1C36F
 10
562.029
 20
358.539
 30
0.000000
  70
    32
  0
VERTEX
  8
SJC2
  5
1C370
 10
562.330
 20
360.769
 30
0.000000
  70
    32
  0
VERTEX
  8
SJC2
  5
1C371
 10
562.544
 20
362.944
 30
0.000000
  70
    32
  0
VERTEX
  8
SJC2
  5
1C372
 10
562.671
 20
365.059
 30
0.000000
  70
    32
  0
VERTEX
  8
SJC2
  5
1C373
 10
562.711
 20
367.109
 30
0.000000
  70
    32
  0
VERTEX
  8
SJC2
  5
1C374
 10
562.664
 20
369.089
 30
0.000000
  70
    32
  0
VERTEX
  8
SJC2
  5
1C375
 10
562.529
 20
370.994
 30
0.000000
  70
    32
  0
VERTEX
  8
SJC2
  5
1C376
 10
562.308
 20
372.820
 30
0.000000
  70
    32
  0
VERTEX
  8
SJC2
  5
1C377
 10
562.000
 20
374.563
 30
0.000000
  70
    32
  0
VERTEX
  8
SJC2
  5
1C378
 10
561.606
 20
376.217
 30
0.000000
  70
    32
  0
VERTEX
  8
SJC2
  5
1C379
 10
561.127
 20
377.780
 30
0.000000
  70
    32
  0
VERTEX
  8
SJC2
  5
1C37A
 10
560.565
 20
379.247
 30
0.000000
  70
    32
  0
VERTEX
  8
SJC2
  5
1C37B
 10
559.921
 20
380.614
 30
0.000000
  70
    32
  0
VERTEX
  8
SJC2
  5
1C37C
 10
559.196
 20
381.879
 30
0.000000
  70
    32
  0
VERTEX
  8
SJC2
  5
1C37D
 10
558.392
 20
383.039
 30
0.000000
  70
    32
  0
VERTEX
  8
SJC2
  5
1C37E
 10
557.511
 20
384.090
 30
0.000000
  70
    32
  0
VERTEX
  8
SJC2
  5
1C37F
 10
556.555
 20
385.031
 30
0.000000
  70
    32
  0
VERTEX
  8
SJC2
  5
1C380
 10
555.526
 20
385.858
 30
0.000000
  70
    32
  0
VERTEX
  8
SJC2
  5
1C381
 10
554.428
 20
386.570
 30
0.000000
  70
    32
  0
VERTEX
  8
SJC2
  5
1C382
 10
553.262
 20
387.165
 30
0.000000
  70
    32
  0
VERTEX
  8
SJC2
  5
1C383
 10
552.031
 20
387.643
 30
0.000000
  70
    32
  0
VERTEX
  8
SJC2
  5
1C384
 10
550.738
 20
388.000
 30
0.000000
  70
    32
  0
VERTEX
  8
SJC2
  5
1C385
 10
549.387
 20
388.238
 30
0.000000
  70
    32
  0
VERTEX
  8
SJC2
  5
1C386
 10
547.981
 20
388.354
 30
0.000000
  70
    32
  0
VERTEX
  8
SJC2
  5
1C387
 10
546.523
 20
388.349
 30
0.000000
  70
    32
  0
VERTEX
  8
SJC2
  5
1C388
 10
545.016
 20
388.224
 30
0.000000
  70
    32
  0
VERTEX
  8
SJC2
  5
1C389
 10
543.465
 20
387.977
 30
0.000000
  70
    32
  0
VERTEX
  8
SJC2
  5
1C38A
 10
541.873
 20
387.610
 30
0.000000
  70
    32
  0
VERTEX
  8
SJC2
  5
1C38B
 10
540.243
 20
387.124
 30
0.000000
  70
    32
  0
VERTEX
  8
SJC2
  5
1C38C
 10
538.580
 20
386.520
 30
0.000000
  70
    32
  0
VERTEX
  8
SJC2
  5
1C38D
 10
536.888
 20
385.799
 30
0.000000
  70
    32
  0
VERTEX
  8
SJC2
  5
1C38E
 10
535.170
 20
384.963
 30
0.000000
  70
    32
  0
VERTEX
  8
SJC2
  5
1C38F
 10
533.432
 20
384.014
 30
0.000000
  70
    32
  0
VERTEX
  8
SJC2
  5
1C390
 10
531.676
 20
382.954
 30
0.000000
  70
    32
  0
VERTEX
  8
SJC2
  5
1C391
 10
529.908
 20
381.786
 30
0.000000
  70
    32
  0
VERTEX
  8
SJC2
  5
1C392
 10
528.132
 20
380.513
 30
0.000000
  70
    32
  0
VERTEX
  8
SJC2
  5
1C393
 10
526.352
 20
379.138
 30
0.000000
  70
    32
  0
VERTEX
  8
SJC2
  5
1C394
 10
524.571
 20
377.663
 30
0.000000
  70
    32
  0
VERTEX
  8
SJC2
  5
1C395
 10
522.795
 20
376.094
 30
0.000000
  70
    32
  0
VERTEX
  8
SJC2
  5
1C396
 10
521.028
 20
374.432
 30
0.000000
  70
    32
  0
VERTEX
  8
SJC2
  5
1C397
 10
519.274
 20
372.684
 30
0.000000
  70
    32
  0
VERTEX
  8
SJC2
  5
1C398
 10
517.537
 20
370.851
 30
0.000000
  70
    32
  0
VERTEX
  8
SJC2
  5
1C399
 10
515.822
 20
368.940
 30
0.000000
  70
    32
  0
VERTEX
  8
SJC2
  5
1C39A
 10
514.132
 20
366.954
 30
0.000000
  70
    32
  0
VERTEX
  8
SJC2
  5
1C39B
 10
512.472
 20
364.899
 30
0.000000
  70
    32
  0
VERTEX
  8
SJC2
  5
1C39C
 10
510.845
 20
362.779
 30
0.000000
  70
    32
  0
VERTEX
  8
SJC2
  5
1C39D
 10
509.256
 20
360.600
 30
0.000000
  70
    32
  0
VERTEX
  8
SJC2
  5
1C39E
 10
507.708
 20
358.367
 30
0.000000
  70
    32
  0
VERTEX
  8
SJC2
  5
1C39F
 10
506.205
 20
356.084
 30
0.000000
  70
    32
  0
VERTEX
  8
SJC2
  5
1C3A0
 10
504.751
 20
353.758
 30
0.000000
  70
    32
  0
VERTEX
  8
SJC2
  5
1C3A1
 10
503.350
 20
351.394
 30
0.000000
  70
    32
  0
VERTEX
  8
SJC2
  5
1C3A2
 10
502.003
 20
348.999
 30
0.000000
  70
    32
  0
VERTEX
  8
SJC2
  5
1C3A3
 10
500.716
 20
346.577
 30
0.000000
  70
    32
  0
VERTEX
  8
SJC2
  5
1C3A4
 10
499.491
 20
344.134
 30
0.000000
  70
    32
  0
VERTEX
  8
SJC2
  5
1C3A5
 10
498.330
 20
341.677
 30
0.000000
  70
    32
  0
VERTEX
  8
SJC2
  5
1C3A6
 10
497.238
 20
339.211
 30
0.000000
  70
    32
  0
VERTEX
  8
SJC2
  5
1C3A7
 10
496.215
 20
336.742
 30
0.000000
  70
    32
  0
VERTEX
  8
SJC2
  5
1C3A8
 10
495.265
 20
334.277
 30
0.000000
  70
    32
  0
VERTEX
  8
SJC2
  5
1C3A9
 10
494.391
 20
331.820
 30
0.000000
  70
    32
  0
VERTEX
  8
SJC2
  5
1C3AA
 10
493.593
 20
329.379
 30
0.000000
  70
    32
  0
VERTEX
  8
SJC2
  5
1C3AB
 10
492.875
 20
326.959
 30
0.000000
  70
    32
  0
VERTEX
  8
SJC2
  5
1C3AC
 10
492.237
 20
324.565
 30
0.000000
  70
    32
  0
VERTEX
  8
SJC2
  5
1C3AD
 10
491.682
 20
322.204
 30
0.000000
  70
    32
  0
VERTEX
  8
SJC2
  5
1C3AE
 10
491.211
 20
319.882
 30
0.000000
  70
    32
  0
VERTEX
  8
SJC2
  5
1C3AF
 10
490.824
 20
317.603
 30
0.000000
  70
    32
  0
VERTEX
  8
SJC2
  5
1C3B0
 10
490.523
 20
315.373
 30
0.000000
  70
    32
  0
VERTEX
  8
SJC2
  5
1C3B1
 10
490.309
 20
313.198
 30
0.000000
  70
    32
  0
VERTEX
  8
SJC2
  5
1C3B2
 10
490.182
 20
311.083
 30
0.000000
  70
    32
  0
VERTEX
  8
SJC2
  5
1C3B3
 10
490.142
 20
309.033
 30
0.000000
  70
    32
  0
VERTEX
  8
SJC2
  5
1C3B4
 10
490.189
 20
307.053
 30
0.000000
  70
    32
  0
VERTEX
  8
SJC2
  5
1C3B5
 10
490.324
 20
305.147
 30
0.000000
  70
    32
  0
VERTEX
  8
SJC2
  5
1C3B6
 10
490.545
 20
303.321
 30
0.000000
  70
    32
  0
VERTEX
  8
SJC2
  5
1C3B7
 10
490.853
 20
301.579
 30
0.000000
  70
    32
  0
VERTEX
  8
SJC2
  5
1C3B8
 10
491.247
 20
299.925
 30
0.000000
  70
    32
  0
VERTEX
  8
SJC2
  5
1C3B9
 10
491.726
 20
298.362
 30
0.000000
  70
    32
  0
VERTEX
  8
SJC2
  5
1C3BA
 10
492.288
 20
296.895
 30
0.000000
  70
    32
  0
VERTEX
  8
SJC2
  5
1C3BB
 10
492.932
 20
295.528
 30
0.000000
  70
    32
  0
VERTEX
  8
SJC2
  5
1C3BC
 10
493.657
 20
294.263
 30
0.000000
  70
    32
  0
VERTEX
  8
SJC2
  5
1C3BD
 10
494.461
 20
293.103
 30
0.000000
  70
    32
  0
VERTEX
  8
SJC2
  5
1C3BE
 10
495.342
 20
292.052
 30
0.000000
  70
    32
  0
VERTEX
  8
SJC2
  5
1C3BF
 10
496.298
 20
291.111
 30
0.000000
  70
    32
  0
VERTEX
  8
SJC2
  5
1C3C0
 10
497.327
 20
290.284
 30
0.000000
  70
    32
  0
VERTEX
  8
SJC2
  5
1C3C1
 10
498.426
 20
289.572
 30
0.000000
  70
    32
  0
SEQEND
  8
SJC2
  5
1C3C2
  0
POLYLINE
  5
1B0A2
  8
SJC2
 10
560.68523048196744
 20
289.57177566539235
 30
0.0
 66
     1
 70
     8
  0
VERTEX
  8
SJC2
  5
1C3C3
 10
560.685
 20
289.572
 30
0.000000
  70
    32
  0
VERTEX
  8
SJC2
  5
1C3C4
 10
561.851
 20
288.976
 30
0.000000
  70
    32
  0
VERTEX
  8
SJC2
  5
1C3C5
 10
563.082
 20
288.499
 30
0.000000
  70
    32
  0
VERTEX
  8
SJC2
  5
1C3C6
 10
564.374
 20
288.142
 30
0.000000
  70
    32
  0
VERTEX
  8
SJC2
  5
1C3C7
 10
565.725
 20
287.904
 30
0.000000
  70
    32
  0
VERTEX
  8
SJC2
  5
1C3C8
 10
567.132
 20
287.788
 30
0.000000
  70
    32
  0
VERTEX
  8
SJC2
  5
1C3C9
 10
568.590
 20
287.793
 30
0.000000
  70
    32
  0
VERTEX
  8
SJC2
  5
1C3CA
 10
570.096
 20
287.918
 30
0.000000
  70
    32
  0
VERTEX
  8
SJC2
  5
1C3CB
 10
571.648
 20
288.165
 30
0.000000
  70
    32
  0
VERTEX
  8
SJC2
  5
1C3CC
 10
573.240
 20
288.532
 30
0.000000
  70
    32
  0
VERTEX
  8
SJC2
  5
1C3CD
 10
574.870
 20
289.018
 30
0.000000
  70
    32
  0
VERTEX
  8
SJC2
  5
1C3CE
 10
576.533
 20
289.622
 30
0.000000
  70
    32
  0
VERTEX
  8
SJC2
  5
1C3CF
 10
578.225
 20
290.343
 30
0.000000
  70
    32
  0
VERTEX
  8
SJC2
  5
1C3D0
 10
579.943
 20
291.179
 30
0.000000
  70
    32
  0
VERTEX
  8
SJC2
  5
1C3D1
 10
581.681
 20
292.128
 30
0.000000
  70
    32
  0
VERTEX
  8
SJC2
  5
1C3D2
 10
583.436
 20
293.188
 30
0.000000
  70
    32
  0
VERTEX
  8
SJC2
  5
1C3D3
 10
585.204
 20
294.356
 30
0.000000
  70
    32
  0
VERTEX
  8
SJC2
  5
1C3D4
 10
586.981
 20
295.629
 30
0.000000
  70
    32
  0
VERTEX
  8
SJC2
  5
1C3D5
 10
588.761
 20
297.004
 30
0.000000
  70
    32
  0
VERTEX
  8
SJC2
  5
1C3D6
 10
590.542
 20
298.479
 30
0.000000
  70
    32
  0
VERTEX
  8
SJC2
  5
1C3D7
 10
592.317
 20
300.048
 30
0.000000
  70
    32
  0
VERTEX
  8
SJC2
  5
1C3D8
 10
594.085
 20
301.709
 30
0.000000
  70
    32
  0
VERTEX
  8
SJC2
  5
1C3D9
 10
595.839
 20
303.458
 30
0.000000
  70
    32
  0
VERTEX
  8
SJC2
  5
1C3DA
 10
597.576
 20
305.291
 30
0.000000
  70
    32
  0
VERTEX
  8
SJC2
  5
1C3DB
 10
599.291
 20
307.202
 30
0.000000
  70
    32
  0
VERTEX
  8
SJC2
  5
1C3DC
 10
600.981
 20
309.187
 30
0.000000
  70
    32
  0
VERTEX
  8
SJC2
  5
1C3DD
 10
602.641
 20
311.243
 30
0.000000
  70
    32
  0
VERTEX
  8
SJC2
  5
1C3DE
 10
604.268
 20
313.362
 30
0.000000
  70
    32
  0
VERTEX
  8
SJC2
  5
1C3DF
 10
605.857
 20
315.542
 30
0.000000
  70
    32
  0
VERTEX
  8
SJC2
  5
1C3E0
 10
607.405
 20
317.775
 30
0.000000
  70
    32
  0
VERTEX
  8
SJC2
  5
1C3E1
 10
608.907
 20
320.058
 30
0.000000
  70
    32
  0
VERTEX
  8
SJC2
  5
1C3E2
 10
610.361
 20
322.384
 30
0.000000
  70
    32
  0
VERTEX
  8
SJC2
  5
1C3E3
 10
611.763
 20
324.748
 30
0.000000
  70
    32
  0
VERTEX
  8
SJC2
  5
1C3E4
 10
613.109
 20
327.143
 30
0.000000
  70
    32
  0
VERTEX
  8
SJC2
  5
1C3E5
 10
614.397
 20
329.565
 30
0.000000
  70
    32
  0
VERTEX
  8
SJC2
  5
1C3E6
 10
615.622
 20
332.008
 30
0.000000
  70
    32
  0
VERTEX
  8
SJC2
  5
1C3E7
 10
616.782
 20
334.465
 30
0.000000
  70
    32
  0
VERTEX
  8
SJC2
  5
1C3E8
 10
617.875
 20
336.931
 30
0.000000
  70
    32
  0
VERTEX
  8
SJC2
  5
1C3E9
 10
618.898
 20
339.400
 30
0.000000
  70
    32
  0
VERTEX
  8
SJC2
  5
1C3EA
 10
619.847
 20
341.865
 30
0.000000
  70
    32
  0
VERTEX
  8
SJC2
  5
1C3EB
 10
620.722
 20
344.322
 30
0.000000
  70
    32
  0
VERTEX
  8
SJC2
  5
1C3EC
 10
621.520
 20
346.763
 30
0.000000
  70
    32
  0
VERTEX
  8
SJC2
  5
1C3ED
 10
622.238
 20
349.183
 30
0.000000
  70
    32
  0
VERTEX
  8
SJC2
  5
1C3EE
 10
622.875
 20
351.577
 30
0.000000
  70
    32
  0
VERTEX
  8
SJC2
  5
1C3EF
 10
623.431
 20
353.938
 30
0.000000
  70
    32
  0
VERTEX
  8
SJC2
  5
1C3F0
 10
623.902
 20
356.260
 30
0.000000
  70
    32
  0
VERTEX
  8
SJC2
  5
1C3F1
 10
624.289
 20
358.539
 30
0.000000
  70
    32
  0
VERTEX
  8
SJC2
  5
1C3F2
 10
624.589
 20
360.769
 30
0.000000
  70
    32
  0
VERTEX
  8
SJC2
  5
1C3F3
 10
624.804
 20
362.944
 30
0.000000
  70
    32
  0
VERTEX
  8
SJC2
  5
1C3F4
 10
624.931
 20
365.059
 30
0.000000
  70
    32
  0
VERTEX
  8
SJC2
  5
1C3F5
 10
624.971
 20
367.109
 30
0.000000
  70
    32
  0
VERTEX
  8
SJC2
  5
1C3F6
 10
624.924
 20
369.089
 30
0.000000
  70
    32
  0
VERTEX
  8
SJC2
  5
1C3F7
 10
624.789
 20
370.994
 30
0.000000
  70
    32
  0
VERTEX
  8
SJC2
  5
1C3F8
 10
624.567
 20
372.820
 30
0.000000
  70
    32
  0
VERTEX
  8
SJC2
  5
1C3F9
 10
624.259
 20
374.563
 30
0.000000
  70
    32
  0
VERTEX
  8
SJC2
  5
1C3FA
 10
623.866
 20
376.217
 30
0.000000
  70
    32
  0
VERTEX
  8
SJC2
  5
1C3FB
 10
623.387
 20
377.780
 30
0.000000
  70
    32
  0
VERTEX
  8
SJC2
  5
1C3FC
 10
622.825
 20
379.247
 30
0.000000
  70
    32
  0
VERTEX
  8
SJC2
  5
1C3FD
 10
622.180
 20
380.614
 30
0.000000
  70
    32
  0
VERTEX
  8
SJC2
  5
1C3FE
 10
621.455
 20
381.879
 30
0.000000
  70
    32
  0
VERTEX
  8
SJC2
  5
1C3FF
 10
620.651
 20
383.039
 30
0.000000
  70
    32
  0
VERTEX
  8
SJC2
  5
1C400
 10
619.770
 20
384.090
 30
0.000000
  70
    32
  0
VERTEX
  8
SJC2
  5
1C401
 10
618.814
 20
385.031
 30
0.000000
  70
    32
  0
VERTEX
  8
SJC2
  5
1C402
 10
617.786
 20
385.858
 30
0.000000
  70
    32
  0
VERTEX
  8
SJC2
  5
1C403
 10
616.687
 20
386.570
 30
0.000000
  70
    32
  0
VERTEX
  8
SJC2
  5
1C404
 10
615.521
 20
387.165
 30
0.000000
  70
    32
  0
VERTEX
  8
SJC2
  5
1C405
 10
614.291
 20
387.643
 30
0.000000
  70
    32
  0
VERTEX
  8
SJC2
  5
1C406
 10
612.998
 20
388.000
 30
0.000000
  70
    32
  0
VERTEX
  8
SJC2
  5
1C407
 10
611.647
 20
388.238
 30
0.000000
  70
    32
  0
VERTEX
  8
SJC2
  5
1C408
 10
610.241
 20
388.354
 30
0.000000
  70
    32
  0
VERTEX
  8
SJC2
  5
1C409
 10
608.783
 20
388.349
 30
0.000000
  70
    32
  0
VERTEX
  8
SJC2
  5
1C40A
 10
607.276
 20
388.224
 30
0.000000
  70
    32
  0
VERTEX
  8
SJC2
  5
1C40B
 10
605.725
 20
387.977
 30
0.000000
  70
    32
  0
VERTEX
  8
SJC2
  5
1C40C
 10
604.132
 20
387.610
 30
0.000000
  70
    32
  0
VERTEX
  8
SJC2
  5
1C40D
 10
602.503
 20
387.124
 30
0.000000
  70
    32
  0
VERTEX
  8
SJC2
  5
1C40E
 10
600.840
 20
386.520
 30
0.000000
  70
    32
  0
VERTEX
  8
SJC2
  5
1C40F
 10
599.147
 20
385.799
 30
0.000000
  70
    32
  0
VERTEX
  8
SJC2
  5
1C410
 10
597.430
 20
384.963
 30
0.000000
  70
    32
  0
VERTEX
  8
SJC2
  5
1C411
 10
595.692
 20
384.014
 30
0.000000
  70
    32
  0
VERTEX
  8
SJC2
  5
1C412
 10
593.936
 20
382.954
 30
0.000000
  70
    32
  0
VERTEX
  8
SJC2
  5
1C413
 10
592.168
 20
381.786
 30
0.000000
  70
    32
  0
VERTEX
  8
SJC2
  5
1C414
 10
590.392
 20
380.513
 30
0.000000
  70
    32
  0
VERTEX
  8
SJC2
  5
1C415
 10
588.611
 20
379.138
 30
0.000000
  70
    32
  0
VERTEX
  8
SJC2
  5
1C416
 10
586.831
 20
377.663
 30
0.000000
  70
    32
  0
VERTEX
  8
SJC2
  5
1C417
 10
585.055
 20
376.094
 30
0.000000
  70
    32
  0
VERTEX
  8
SJC2
  5
1C418
 10
583.288
 20
374.432
 30
0.000000
  70
    32
  0
VERTEX
  8
SJC2
  5
1C419
 10
581.534
 20
372.684
 30
0.000000
  70
    32
  0
VERTEX
  8
SJC2
  5
1C41A
 10
579.797
 20
370.851
 30
0.000000
  70
    32
  0
VERTEX
  8
SJC2
  5
1C41B
 10
578.082
 20
368.940
 30
0.000000
  70
    32
  0
VERTEX
  8
SJC2
  5
1C41C
 10
576.392
 20
366.954
 30
0.000000
  70
    32
  0
VERTEX
  8
SJC2
  5
1C41D
 10
574.731
 20
364.899
 30
0.000000
  70
    32
  0
VERTEX
  8
SJC2
  5
1C41E
 10
573.105
 20
362.779
 30
0.000000
  70
    32
  0
VERTEX
  8
SJC2
  5
1C41F
 10
571.515
 20
360.600
 30
0.000000
  70
    32
  0
VERTEX
  8
SJC2
  5
1C420
 10
569.968
 20
358.367
 30
0.000000
  70
    32
  0
VERTEX
  8
SJC2
  5
1C421
 10
568.465
 20
356.084
 30
0.000000
  70
    32
  0
VERTEX
  8
SJC2
  5
1C422
 10
567.011
 20
353.758
 30
0.000000
  70
    32
  0
VERTEX
  8
SJC2
  5
1C423
 10
565.609
 20
351.394
 30
0.000000
  70
    32
  0
VERTEX
  8
SJC2
  5
1C424
 10
564.263
 20
348.999
 30
0.000000
  70
    32
  0
VERTEX
  8
SJC2
  5
1C425
 10
562.976
 20
346.577
 30
0.000000
  70
    32
  0
VERTEX
  8
SJC2
  5
1C426
 10
561.751
 20
344.134
 30
0.000000
  70
    32
  0
VERTEX
  8
SJC2
  5
1C427
 10
560.590
 20
341.677
 30
0.000000
  70
    32
  0
VERTEX
  8
SJC2
  5
1C428
 10
559.497
 20
339.211
 30
0.000000
  70
    32
  0
VERTEX
  8
SJC2
  5
1C429
 10
558.475
 20
336.742
 30
0.000000
  70
    32
  0
VERTEX
  8
SJC2
  5
1C42A
 10
557.525
 20
334.277
 30
0.000000
  70
    32
  0
VERTEX
  8
SJC2
  5
1C42B
 10
556.650
 20
331.820
 30
0.000000
  70
    32
  0
VERTEX
  8
SJC2
  5
1C42C
 10
555.853
 20
329.379
 30
0.000000
  70
    32
  0
VERTEX
  8
SJC2
  5
1C42D
 10
555.135
 20
326.959
 30
0.000000
  70
    32
  0
VERTEX
  8
SJC2
  5
1C42E
 10
554.497
 20
324.565
 30
0.000000
  70
    32
  0
VERTEX
  8
SJC2
  5
1C42F
 10
553.942
 20
322.204
 30
0.000000
  70
    32
  0
VERTEX
  8
SJC2
  5
1C430
 10
553.471
 20
319.882
 30
0.000000
  70
    32
  0
VERTEX
  8
SJC2
  5
1C431
 10
553.084
 20
317.603
 30
0.000000
  70
    32
  0
VERTEX
  8
SJC2
  5
1C432
 10
552.783
 20
315.373
 30
0.000000
  70
    32
  0
VERTEX
  8
SJC2
  5
1C433
 10
552.569
 20
313.198
 30
0.000000
  70
    32
  0
VERTEX
  8
SJC2
  5
1C434
 10
552.441
 20
311.083
 30
0.000000
  70
    32
  0
VERTEX
  8
SJC2
  5
1C435
 10
552.401
 20
309.033
 30
0.000000
  70
    32
  0
VERTEX
  8
SJC2
  5
1C436
 10
552.449
 20
307.053
 30
0.000000
  70
    32
  0
VERTEX
  8
SJC2
  5
1C437
 10
552.583
 20
305.147
 30
0.000000
  70
    32
  0
VERTEX
  8
SJC2
  5
1C438
 10
552.805
 20
303.321
 30
0.000000
  70
    32
  0
VERTEX
  8
SJC2
  5
1C439
 10
553.113
 20
301.579
 30
0.000000
  70
    32
  0
VERTEX
  8
SJC2
  5
1C43A
 10
553.507
 20
299.925
 30
0.000000
  70
    32
  0
VERTEX
  8
SJC2
  5
1C43B
 10
553.986
 20
298.362
 30
0.000000
  70
    32
  0
VERTEX
  8
SJC2
  5
1C43C
 10
554.548
 20
296.895
 30
0.000000
  70
    32
  0
VERTEX
  8
SJC2
  5
1C43D
 10
555.192
 20
295.528
 30
0.000000
  70
    32
  0
VERTEX
  8
SJC2
  5
1C43E
 10
555.917
 20
294.263
 30
0.000000
  70
    32
  0
VERTEX
  8
SJC2
  5
1C43F
 10
556.721
 20
293.103
 30
0.000000
  70
    32
  0
VERTEX
  8
SJC2
  5
1C440
 10
557.602
 20
292.052
 30
0.000000
  70
    32
  0
VERTEX
  8
SJC2
  5
1C441
 10
558.558
 20
291.111
 30
0.000000
  70
    32
  0
VERTEX
  8
SJC2
  5
1C442
 10
559.587
 20
290.284
 30
0.000000
  70
    32
  0
VERTEX
  8
SJC2
  5
1C443
 10
560.685
 20
289.572
 30
0.000000
  70
    32
  0
SEQEND
  8
SJC2
  5
1C444
  0
POLYLINE
  5
1B0AC
  8
SJC2
 10
759.77896505441254
 20
289.57177566539235
 30
0.0
 66
     1
 70
     8
  0
VERTEX
  8
SJC2
  5
1C445
 10
759.779
 20
289.572
 30
0.000000
  70
    32
  0
VERTEX
  8
SJC2
  5
1C446
 10
760.945
 20
288.976
 30
0.000000
  70
    32
  0
VERTEX
  8
SJC2
  5
1C447
 10
762.176
 20
288.499
 30
0.000000
  70
    32
  0
VERTEX
  8
SJC2
  5
1C448
 10
763.468
 20
288.142
 30
0.000000
  70
    32
  0
VERTEX
  8
SJC2
  5
1C449
 10
764.819
 20
287.904
 30
0.000000
  70
    32
  0
VERTEX
  8
SJC2
  5
1C44A
 10
766.225
 20
287.788
 30
0.000000
  70
    32
  0
VERTEX
  8
SJC2
  5
1C44B
 10
767.684
 20
287.793
 30
0.000000
  70
    32
  0
VERTEX
  8
SJC2
  5
1C44C
 10
769.190
 20
287.918
 30
0.000000
  70
    32
  0
VERTEX
  8
SJC2
  5
1C44D
 10
770.742
 20
288.165
 30
0.000000
  70
    32
  0
VERTEX
  8
SJC2
  5
1C44E
 10
772.334
 20
288.532
 30
0.000000
  70
    32
  0
VERTEX
  8
SJC2
  5
1C44F
 10
773.964
 20
289.018
 30
0.000000
  70
    32
  0
VERTEX
  8
SJC2
  5
1C450
 10
775.627
 20
289.622
 30
0.000000
  70
    32
  0
VERTEX
  8
SJC2
  5
1C451
 10
777.319
 20
290.343
 30
0.000000
  70
    32
  0
VERTEX
  8
SJC2
  5
1C452
 10
779.036
 20
291.179
 30
0.000000
  70
    32
  0
VERTEX
  8
SJC2
  5
1C453
 10
780.775
 20
292.128
 30
0.000000
  70
    32
  0
VERTEX
  8
SJC2
  5
1C454
 10
782.530
 20
293.188
 30
0.000000
  70
    32
  0
VERTEX
  8
SJC2
  5
1C455
 10
784.298
 20
294.356
 30
0.000000
  70
    32
  0
VERTEX
  8
SJC2
  5
1C456
 10
786.075
 20
295.629
 30
0.000000
  70
    32
  0
VERTEX
  8
SJC2
  5
1C457
 10
787.855
 20
297.004
 30
0.000000
  70
    32
  0
VERTEX
  8
SJC2
  5
1C458
 10
789.635
 20
298.479
 30
0.000000
  70
    32
  0
VERTEX
  8
SJC2
  5
1C459
 10
791.411
 20
300.048
 30
0.000000
  70
    32
  0
VERTEX
  8
SJC2
  5
1C45A
 10
793.178
 20
301.709
 30
0.000000
  70
    32
  0
VERTEX
  8
SJC2
  5
1C45B
 10
794.932
 20
303.458
 30
0.000000
  70
    32
  0
VERTEX
  8
SJC2
  5
1C45C
 10
796.669
 20
305.291
 30
0.000000
  70
    32
  0
VERTEX
  8
SJC2
  5
1C45D
 10
798.385
 20
307.202
 30
0.000000
  70
    32
  0
VERTEX
  8
SJC2
  5
1C45E
 10
800.075
 20
309.187
 30
0.000000
  70
    32
  0
VERTEX
  8
SJC2
  5
1C45F
 10
801.735
 20
311.243
 30
0.000000
  70
    32
  0
VERTEX
  8
SJC2
  5
1C460
 10
803.362
 20
313.362
 30
0.000000
  70
    32
  0
VERTEX
  8
SJC2
  5
1C461
 10
804.951
 20
315.542
 30
0.000000
  70
    32
  0
VERTEX
  8
SJC2
  5
1C462
 10
806.499
 20
317.775
 30
0.000000
  70
    32
  0
VERTEX
  8
SJC2
  5
1C463
 10
808.001
 20
320.058
 30
0.000000
  70
    32
  0
VERTEX
  8
SJC2
  5
1C464
 10
809.455
 20
322.384
 30
0.000000
  70
    32
  0
VERTEX
  8
SJC2
  5
1C465
 10
810.857
 20
324.748
 30
0.000000
  70
    32
  0
VERTEX
  8
SJC2
  5
1C466
 10
812.203
 20
327.143
 30
0.000000
  70
    32
  0
VERTEX
  8
SJC2
  5
1C467
 10
813.490
 20
329.565
 30
0.000000
  70
    32
  0
VERTEX
  8
SJC2
  5
1C468
 10
814.716
 20
332.008
 30
0.000000
  70
    32
  0
VERTEX
  8
SJC2
  5
1C469
 10
815.876
 20
334.465
 30
0.000000
  70
    32
  0
VERTEX
  8
SJC2
  5
1C46A
 10
816.969
 20
336.931
 30
0.000000
  70
    32
  0
VERTEX
  8
SJC2
  5
1C46B
 10
817.991
 20
339.400
 30
0.000000
  70
    32
  0
VERTEX
  8
SJC2
  5
1C46C
 10
818.941
 20
341.865
 30
0.000000
  70
    32
  0
VERTEX
  8
SJC2
  5
1C46D
 10
819.816
 20
344.322
 30
0.000000
  70
    32
  0
VERTEX
  8
SJC2
  5
1C46E
 10
820.613
 20
346.763
 30
0.000000
  70
    32
  0
VERTEX
  8
SJC2
  5
1C46F
 10
821.332
 20
349.183
 30
0.000000
  70
    32
  0
VERTEX
  8
SJC2
  5
1C470
 10
821.969
 20
351.577
 30
0.000000
  70
    32
  0
VERTEX
  8
SJC2
  5
1C471
 10
822.524
 20
353.938
 30
0.000000
  70
    32
  0
VERTEX
  8
SJC2
  5
1C472
 10
822.996
 20
356.260
 30
0.000000
  70
    32
  0
VERTEX
  8
SJC2
  5
1C473
 10
823.382
 20
358.539
 30
0.000000
  70
    32
  0
VERTEX
  8
SJC2
  5
1C474
 10
823.683
 20
360.769
 30
0.000000
  70
    32
  0
VERTEX
  8
SJC2
  5
1C475
 10
823.898
 20
362.944
 30
0.000000
  70
    32
  0
VERTEX
  8
SJC2
  5
1C476
 10
824.025
 20
365.059
 30
0.000000
  70
    32
  0
VERTEX
  8
SJC2
  5
1C477
 10
824.065
 20
367.109
 30
0.000000
  70
    32
  0
VERTEX
  8
SJC2
  5
1C478
 10
824.018
 20
369.089
 30
0.000000
  70
    32
  0
VERTEX
  8
SJC2
  5
1C479
 10
823.883
 20
370.994
 30
0.000000
  70
    32
  0
VERTEX
  8
SJC2
  5
1C47A
 10
823.661
 20
372.820
 30
0.000000
  70
    32
  0
VERTEX
  8
SJC2
  5
1C47B
 10
823.353
 20
374.563
 30
0.000000
  70
    32
  0
VERTEX
  8
SJC2
  5
1C47C
 10
822.959
 20
376.217
 30
0.000000
  70
    32
  0
VERTEX
  8
SJC2
  5
1C47D
 10
822.481
 20
377.780
 30
0.000000
  70
    32
  0
VERTEX
  8
SJC2
  5
1C47E
 10
821.919
 20
379.247
 30
0.000000
  70
    32
  0
VERTEX
  8
SJC2
  5
1C47F
 10
821.274
 20
380.614
 30
0.000000
  70
    32
  0
VERTEX
  8
SJC2
  5
1C480
 10
820.549
 20
381.879
 30
0.000000
  70
    32
  0
VERTEX
  8
SJC2
  5
1C481
 10
819.745
 20
383.039
 30
0.000000
  70
    32
  0
VERTEX
  8
SJC2
  5
1C482
 10
818.864
 20
384.090
 30
0.000000
  70
    32
  0
VERTEX
  8
SJC2
  5
1C483
 10
817.908
 20
385.031
 30
0.000000
  70
    32
  0
VERTEX
  8
SJC2
  5
1C484
 10
816.880
 20
385.858
 30
0.000000
  70
    32
  0
VERTEX
  8
SJC2
  5
1C485
 10
815.781
 20
386.570
 30
0.000000
  70
    32
  0
VERTEX
  8
SJC2
  5
1C486
 10
814.615
 20
387.165
 30
0.000000
  70
    32
  0
VERTEX
  8
SJC2
  5
1C487
 10
813.384
 20
387.643
 30
0.000000
  70
    32
  0
VERTEX
  8
SJC2
  5
1C488
 10
812.092
 20
388.000
 30
0.000000
  70
    32
  0
VERTEX
  8
SJC2
  5
1C489
 10
810.741
 20
388.238
 30
0.000000
  70
    32
  0
VERTEX
  8
SJC2
  5
1C48A
 10
809.335
 20
388.354
 30
0.000000
  70
    32
  0
VERTEX
  8
SJC2
  5
1C48B
 10
807.876
 20
388.349
 30
0.000000
  70
    32
  0
VERTEX
  8
SJC2
  5
1C48C
 10
806.370
 20
388.224
 30
0.000000
  70
    32
  0
VERTEX
  8
SJC2
  5
1C48D
 10
804.818
 20
387.977
 30
0.000000
  70
    32
  0
VERTEX
  8
SJC2
  5
1C48E
 10
803.226
 20
387.610
 30
0.000000
  70
    32
  0
VERTEX
  8
SJC2
  5
1C48F
 10
801.596
 20
387.124
 30
0.000000
  70
    32
  0
VERTEX
  8
SJC2
  5
1C490
 10
799.933
 20
386.520
 30
0.000000
  70
    32
  0
VERTEX
  8
SJC2
  5
1C491
 10
798.241
 20
385.799
 30
0.000000
  70
    32
  0
VERTEX
  8
SJC2
  5
1C492
 10
796.524
 20
384.963
 30
0.000000
  70
    32
  0
VERTEX
  8
SJC2
  5
1C493
 10
794.785
 20
384.014
 30
0.000000
  70
    32
  0
VERTEX
  8
SJC2
  5
1C494
 10
793.030
 20
382.954
 30
0.000000
  70
    32
  0
VERTEX
  8
SJC2
  5
1C495
 10
791.262
 20
381.786
 30
0.000000
  70
    32
  0
VERTEX
  8
SJC2
  5
1C496
 10
789.485
 20
380.513
 30
0.000000
  70
    32
  0
VERTEX
  8
SJC2
  5
1C497
 10
787.705
 20
379.138
 30
0.000000
  70
    32
  0
VERTEX
  8
SJC2
  5
1C498
 10
785.925
 20
377.663
 30
0.000000
  70
    32
  0
VERTEX
  8
SJC2
  5
1C499
 10
784.149
 20
376.094
 30
0.000000
  70
    32
  0
VERTEX
  8
SJC2
  5
1C49A
 10
782.382
 20
374.432
 30
0.000000
  70
    32
  0
VERTEX
  8
SJC2
  5
1C49B
 10
780.628
 20
372.684
 30
0.000000
  70
    32
  0
VERTEX
  8
SJC2
  5
1C49C
 10
778.891
 20
370.851
 30
0.000000
  70
    32
  0
VERTEX
  8
SJC2
  5
1C49D
 10
777.175
 20
368.940
 30
0.000000
  70
    32
  0
VERTEX
  8
SJC2
  5
1C49E
 10
775.485
 20
366.954
 30
0.000000
  70
    32
  0
VERTEX
  8
SJC2
  5
1C49F
 10
773.825
 20
364.899
 30
0.000000
  70
    32
  0
VERTEX
  8
SJC2
  5
1C4A0
 10
772.198
 20
362.779
 30
0.000000
  70
    32
  0
VERTEX
  8
SJC2
  5
1C4A1
 10
770.609
 20
360.600
 30
0.000000
  70
    32
  0
VERTEX
  8
SJC2
  5
1C4A2
 10
769.061
 20
358.367
 30
0.000000
  70
    32
  0
VERTEX
  8
SJC2
  5
1C4A3
 10
767.559
 20
356.084
 30
0.000000
  70
    32
  0
VERTEX
  8
SJC2
  5
1C4A4
 10
766.105
 20
353.758
 30
0.000000
  70
    32
  0
VERTEX
  8
SJC2
  5
1C4A5
 10
764.703
 20
351.394
 30
0.000000
  70
    32
  0
VERTEX
  8
SJC2
  5
1C4A6
 10
763.357
 20
348.999
 30
0.000000
  70
    32
  0
VERTEX
  8
SJC2
  5
1C4A7
 10
762.070
 20
346.577
 30
0.000000
  70
    32
  0
VERTEX
  8
SJC2
  5
1C4A8
 10
760.844
 20
344.134
 30
0.000000
  70
    32
  0
VERTEX
  8
SJC2
  5
1C4A9
 10
759.684
 20
341.677
 30
0.000000
  70
    32
  0
VERTEX
  8
SJC2
  5
1C4AA
 10
758.591
 20
339.211
 30
0.000000
  70
    32
  0
VERTEX
  8
SJC2
  5
1C4AB
 10
757.568
 20
336.742
 30
0.000000
  70
    32
  0
VERTEX
  8
SJC2
  5
1C4AC
 10
756.619
 20
334.277
 30
0.000000
  70
    32
  0
VERTEX
  8
SJC2
  5
1C4AD
 10
755.744
 20
331.820
 30
0.000000
  70
    32
  0
VERTEX
  8
SJC2
  5
1C4AE
 10
754.947
 20
329.379
 30
0.000000
  70
    32
  0
VERTEX
  8
SJC2
  5
1C4AF
 10
754.228
 20
326.959
 30
0.000000
  70
    32
  0
VERTEX
  8
SJC2
  5
1C4B0
 10
753.591
 20
324.565
 30
0.000000
  70
    32
  0
VERTEX
  8
SJC2
  5
1C4B1
 10
753.036
 20
322.204
 30
0.000000
  70
    32
  0
VERTEX
  8
SJC2
  5
1C4B2
 10
752.564
 20
319.882
 30
0.000000
  70
    32
  0
VERTEX
  8
SJC2
  5
1C4B3
 10
752.178
 20
317.603
 30
0.000000
  70
    32
  0
VERTEX
  8
SJC2
  5
1C4B4
 10
751.877
 20
315.373
 30
0.000000
  70
    32
  0
VERTEX
  8
SJC2
  5
1C4B5
 10
751.662
 20
313.198
 30
0.000000
  70
    32
  0
VERTEX
  8
SJC2
  5
1C4B6
 10
751.535
 20
311.083
 30
0.000000
  70
    32
  0
VERTEX
  8
SJC2
  5
1C4B7
 10
751.495
 20
309.033
 30
0.000000
  70
    32
  0
VERTEX
  8
SJC2
  5
1C4B8
 10
751.542
 20
307.053
 30
0.000000
  70
    32
  0
VERTEX
  8
SJC2
  5
1C4B9
 10
751.677
 20
305.147
 30
0.000000
  70
    32
  0
VERTEX
  8
SJC2
  5
1C4BA
 10
751.899
 20
303.321
 30
0.000000
  70
    32
  0
VERTEX
  8
SJC2
  5
1C4BB
 10
752.207
 20
301.579
 30
0.000000
  70
    32
  0
VERTEX
  8
SJC2
  5
1C4BC
 10
752.601
 20
299.925
 30
0.000000
  70
    32
  0
VERTEX
  8
SJC2
  5
1C4BD
 10
753.079
 20
298.362
 30
0.000000
  70
    32
  0
VERTEX
  8
SJC2
  5
1C4BE
 10
753.641
 20
296.895
 30
0.000000
  70
    32
  0
VERTEX
  8
SJC2
  5
1C4BF
 10
754.286
 20
295.528
 30
0.000000
  70
    32
  0
VERTEX
  8
SJC2
  5
1C4C0
 10
755.011
 20
294.263
 30
0.000000
  70
    32
  0
VERTEX
  8
SJC2
  5
1C4C1
 10
755.815
 20
293.103
 30
0.000000
  70
    32
  0
VERTEX
  8
SJC2
  5
1C4C2
 10
756.696
 20
292.052
 30
0.000000
  70
    32
  0
VERTEX
  8
SJC2
  5
1C4C3
 10
757.652
 20
291.111
 30
0.000000
  70
    32
  0
VERTEX
  8
SJC2
  5
1C4C4
 10
758.680
 20
290.284
 30
0.000000
  70
    32
  0
VERTEX
  8
SJC2
  5
1C4C5
 10
759.779
 20
289.572
 30
0.000000
  70
    32
  0
SEQEND
  8
SJC2
  5
1C4C6
  0
POLYLINE
  5
1B0AD
  8
SJC2
 10
822.03867974706895
 20
289.57177566539235
 30
0.0
 66
     1
 70
     8
  0
VERTEX
  8
SJC2
  5
1C4C7
 10
822.039
 20
289.572
 30
0.000000
  70
    32
  0
VERTEX
  8
SJC2
  5
1C4C8
 10
823.205
 20
288.976
 30
0.000000
  70
    32
  0
VERTEX
  8
SJC2
  5
1C4C9
 10
824.435
 20
288.499
 30
0.000000
  70
    32
  0
VERTEX
  8
SJC2
  5
1C4CA
 10
825.728
 20
288.142
 30
0.000000
  70
    32
  0
VERTEX
  8
SJC2
  5
1C4CB
 10
827.079
 20
287.904
 30
0.000000
  70
    32
  0
VERTEX
  8
SJC2
  5
1C4CC
 10
828.485
 20
287.788
 30
0.000000
  70
    32
  0
VERTEX
  8
SJC2
  5
1C4CD
 10
829.943
 20
287.793
 30
0.000000
  70
    32
  0
VERTEX
  8
SJC2
  5
1C4CE
 10
831.450
 20
287.918
 30
0.000000
  70
    32
  0
VERTEX
  8
SJC2
  5
1C4CF
 10
833.001
 20
288.165
 30
0.000000
  70
    32
  0
VERTEX
  8
SJC2
  5
1C4D0
 10
834.594
 20
288.532
 30
0.000000
  70
    32
  0
VERTEX
  8
SJC2
  5
1C4D1
 10
836.223
 20
289.018
 30
0.000000
  70
    32
  0
VERTEX
  8
SJC2
  5
1C4D2
 10
837.886
 20
289.622
 30
0.000000
  70
    32
  0
VERTEX
  8
SJC2
  5
1C4D3
 10
839.579
 20
290.343
 30
0.000000
  70
    32
  0
VERTEX
  8
SJC2
  5
1C4D4
 10
841.296
 20
291.179
 30
0.000000
  70
    32
  0
VERTEX
  8
SJC2
  5
1C4D5
 10
843.034
 20
292.128
 30
0.000000
  70
    32
  0
VERTEX
  8
SJC2
  5
1C4D6
 10
844.790
 20
293.188
 30
0.000000
  70
    32
  0
VERTEX
  8
SJC2
  5
1C4D7
 10
846.558
 20
294.356
 30
0.000000
  70
    32
  0
VERTEX
  8
SJC2
  5
1C4D8
 10
848.334
 20
295.629
 30
0.000000
  70
    32
  0
VERTEX
  8
SJC2
  5
1C4D9
 10
850.115
 20
297.004
 30
0.000000
  70
    32
  0
VERTEX
  8
SJC2
  5
1C4DA
 10
851.895
 20
298.479
 30
0.000000
  70
    32
  0
VERTEX
  8
SJC2
  5
1C4DB
 10
853.671
 20
300.048
 30
0.000000
  70
    32
  0
VERTEX
  8
SJC2
  5
1C4DC
 10
855.438
 20
301.709
 30
0.000000
  70
    32
  0
VERTEX
  8
SJC2
  5
1C4DD
 10
857.192
 20
303.458
 30
0.000000
  70
    32
  0
VERTEX
  8
SJC2
  5
1C4DE
 10
858.929
 20
305.291
 30
0.000000
  70
    32
  0
VERTEX
  8
SJC2
  5
1C4DF
 10
860.644
 20
307.202
 30
0.000000
  70
    32
  0
VERTEX
  8
SJC2
  5
1C4E0
 10
862.334
 20
309.187
 30
0.000000
  70
    32
  0
VERTEX
  8
SJC2
  5
1C4E1
 10
863.995
 20
311.243
 30
0.000000
  70
    32
  0
VERTEX
  8
SJC2
  5
1C4E2
 10
865.621
 20
313.362
 30
0.000000
  70
    32
  0
VERTEX
  8
SJC2
  5
1C4E3
 10
867.210
 20
315.542
 30
0.000000
  70
    32
  0
VERTEX
  8
SJC2
  5
1C4E4
 10
868.758
 20
317.775
 30
0.000000
  70
    32
  0
VERTEX
  8
SJC2
  5
1C4E5
 10
870.261
 20
320.058
 30
0.000000
  70
    32
  0
VERTEX
  8
SJC2
  5
1C4E6
 10
871.715
 20
322.384
 30
0.000000
  70
    32
  0
VERTEX
  8
SJC2
  5
1C4E7
 10
873.117
 20
324.748
 30
0.000000
  70
    32
  0
VERTEX
  8
SJC2
  5
1C4E8
 10
874.463
 20
327.143
 30
0.000000
  70
    32
  0
VERTEX
  8
SJC2
  5
1C4E9
 10
875.750
 20
329.565
 30
0.000000
  70
    32
  0
VERTEX
  8
SJC2
  5
1C4EA
 10
876.975
 20
332.008
 30
0.000000
  70
    32
  0
VERTEX
  8
SJC2
  5
1C4EB
 10
878.136
 20
334.465
 30
0.000000
  70
    32
  0
VERTEX
  8
SJC2
  5
1C4EC
 10
879.229
 20
336.931
 30
0.000000
  70
    32
  0
VERTEX
  8
SJC2
  5
1C4ED
 10
880.251
 20
339.400
 30
0.000000
  70
    32
  0
VERTEX
  8
SJC2
  5
1C4EE
 10
881.201
 20
341.865
 30
0.000000
  70
    32
  0
VERTEX
  8
SJC2
  5
1C4EF
 10
882.076
 20
344.322
 30
0.000000
  70
    32
  0
VERTEX
  8
SJC2
  5
1C4F0
 10
882.873
 20
346.763
 30
0.000000
  70
    32
  0
VERTEX
  8
SJC2
  5
1C4F1
 10
883.591
 20
349.183
 30
0.000000
  70
    32
  0
VERTEX
  8
SJC2
  5
1C4F2
 10
884.229
 20
351.577
 30
0.000000
  70
    32
  0
VERTEX
  8
SJC2
  5
1C4F3
 10
884.784
 20
353.938
 30
0.000000
  70
    32
  0
VERTEX
  8
SJC2
  5
1C4F4
 10
885.255
 20
356.260
 30
0.000000
  70
    32
  0
VERTEX
  8
SJC2
  5
1C4F5
 10
885.642
 20
358.539
 30
0.000000
  70
    32
  0
VERTEX
  8
SJC2
  5
1C4F6
 10
885.943
 20
360.769
 30
0.000000
  70
    32
  0
VERTEX
  8
SJC2
  5
1C4F7
 10
886.157
 20
362.944
 30
0.000000
  70
    32
  0
VERTEX
  8
SJC2
  5
1C4F8
 10
886.285
 20
365.059
 30
0.000000
  70
    32
  0
VERTEX
  8
SJC2
  5
1C4F9
 10
886.325
 20
367.109
 30
0.000000
  70
    32
  0
VERTEX
  8
SJC2
  5
1C4FA
 10
886.277
 20
369.089
 30
0.000000
  70
    32
  0
VERTEX
  8
SJC2
  5
1C4FB
 10
886.143
 20
370.994
 30
0.000000
  70
    32
  0
VERTEX
  8
SJC2
  5
1C4FC
 10
885.921
 20
372.820
 30
0.000000
  70
    32
  0
VERTEX
  8
SJC2
  5
1C4FD
 10
885.613
 20
374.563
 30
0.000000
  70
    32
  0
VERTEX
  8
SJC2
  5
1C4FE
 10
885.219
 20
376.217
 30
0.000000
  70
    32
  0
VERTEX
  8
SJC2
  5
1C4FF
 10
884.740
 20
377.780
 30
0.000000
  70
    32
  0
VERTEX
  8
SJC2
  5
1C500
 10
884.178
 20
379.247
 30
0.000000
  70
    32
  0
VERTEX
  8
SJC2
  5
1C501
 10
883.534
 20
380.614
 30
0.000000
  70
    32
  0
VERTEX
  8
SJC2
  5
1C502
 10
882.809
 20
381.879
 30
0.000000
  70
    32
  0
VERTEX
  8
SJC2
  5
1C503
 10
882.005
 20
383.039
 30
0.000000
  70
    32
  0
VERTEX
  8
SJC2
  5
1C504
 10
881.124
 20
384.090
 30
0.000000
  70
    32
  0
VERTEX
  8
SJC2
  5
1C505
 10
880.168
 20
385.031
 30
0.000000
  70
    32
  0
VERTEX
  8
SJC2
  5
1C506
 10
879.139
 20
385.858
 30
0.000000
  70
    32
  0
VERTEX
  8
SJC2
  5
1C507
 10
878.041
 20
386.570
 30
0.000000
  70
    32
  0
VERTEX
  8
SJC2
  5
1C508
 10
876.875
 20
387.165
 30
0.000000
  70
    32
  0
VERTEX
  8
SJC2
  5
1C509
 10
875.644
 20
387.643
 30
0.000000
  70
    32
  0
VERTEX
  8
SJC2
  5
1C50A
 10
874.352
 20
388.000
 30
0.000000
  70
    32
  0
VERTEX
  8
SJC2
  5
1C50B
 10
873.001
 20
388.238
 30
0.000000
  70
    32
  0
VERTEX
  8
SJC2
  5
1C50C
 10
871.594
 20
388.354
 30
0.000000
  70
    32
  0
VERTEX
  8
SJC2
  5
1C50D
 10
870.136
 20
388.349
 30
0.000000
  70
    32
  0
VERTEX
  8
SJC2
  5
1C50E
 10
868.630
 20
388.224
 30
0.000000
  70
    32
  0
VERTEX
  8
SJC2
  5
1C50F
 10
867.078
 20
387.977
 30
0.000000
  70
    32
  0
VERTEX
  8
SJC2
  5
1C510
 10
865.486
 20
387.610
 30
0.000000
  70
    32
  0
VERTEX
  8
SJC2
  5
1C511
 10
863.856
 20
387.124
 30
0.000000
  70
    32
  0
VERTEX
  8
SJC2
  5
1C512
 10
862.193
 20
386.520
 30
0.000000
  70
    32
  0
VERTEX
  8
SJC2
  5
1C513
 10
860.501
 20
385.799
 30
0.000000
  70
    32
  0
VERTEX
  8
SJC2
  5
1C514
 10
858.783
 20
384.963
 30
0.000000
  70
    32
  0
VERTEX
  8
SJC2
  5
1C515
 10
857.045
 20
384.014
 30
0.000000
  70
    32
  0
VERTEX
  8
SJC2
  5
1C516
 10
855.290
 20
382.954
 30
0.000000
  70
    32
  0
VERTEX
  8
SJC2
  5
1C517
 10
853.522
 20
381.786
 30
0.000000
  70
    32
  0
VERTEX
  8
SJC2
  5
1C518
 10
851.745
 20
380.513
 30
0.000000
  70
    32
  0
VERTEX
  8
SJC2
  5
1C519
 10
849.965
 20
379.138
 30
0.000000
  70
    32
  0
VERTEX
  8
SJC2
  5
1C51A
 10
848.184
 20
377.663
 30
0.000000
  70
    32
  0
VERTEX
  8
SJC2
  5
1C51B
 10
846.408
 20
376.094
 30
0.000000
  70
    32
  0
VERTEX
  8
SJC2
  5
1C51C
 10
844.641
 20
374.432
 30
0.000000
  70
    32
  0
VERTEX
  8
SJC2
  5
1C51D
 10
842.887
 20
372.684
 30
0.000000
  70
    32
  0
VERTEX
  8
SJC2
  5
1C51E
 10
841.150
 20
370.851
 30
0.000000
  70
    32
  0
VERTEX
  8
SJC2
  5
1C51F
 10
839.435
 20
368.940
 30
0.000000
  70
    32
  0
VERTEX
  8
SJC2
  5
1C520
 10
837.745
 20
366.954
 30
0.000000
  70
    32
  0
VERTEX
  8
SJC2
  5
1C521
 10
836.085
 20
364.899
 30
0.000000
  70
    32
  0
VERTEX
  8
SJC2
  5
1C522
 10
834.458
 20
362.779
 30
0.000000
  70
    32
  0
VERTEX
  8
SJC2
  5
1C523
 10
832.869
 20
360.600
 30
0.000000
  70
    32
  0
VERTEX
  8
SJC2
  5
1C524
 10
831.321
 20
358.367
 30
0.000000
  70
    32
  0
VERTEX
  8
SJC2
  5
1C525
 10
829.819
 20
356.084
 30
0.000000
  70
    32
  0
VERTEX
  8
SJC2
  5
1C526
 10
828.365
 20
353.758
 30
0.000000
  70
    32
  0
VERTEX
  8
SJC2
  5
1C527
 10
826.963
 20
351.394
 30
0.000000
  70
    32
  0
VERTEX
  8
SJC2
  5
1C528
 10
825.617
 20
348.999
 30
0.000000
  70
    32
  0
VERTEX
  8
SJC2
  5
1C529
 10
824.329
 20
346.577
 30
0.000000
  70
    32
  0
VERTEX
  8
SJC2
  5
1C52A
 10
823.104
 20
344.134
 30
0.000000
  70
    32
  0
VERTEX
  8
SJC2
  5
1C52B
 10
821.943
 20
341.677
 30
0.000000
  70
    32
  0
VERTEX
  8
SJC2
  5
1C52C
 10
820.851
 20
339.211
 30
0.000000
  70
    32
  0
VERTEX
  8
SJC2
  5
1C52D
 10
819.828
 20
336.742
 30
0.000000
  70
    32
  0
VERTEX
  8
SJC2
  5
1C52E
 10
818.879
 20
334.277
 30
0.000000
  70
    32
  0
VERTEX
  8
SJC2
  5
1C52F
 10
818.004
 20
331.820
 30
0.000000
  70
    32
  0
VERTEX
  8
SJC2
  5
1C530
 10
817.206
 20
329.379
 30
0.000000
  70
    32
  0
VERTEX
  8
SJC2
  5
1C531
 10
816.488
 20
326.959
 30
0.000000
  70
    32
  0
VERTEX
  8
SJC2
  5
1C532
 10
815.851
 20
324.565
 30
0.000000
  70
    32
  0
VERTEX
  8
SJC2
  5
1C533
 10
815.295
 20
322.204
 30
0.000000
  70
    32
  0
VERTEX
  8
SJC2
  5
1C534
 10
814.824
 20
319.882
 30
0.000000
  70
    32
  0
VERTEX
  8
SJC2
  5
1C535
 10
814.437
 20
317.603
 30
0.000000
  70
    32
  0
VERTEX
  8
SJC2
  5
1C536
 10
814.137
 20
315.373
 30
0.000000
  70
    32
  0
VERTEX
  8
SJC2
  5
1C537
 10
813.922
 20
313.198
 30
0.000000
  70
    32
  0
VERTEX
  8
SJC2
  5
1C538
 10
813.795
 20
311.083
 30
0.000000
  70
    32
  0
VERTEX
  8
SJC2
  5
1C539
 10
813.755
 20
309.033
 30
0.000000
  70
    32
  0
VERTEX
  8
SJC2
  5
1C53A
 10
813.802
 20
307.053
 30
0.000000
  70
    32
  0
VERTEX
  8
SJC2
  5
1C53B
 10
813.937
 20
305.147
 30
0.000000
  70
    32
  0
VERTEX
  8
SJC2
  5
1C53C
 10
814.159
 20
303.321
 30
0.000000
  70
    32
  0
VERTEX
  8
SJC2
  5
1C53D
 10
814.467
 20
301.579
 30
0.000000
  70
    32
  0
VERTEX
  8
SJC2
  5
1C53E
 10
814.860
 20
299.925
 30
0.000000
  70
    32
  0
VERTEX
  8
SJC2
  5
1C53F
 10
815.339
 20
298.362
 30
0.000000
  70
    32
  0
VERTEX
  8
SJC2
  5
1C540
 10
815.901
 20
296.895
 30
0.000000
  70
    32
  0
VERTEX
  8
SJC2
  5
1C541
 10
816.546
 20
295.528
 30
0.000000
  70
    32
  0
VERTEX
  8
SJC2
  5
1C542
 10
817.271
 20
294.263
 30
0.000000
  70
    32
  0
VERTEX
  8
SJC2
  5
1C543
 10
818.075
 20
293.103
 30
0.000000
  70
    32
  0
VERTEX
  8
SJC2
  5
1C544
 10
818.956
 20
292.052
 30
0.000000
  70
    32
  0
VERTEX
  8
SJC2
  5
1C545
 10
819.912
 20
291.111
 30
0.000000
  70
    32
  0
VERTEX
  8
SJC2
  5
1C546
 10
820.940
 20
290.284
 30
0.000000
  70
    32
  0
VERTEX
  8
SJC2
  5
1C547
 10
822.039
 20
289.572
 30
0.000000
  70
    32
  0
SEQEND
  8
SJC2
  5
1C548
  0
LINE
  5
1B0AE
  8
SJC
 10
1616.8632148796351
 20
387.58889876454123
 30
0.0
 11
1616.8632148796351
 21
287.58889876454123
 31
0.0
  0
LINE
  5
1B0AF
  8
SJC
 10
1216.8632148796351
 20
387.58889876454123
 30
0.0
 11
1216.8632148796351
 21
287.58889876454123
 31
0.0
  0
LINE
  5
1B0B0
  8
SJC
 10
1216.8632148796351
 20
287.58889876454123
 30
0.0
 11
1616.8632148796351
 21
287.58889876454123
 31
0.0
  0
POLYLINE
  5
1B0B1
  8
SJC2
 10
1227.6413489234048
 20
289.57177566539235
 30
0.0
 66
     1
 70
     8
  0
VERTEX
  8
SJC2
  5
1C549
 10
1227.64
 20
289.572
 30
0.000000
  70
    32
  0
VERTEX
  8
SJC2
  5
1C54A
 10
1228.81
 20
288.976
 30
0.000000
  70
    32
  0
VERTEX
  8
SJC2
  5
1C54B
 10
1230.04
 20
288.499
 30
0.000000
  70
    32
  0
VERTEX
  8
SJC2
  5
1C54C
 10
1231.33
 20
288.142
 30
0.000000
  70
    32
  0
VERTEX
  8
SJC2
  5
1C54D
 10
1232.68
 20
287.904
 30
0.000000
  70
    32
  0
VERTEX
  8
SJC2
  5
1C54E
 10
1234.09
 20
287.788
 30
0.000000
  70
    32
  0
VERTEX
  8
SJC2
  5
1C54F
 10
1235.55
 20
287.793
 30
0.000000
  70
    32
  0
VERTEX
  8
SJC2
  5
1C550
 10
1237.05
 20
287.918
 30
0.000000
  70
    32
  0
VERTEX
  8
SJC2
  5
1C551
 10
1238.60
 20
288.165
 30
0.000000
  70
    32
  0
VERTEX
  8
SJC2
  5
1C552
 10
1240.20
 20
288.532
 30
0.000000
  70
    32
  0
VERTEX
  8
SJC2
  5
1C553
 10
1241.83
 20
289.018
 30
0.000000
  70
    32
  0
VERTEX
  8
SJC2
  5
1C554
 10
1243.49
 20
289.622
 30
0.000000
  70
    32
  0
VERTEX
  8
SJC2
  5
1C555
 10
1245.18
 20
290.343
 30
0.000000
  70
    32
  0
VERTEX
  8
SJC2
  5
1C556
 10
1246.90
 20
291.179
 30
0.000000
  70
    32
  0
VERTEX
  8
SJC2
  5
1C557
 10
1248.64
 20
292.128
 30
0.000000
  70
    32
  0
VERTEX
  8
SJC2
  5
1C558
 10
1250.39
 20
293.188
 30
0.000000
  70
    32
  0
VERTEX
  8
SJC2
  5
1C559
 10
1252.16
 20
294.356
 30
0.000000
  70
    32
  0
VERTEX
  8
SJC2
  5
1C55A
 10
1253.94
 20
295.629
 30
0.000000
  70
    32
  0
VERTEX
  8
SJC2
  5
1C55B
 10
1255.72
 20
297.004
 30
0.000000
  70
    32
  0
VERTEX
  8
SJC2
  5
1C55C
 10
1257.50
 20
298.479
 30
0.000000
  70
    32
  0
VERTEX
  8
SJC2
  5
1C55D
 10
1259.27
 20
300.048
 30
0.000000
  70
    32
  0
VERTEX
  8
SJC2
  5
1C55E
 10
1261.04
 20
301.709
 30
0.000000
  70
    32
  0
VERTEX
  8
SJC2
  5
1C55F
 10
1262.79
 20
303.458
 30
0.000000
  70
    32
  0
VERTEX
  8
SJC2
  5
1C560
 10
1264.53
 20
305.291
 30
0.000000
  70
    32
  0
VERTEX
  8
SJC2
  5
1C561
 10
1266.25
 20
307.202
 30
0.000000
  70
    32
  0
VERTEX
  8
SJC2
  5
1C562
 10
1267.94
 20
309.187
 30
0.000000
  70
    32
  0
VERTEX
  8
SJC2
  5
1C563
 10
1269.60
 20
311.243
 30
0.000000
  70
    32
  0
VERTEX
  8
SJC2
  5
1C564
 10
1271.22
 20
313.362
 30
0.000000
  70
    32
  0
VERTEX
  8
SJC2
  5
1C565
 10
1272.81
 20
315.542
 30
0.000000
  70
    32
  0
VERTEX
  8
SJC2
  5
1C566
 10
1274.36
 20
317.775
 30
0.000000
  70
    32
  0
VERTEX
  8
SJC2
  5
1C567
 10
1275.86
 20
320.058
 30
0.000000
  70
    32
  0
VERTEX
  8
SJC2
  5
1C568
 10
1277.32
 20
322.384
 30
0.000000
  70
    32
  0
VERTEX
  8
SJC2
  5
1C569
 10
1278.72
 20
324.748
 30
0.000000
  70
    32
  0
VERTEX
  8
SJC2
  5
1C56A
 10
1280.07
 20
327.143
 30
0.000000
  70
    32
  0
VERTEX
  8
SJC2
  5
1C56B
 10
1281.35
 20
329.565
 30
0.000000
  70
    32
  0
VERTEX
  8
SJC2
  5
1C56C
 10
1282.58
 20
332.008
 30
0.000000
  70
    32
  0
VERTEX
  8
SJC2
  5
1C56D
 10
1283.74
 20
334.465
 30
0.000000
  70
    32
  0
VERTEX
  8
SJC2
  5
1C56E
 10
1284.83
 20
336.931
 30
0.000000
  70
    32
  0
VERTEX
  8
SJC2
  5
1C56F
 10
1285.85
 20
339.400
 30
0.000000
  70
    32
  0
VERTEX
  8
SJC2
  5
1C570
 10
1286.80
 20
341.865
 30
0.000000
  70
    32
  0
VERTEX
  8
SJC2
  5
1C571
 10
1287.68
 20
344.322
 30
0.000000
  70
    32
  0
VERTEX
  8
SJC2
  5
1C572
 10
1288.48
 20
346.763
 30
0.000000
  70
    32
  0
VERTEX
  8
SJC2
  5
1C573
 10
1289.19
 20
349.183
 30
0.000000
  70
    32
  0
VERTEX
  8
SJC2
  5
1C574
 10
1289.83
 20
351.577
 30
0.000000
  70
    32
  0
VERTEX
  8
SJC2
  5
1C575
 10
1290.39
 20
353.938
 30
0.000000
  70
    32
  0
VERTEX
  8
SJC2
  5
1C576
 10
1290.86
 20
356.260
 30
0.000000
  70
    32
  0
VERTEX
  8
SJC2
  5
1C577
 10
1291.24
 20
358.539
 30
0.000000
  70
    32
  0
VERTEX
  8
SJC2
  5
1C578
 10
1291.55
 20
360.769
 30
0.000000
  70
    32
  0
VERTEX
  8
SJC2
  5
1C579
 10
1291.76
 20
362.944
 30
0.000000
  70
    32
  0
VERTEX
  8
SJC2
  5
1C57A
 10
1291.89
 20
365.059
 30
0.000000
  70
    32
  0
VERTEX
  8
SJC2
  5
1C57B
 10
1291.93
 20
367.109
 30
0.000000
  70
    32
  0
VERTEX
  8
SJC2
  5
1C57C
 10
1291.88
 20
369.089
 30
0.000000
  70
    32
  0
VERTEX
  8
SJC2
  5
1C57D
 10
1291.75
 20
370.994
 30
0.000000
  70
    32
  0
VERTEX
  8
SJC2
  5
1C57E
 10
1291.52
 20
372.820
 30
0.000000
  70
    32
  0
VERTEX
  8
SJC2
  5
1C57F
 10
1291.22
 20
374.563
 30
0.000000
  70
    32
  0
VERTEX
  8
SJC2
  5
1C580
 10
1290.82
 20
376.217
 30
0.000000
  70
    32
  0
VERTEX
  8
SJC2
  5
1C581
 10
1290.34
 20
377.780
 30
0.000000
  70
    32
  0
VERTEX
  8
SJC2
  5
1C582
 10
1289.78
 20
379.247
 30
0.000000
  70
    32
  0
VERTEX
  8
SJC2
  5
1C583
 10
1289.14
 20
380.614
 30
0.000000
  70
    32
  0
VERTEX
  8
SJC2
  5
1C584
 10
1288.41
 20
381.879
 30
0.000000
  70
    32
  0
VERTEX
  8
SJC2
  5
1C585
 10
1287.61
 20
383.039
 30
0.000000
  70
    32
  0
VERTEX
  8
SJC2
  5
1C586
 10
1286.73
 20
384.090
 30
0.000000
  70
    32
  0
VERTEX
  8
SJC2
  5
1C587
 10
1285.77
 20
385.031
 30
0.000000
  70
    32
  0
VERTEX
  8
SJC2
  5
1C588
 10
1284.74
 20
385.858
 30
0.000000
  70
    32
  0
VERTEX
  8
SJC2
  5
1C589
 10
1283.64
 20
386.570
 30
0.000000
  70
    32
  0
VERTEX
  8
SJC2
  5
1C58A
 10
1282.48
 20
387.165
 30
0.000000
  70
    32
  0
VERTEX
  8
SJC2
  5
1C58B
 10
1281.25
 20
387.643
 30
0.000000
  70
    32
  0
VERTEX
  8
SJC2
  5
1C58C
 10
1279.95
 20
388.000
 30
0.000000
  70
    32
  0
VERTEX
  8
SJC2
  5
1C58D
 10
1278.60
 20
388.238
 30
0.000000
  70
    32
  0
VERTEX
  8
SJC2
  5
1C58E
 10
1277.20
 20
388.354
 30
0.000000
  70
    32
  0
VERTEX
  8
SJC2
  5
1C58F
 10
1275.74
 20
388.349
 30
0.000000
  70
    32
  0
VERTEX
  8
SJC2
  5
1C590
 10
1274.23
 20
388.224
 30
0.000000
  70
    32
  0
VERTEX
  8
SJC2
  5
1C591
 10
1272.68
 20
387.977
 30
0.000000
  70
    32
  0
VERTEX
  8
SJC2
  5
1C592
 10
1271.09
 20
387.610
 30
0.000000
  70
    32
  0
VERTEX
  8
SJC2
  5
1C593
 10
1269.46
 20
387.124
 30
0.000000
  70
    32
  0
VERTEX
  8
SJC2
  5
1C594
 10
1267.80
 20
386.520
 30
0.000000
  70
    32
  0
VERTEX
  8
SJC2
  5
1C595
 10
1266.10
 20
385.799
 30
0.000000
  70
    32
  0
VERTEX
  8
SJC2
  5
1C596
 10
1264.39
 20
384.963
 30
0.000000
  70
    32
  0
VERTEX
  8
SJC2
  5
1C597
 10
1262.65
 20
384.014
 30
0.000000
  70
    32
  0
VERTEX
  8
SJC2
  5
1C598
 10
1260.89
 20
382.954
 30
0.000000
  70
    32
  0
VERTEX
  8
SJC2
  5
1C599
 10
1259.12
 20
381.786
 30
0.000000
  70
    32
  0
VERTEX
  8
SJC2
  5
1C59A
 10
1257.35
 20
380.513
 30
0.000000
  70
    32
  0
VERTEX
  8
SJC2
  5
1C59B
 10
1255.57
 20
379.138
 30
0.000000
  70
    32
  0
VERTEX
  8
SJC2
  5
1C59C
 10
1253.79
 20
377.663
 30
0.000000
  70
    32
  0
VERTEX
  8
SJC2
  5
1C59D
 10
1252.01
 20
376.094
 30
0.000000
  70
    32
  0
VERTEX
  8
SJC2
  5
1C59E
 10
1250.24
 20
374.432
 30
0.000000
  70
    32
  0
VERTEX
  8
SJC2
  5
1C59F
 10
1248.49
 20
372.684
 30
0.000000
  70
    32
  0
VERTEX
  8
SJC2
  5
1C5A0
 10
1246.75
 20
370.851
 30
0.000000
  70
    32
  0
VERTEX
  8
SJC2
  5
1C5A1
 10
1245.04
 20
368.940
 30
0.000000
  70
    32
  0
VERTEX
  8
SJC2
  5
1C5A2
 10
1243.35
 20
366.954
 30
0.000000
  70
    32
  0
VERTEX
  8
SJC2
  5
1C5A3
 10
1241.69
 20
364.899
 30
0.000000
  70
    32
  0
VERTEX
  8
SJC2
  5
1C5A4
 10
1240.06
 20
362.779
 30
0.000000
  70
    32
  0
VERTEX
  8
SJC2
  5
1C5A5
 10
1238.47
 20
360.600
 30
0.000000
  70
    32
  0
VERTEX
  8
SJC2
  5
1C5A6
 10
1236.92
 20
358.367
 30
0.000000
  70
    32
  0
VERTEX
  8
SJC2
  5
1C5A7
 10
1235.42
 20
356.084
 30
0.000000
  70
    32
  0
VERTEX
  8
SJC2
  5
1C5A8
 10
1233.97
 20
353.758
 30
0.000000
  70
    32
  0
VERTEX
  8
SJC2
  5
1C5A9
 10
1232.57
 20
351.394
 30
0.000000
  70
    32
  0
VERTEX
  8
SJC2
  5
1C5AA
 10
1231.22
 20
348.999
 30
0.000000
  70
    32
  0
VERTEX
  8
SJC2
  5
1C5AB
 10
1229.93
 20
346.577
 30
0.000000
  70
    32
  0
VERTEX
  8
SJC2
  5
1C5AC
 10
1228.71
 20
344.134
 30
0.000000
  70
    32
  0
VERTEX
  8
SJC2
  5
1C5AD
 10
1227.55
 20
341.677
 30
0.000000
  70
    32
  0
VERTEX
  8
SJC2
  5
1C5AE
 10
1226.45
 20
339.211
 30
0.000000
  70
    32
  0
VERTEX
  8
SJC2
  5
1C5AF
 10
1225.43
 20
336.742
 30
0.000000
  70
    32
  0
VERTEX
  8
SJC2
  5
1C5B0
 10
1224.48
 20
334.277
 30
0.000000
  70
    32
  0
VERTEX
  8
SJC2
  5
1C5B1
 10
1223.61
 20
331.820
 30
0.000000
  70
    32
  0
VERTEX
  8
SJC2
  5
1C5B2
 10
1222.81
 20
329.379
 30
0.000000
  70
    32
  0
VERTEX
  8
SJC2
  5
1C5B3
 10
1222.09
 20
326.959
 30
0.000000
  70
    32
  0
VERTEX
  8
SJC2
  5
1C5B4
 10
1221.45
 20
324.565
 30
0.000000
  70
    32
  0
VERTEX
  8
SJC2
  5
1C5B5
 10
1220.90
 20
322.204
 30
0.000000
  70
    32
  0
VERTEX
  8
SJC2
  5
1C5B6
 10
1220.43
 20
319.882
 30
0.000000
  70
    32
  0
VERTEX
  8
SJC2
  5
1C5B7
 10
1220.04
 20
317.603
 30
0.000000
  70
    32
  0
VERTEX
  8
SJC2
  5
1C5B8
 10
1219.74
 20
315.373
 30
0.000000
  70
    32
  0
VERTEX
  8
SJC2
  5
1C5B9
 10
1219.52
 20
313.198
 30
0.000000
  70
    32
  0
VERTEX
  8
SJC2
  5
1C5BA
 10
1219.40
 20
311.083
 30
0.000000
  70
    32
  0
VERTEX
  8
SJC2
  5
1C5BB
 10
1219.36
 20
309.033
 30
0.000000
  70
    32
  0
VERTEX
  8
SJC2
  5
1C5BC
 10
1219.40
 20
307.053
 30
0.000000
  70
    32
  0
VERTEX
  8
SJC2
  5
1C5BD
 10
1219.54
 20
305.147
 30
0.000000
  70
    32
  0
VERTEX
  8
SJC2
  5
1C5BE
 10
1219.76
 20
303.321
 30
0.000000
  70
    32
  0
VERTEX
  8
SJC2
  5
1C5BF
 10
1220.07
 20
301.579
 30
0.000000
  70
    32
  0
VERTEX
  8
SJC2
  5
1C5C0
 10
1220.46
 20
299.925
 30
0.000000
  70
    32
  0
VERTEX
  8
SJC2
  5
1C5C1
 10
1220.94
 20
298.362
 30
0.000000
  70
    32
  0
VERTEX
  8
SJC2
  5
1C5C2
 10
1221.50
 20
296.895
 30
0.000000
  70
    32
  0
VERTEX
  8
SJC2
  5
1C5C3
 10
1222.15
 20
295.528
 30
0.000000
  70
    32
  0
VERTEX
  8
SJC2
  5
1C5C4
 10
1222.87
 20
294.263
 30
0.000000
  70
    32
  0
VERTEX
  8
SJC2
  5
1C5C5
 10
1223.68
 20
293.103
 30
0.000000
  70
    32
  0
VERTEX
  8
SJC2
  5
1C5C6
 10
1224.56
 20
292.052
 30
0.000000
  70
    32
  0
VERTEX
  8
SJC2
  5
1C5C7
 10
1225.51
 20
291.111
 30
0.000000
  70
    32
  0
VERTEX
  8
SJC2
  5
1C5C8
 10
1226.54
 20
290.284
 30
0.000000
  70
    32
  0
VERTEX
  8
SJC2
  5
1C5C9
 10
1227.64
 20
289.572
 30
0.000000
  70
    32
  0
SEQEND
  8
SJC2
  5
1C5CA
  0
POLYLINE
  5
1B0B2
  8
SJC2
 10
1289.9010636160619
 20
289.57177566539235
 30
0.0
 66
     1
 70
     8
  0
VERTEX
  8
SJC2
  5
1C5CB
 10
1289.90
 20
289.572
 30
0.000000
  70
    32
  0
VERTEX
  8
SJC2
  5
1C5CC
 10
1291.07
 20
288.976
 30
0.000000
  70
    32
  0
VERTEX
  8
SJC2
  5
1C5CD
 10
1292.30
 20
288.499
 30
0.000000
  70
    32
  0
VERTEX
  8
SJC2
  5
1C5CE
 10
1293.59
 20
288.142
 30
0.000000
  70
    32
  0
VERTEX
  8
SJC2
  5
1C5CF
 10
1294.94
 20
287.904
 30
0.000000
  70
    32
  0
VERTEX
  8
SJC2
  5
1C5D0
 10
1296.35
 20
287.788
 30
0.000000
  70
    32
  0
VERTEX
  8
SJC2
  5
1C5D1
 10
1297.81
 20
287.793
 30
0.000000
  70
    32
  0
VERTEX
  8
SJC2
  5
1C5D2
 10
1299.31
 20
287.918
 30
0.000000
  70
    32
  0
VERTEX
  8
SJC2
  5
1C5D3
 10
1300.86
 20
288.165
 30
0.000000
  70
    32
  0
VERTEX
  8
SJC2
  5
1C5D4
 10
1302.46
 20
288.532
 30
0.000000
  70
    32
  0
VERTEX
  8
SJC2
  5
1C5D5
 10
1304.09
 20
289.018
 30
0.000000
  70
    32
  0
VERTEX
  8
SJC2
  5
1C5D6
 10
1305.75
 20
289.622
 30
0.000000
  70
    32
  0
VERTEX
  8
SJC2
  5
1C5D7
 10
1307.44
 20
290.343
 30
0.000000
  70
    32
  0
VERTEX
  8
SJC2
  5
1C5D8
 10
1309.16
 20
291.179
 30
0.000000
  70
    32
  0
VERTEX
  8
SJC2
  5
1C5D9
 10
1310.90
 20
292.128
 30
0.000000
  70
    32
  0
VERTEX
  8
SJC2
  5
1C5DA
 10
1312.65
 20
293.188
 30
0.000000
  70
    32
  0
VERTEX
  8
SJC2
  5
1C5DB
 10
1314.42
 20
294.356
 30
0.000000
  70
    32
  0
VERTEX
  8
SJC2
  5
1C5DC
 10
1316.20
 20
295.629
 30
0.000000
  70
    32
  0
VERTEX
  8
SJC2
  5
1C5DD
 10
1317.98
 20
297.004
 30
0.000000
  70
    32
  0
VERTEX
  8
SJC2
  5
1C5DE
 10
1319.76
 20
298.479
 30
0.000000
  70
    32
  0
VERTEX
  8
SJC2
  5
1C5DF
 10
1321.53
 20
300.048
 30
0.000000
  70
    32
  0
VERTEX
  8
SJC2
  5
1C5E0
 10
1323.30
 20
301.709
 30
0.000000
  70
    32
  0
VERTEX
  8
SJC2
  5
1C5E1
 10
1325.05
 20
303.458
 30
0.000000
  70
    32
  0
VERTEX
  8
SJC2
  5
1C5E2
 10
1326.79
 20
305.291
 30
0.000000
  70
    32
  0
VERTEX
  8
SJC2
  5
1C5E3
 10
1328.51
 20
307.202
 30
0.000000
  70
    32
  0
VERTEX
  8
SJC2
  5
1C5E4
 10
1330.20
 20
309.187
 30
0.000000
  70
    32
  0
VERTEX
  8
SJC2
  5
1C5E5
 10
1331.86
 20
311.243
 30
0.000000
  70
    32
  0
VERTEX
  8
SJC2
  5
1C5E6
 10
1333.48
 20
313.362
 30
0.000000
  70
    32
  0
VERTEX
  8
SJC2
  5
1C5E7
 10
1335.07
 20
315.542
 30
0.000000
  70
    32
  0
VERTEX
  8
SJC2
  5
1C5E8
 10
1336.62
 20
317.775
 30
0.000000
  70
    32
  0
VERTEX
  8
SJC2
  5
1C5E9
 10
1338.12
 20
320.058
 30
0.000000
  70
    32
  0
VERTEX
  8
SJC2
  5
1C5EA
 10
1339.58
 20
322.384
 30
0.000000
  70
    32
  0
VERTEX
  8
SJC2
  5
1C5EB
 10
1340.98
 20
324.748
 30
0.000000
  70
    32
  0
VERTEX
  8
SJC2
  5
1C5EC
 10
1342.33
 20
327.143
 30
0.000000
  70
    32
  0
VERTEX
  8
SJC2
  5
1C5ED
 10
1343.61
 20
329.565
 30
0.000000
  70
    32
  0
VERTEX
  8
SJC2
  5
1C5EE
 10
1344.84
 20
332.008
 30
0.000000
  70
    32
  0
VERTEX
  8
SJC2
  5
1C5EF
 10
1346.00
 20
334.465
 30
0.000000
  70
    32
  0
VERTEX
  8
SJC2
  5
1C5F0
 10
1347.09
 20
336.931
 30
0.000000
  70
    32
  0
VERTEX
  8
SJC2
  5
1C5F1
 10
1348.11
 20
339.400
 30
0.000000
  70
    32
  0
VERTEX
  8
SJC2
  5
1C5F2
 10
1349.06
 20
341.865
 30
0.000000
  70
    32
  0
VERTEX
  8
SJC2
  5
1C5F3
 10
1349.94
 20
344.322
 30
0.000000
  70
    32
  0
VERTEX
  8
SJC2
  5
1C5F4
 10
1350.74
 20
346.763
 30
0.000000
  70
    32
  0
VERTEX
  8
SJC2
  5
1C5F5
 10
1351.45
 20
349.183
 30
0.000000
  70
    32
  0
VERTEX
  8
SJC2
  5
1C5F6
 10
1352.09
 20
351.577
 30
0.000000
  70
    32
  0
VERTEX
  8
SJC2
  5
1C5F7
 10
1352.65
 20
353.938
 30
0.000000
  70
    32
  0
VERTEX
  8
SJC2
  5
1C5F8
 10
1353.12
 20
356.260
 30
0.000000
  70
    32
  0
VERTEX
  8
SJC2
  5
1C5F9
 10
1353.50
 20
358.539
 30
0.000000
  70
    32
  0
VERTEX
  8
SJC2
  5
1C5FA
 10
1353.81
 20
360.769
 30
0.000000
  70
    32
  0
VERTEX
  8
SJC2
  5
1C5FB
 10
1354.02
 20
362.944
 30
0.000000
  70
    32
  0
VERTEX
  8
SJC2
  5
1C5FC
 10
1354.15
 20
365.059
 30
0.000000
  70
    32
  0
VERTEX
  8
SJC2
  5
1C5FD
 10
1354.19
 20
367.109
 30
0.000000
  70
    32
  0
VERTEX
  8
SJC2
  5
1C5FE
 10
1354.14
 20
369.089
 30
0.000000
  70
    32
  0
VERTEX
  8
SJC2
  5
1C5FF
 10
1354.00
 20
370.994
 30
0.000000
  70
    32
  0
VERTEX
  8
SJC2
  5
1C600
 10
1353.78
 20
372.820
 30
0.000000
  70
    32
  0
VERTEX
  8
SJC2
  5
1C601
 10
1353.48
 20
374.563
 30
0.000000
  70
    32
  0
VERTEX
  8
SJC2
  5
1C602
 10
1353.08
 20
376.217
 30
0.000000
  70
    32
  0
VERTEX
  8
SJC2
  5
1C603
 10
1352.60
 20
377.780
 30
0.000000
  70
    32
  0
VERTEX
  8
SJC2
  5
1C604
 10
1352.04
 20
379.247
 30
0.000000
  70
    32
  0
VERTEX
  8
SJC2
  5
1C605
 10
1351.40
 20
380.614
 30
0.000000
  70
    32
  0
VERTEX
  8
SJC2
  5
1C606
 10
1350.67
 20
381.879
 30
0.000000
  70
    32
  0
VERTEX
  8
SJC2
  5
1C607
 10
1349.87
 20
383.039
 30
0.000000
  70
    32
  0
VERTEX
  8
SJC2
  5
1C608
 10
1348.99
 20
384.090
 30
0.000000
  70
    32
  0
VERTEX
  8
SJC2
  5
1C609
 10
1348.03
 20
385.031
 30
0.000000
  70
    32
  0
VERTEX
  8
SJC2
  5
1C60A
 10
1347.00
 20
385.858
 30
0.000000
  70
    32
  0
VERTEX
  8
SJC2
  5
1C60B
 10
1345.90
 20
386.570
 30
0.000000
  70
    32
  0
VERTEX
  8
SJC2
  5
1C60C
 10
1344.74
 20
387.165
 30
0.000000
  70
    32
  0
VERTEX
  8
SJC2
  5
1C60D
 10
1343.51
 20
387.643
 30
0.000000
  70
    32
  0
VERTEX
  8
SJC2
  5
1C60E
 10
1342.21
 20
388.000
 30
0.000000
  70
    32
  0
VERTEX
  8
SJC2
  5
1C60F
 10
1340.86
 20
388.238
 30
0.000000
  70
    32
  0
VERTEX
  8
SJC2
  5
1C610
 10
1339.46
 20
388.354
 30
0.000000
  70
    32
  0
VERTEX
  8
SJC2
  5
1C611
 10
1338.00
 20
388.349
 30
0.000000
  70
    32
  0
VERTEX
  8
SJC2
  5
1C612
 10
1336.49
 20
388.224
 30
0.000000
  70
    32
  0
VERTEX
  8
SJC2
  5
1C613
 10
1334.94
 20
387.977
 30
0.000000
  70
    32
  0
VERTEX
  8
SJC2
  5
1C614
 10
1333.35
 20
387.610
 30
0.000000
  70
    32
  0
VERTEX
  8
SJC2
  5
1C615
 10
1331.72
 20
387.124
 30
0.000000
  70
    32
  0
VERTEX
  8
SJC2
  5
1C616
 10
1330.06
 20
386.520
 30
0.000000
  70
    32
  0
VERTEX
  8
SJC2
  5
1C617
 10
1328.36
 20
385.799
 30
0.000000
  70
    32
  0
VERTEX
  8
SJC2
  5
1C618
 10
1326.65
 20
384.963
 30
0.000000
  70
    32
  0
VERTEX
  8
SJC2
  5
1C619
 10
1324.91
 20
384.014
 30
0.000000
  70
    32
  0
VERTEX
  8
SJC2
  5
1C61A
 10
1323.15
 20
382.954
 30
0.000000
  70
    32
  0
VERTEX
  8
SJC2
  5
1C61B
 10
1321.38
 20
381.786
 30
0.000000
  70
    32
  0
VERTEX
  8
SJC2
  5
1C61C
 10
1319.61
 20
380.513
 30
0.000000
  70
    32
  0
VERTEX
  8
SJC2
  5
1C61D
 10
1317.83
 20
379.138
 30
0.000000
  70
    32
  0
VERTEX
  8
SJC2
  5
1C61E
 10
1316.05
 20
377.663
 30
0.000000
  70
    32
  0
VERTEX
  8
SJC2
  5
1C61F
 10
1314.27
 20
376.094
 30
0.000000
  70
    32
  0
VERTEX
  8
SJC2
  5
1C620
 10
1312.50
 20
374.432
 30
0.000000
  70
    32
  0
VERTEX
  8
SJC2
  5
1C621
 10
1310.75
 20
372.684
 30
0.000000
  70
    32
  0
VERTEX
  8
SJC2
  5
1C622
 10
1309.01
 20
370.851
 30
0.000000
  70
    32
  0
VERTEX
  8
SJC2
  5
1C623
 10
1307.30
 20
368.940
 30
0.000000
  70
    32
  0
VERTEX
  8
SJC2
  5
1C624
 10
1305.61
 20
366.954
 30
0.000000
  70
    32
  0
VERTEX
  8
SJC2
  5
1C625
 10
1303.95
 20
364.899
 30
0.000000
  70
    32
  0
VERTEX
  8
SJC2
  5
1C626
 10
1302.32
 20
362.779
 30
0.000000
  70
    32
  0
VERTEX
  8
SJC2
  5
1C627
 10
1300.73
 20
360.600
 30
0.000000
  70
    32
  0
VERTEX
  8
SJC2
  5
1C628
 10
1299.18
 20
358.367
 30
0.000000
  70
    32
  0
VERTEX
  8
SJC2
  5
1C629
 10
1297.68
 20
356.084
 30
0.000000
  70
    32
  0
VERTEX
  8
SJC2
  5
1C62A
 10
1296.23
 20
353.758
 30
0.000000
  70
    32
  0
VERTEX
  8
SJC2
  5
1C62B
 10
1294.83
 20
351.394
 30
0.000000
  70
    32
  0
VERTEX
  8
SJC2
  5
1C62C
 10
1293.48
 20
348.999
 30
0.000000
  70
    32
  0
VERTEX
  8
SJC2
  5
1C62D
 10
1292.19
 20
346.577
 30
0.000000
  70
    32
  0
VERTEX
  8
SJC2
  5
1C62E
 10
1290.97
 20
344.134
 30
0.000000
  70
    32
  0
VERTEX
  8
SJC2
  5
1C62F
 10
1289.81
 20
341.677
 30
0.000000
  70
    32
  0
VERTEX
  8
SJC2
  5
1C630
 10
1288.71
 20
339.211
 30
0.000000
  70
    32
  0
VERTEX
  8
SJC2
  5
1C631
 10
1287.69
 20
336.742
 30
0.000000
  70
    32
  0
VERTEX
  8
SJC2
  5
1C632
 10
1286.74
 20
334.277
 30
0.000000
  70
    32
  0
VERTEX
  8
SJC2
  5
1C633
 10
1285.87
 20
331.820
 30
0.000000
  70
    32
  0
VERTEX
  8
SJC2
  5
1C634
 10
1285.07
 20
329.379
 30
0.000000
  70
    32
  0
VERTEX
  8
SJC2
  5
1C635
 10
1284.35
 20
326.959
 30
0.000000
  70
    32
  0
VERTEX
  8
SJC2
  5
1C636
 10
1283.71
 20
324.565
 30
0.000000
  70
    32
  0
VERTEX
  8
SJC2
  5
1C637
 10
1283.16
 20
322.204
 30
0.000000
  70
    32
  0
VERTEX
  8
SJC2
  5
1C638
 10
1282.69
 20
319.882
 30
0.000000
  70
    32
  0
VERTEX
  8
SJC2
  5
1C639
 10
1282.30
 20
317.603
 30
0.000000
  70
    32
  0
VERTEX
  8
SJC2
  5
1C63A
 10
1282.00
 20
315.373
 30
0.000000
  70
    32
  0
VERTEX
  8
SJC2
  5
1C63B
 10
1281.78
 20
313.198
 30
0.000000
  70
    32
  0
VERTEX
  8
SJC2
  5
1C63C
 10
1281.66
 20
311.083
 30
0.000000
  70
    32
  0
VERTEX
  8
SJC2
  5
1C63D
 10
1281.62
 20
309.033
 30
0.000000
  70
    32
  0
VERTEX
  8
SJC2
  5
1C63E
 10
1281.66
 20
307.053
 30
0.000000
  70
    32
  0
VERTEX
  8
SJC2
  5
1C63F
 10
1281.80
 20
305.147
 30
0.000000
  70
    32
  0
VERTEX
  8
SJC2
  5
1C640
 10
1282.02
 20
303.321
 30
0.000000
  70
    32
  0
VERTEX
  8
SJC2
  5
1C641
 10
1282.33
 20
301.579
 30
0.000000
  70
    32
  0
VERTEX
  8
SJC2
  5
1C642
 10
1282.72
 20
299.925
 30
0.000000
  70
    32
  0
VERTEX
  8
SJC2
  5
1C643
 10
1283.20
 20
298.362
 30
0.000000
  70
    32
  0
VERTEX
  8
SJC2
  5
1C644
 10
1283.76
 20
296.895
 30
0.000000
  70
    32
  0
VERTEX
  8
SJC2
  5
1C645
 10
1284.41
 20
295.528
 30
0.000000
  70
    32
  0
VERTEX
  8
SJC2
  5
1C646
 10
1285.13
 20
294.263
 30
0.000000
  70
    32
  0
VERTEX
  8
SJC2
  5
1C647
 10
1285.94
 20
293.103
 30
0.000000
  70
    32
  0
VERTEX
  8
SJC2
  5
1C648
 10
1286.82
 20
292.052
 30
0.000000
  70
    32
  0
VERTEX
  8
SJC2
  5
1C649
 10
1287.77
 20
291.111
 30
0.000000
  70
    32
  0
VERTEX
  8
SJC2
  5
1C64A
 10
1288.80
 20
290.284
 30
0.000000
  70
    32
  0
VERTEX
  8
SJC2
  5
1C64B
 10
1289.90
 20
289.572
 30
0.000000
  70
    32
  0
SEQEND
  8
SJC2
  5
1C64C
  0
POLYLINE
  5
1B0B3
  8
SJC2
 10
1488.9947981885068
 20
289.57177566539235
 30
0.0
 66
     1
 70
     8
  0
VERTEX
  8
SJC2
  5
1C64D
 10
1488.99
 20
289.572
 30
0.000000
  70
    32
  0
VERTEX
  8
SJC2
  5
1C64E
 10
1490.16
 20
288.976
 30
0.000000
  70
    32
  0
VERTEX
  8
SJC2
  5
1C64F
 10
1491.39
 20
288.499
 30
0.000000
  70
    32
  0
VERTEX
  8
SJC2
  5
1C650
 10
1492.68
 20
288.142
 30
0.000000
  70
    32
  0
VERTEX
  8
SJC2
  5
1C651
 10
1494.03
 20
287.904
 30
0.000000
  70
    32
  0
VERTEX
  8
SJC2
  5
1C652
 10
1495.44
 20
287.788
 30
0.000000
  70
    32
  0
VERTEX
  8
SJC2
  5
1C653
 10
1496.90
 20
287.793
 30
0.000000
  70
    32
  0
VERTEX
  8
SJC2
  5
1C654
 10
1498.41
 20
287.918
 30
0.000000
  70
    32
  0
VERTEX
  8
SJC2
  5
1C655
 10
1499.96
 20
288.165
 30
0.000000
  70
    32
  0
VERTEX
  8
SJC2
  5
1C656
 10
1501.55
 20
288.532
 30
0.000000
  70
    32
  0
VERTEX
  8
SJC2
  5
1C657
 10
1503.18
 20
289.018
 30
0.000000
  70
    32
  0
VERTEX
  8
SJC2
  5
1C658
 10
1504.84
 20
289.622
 30
0.000000
  70
    32
  0
VERTEX
  8
SJC2
  5
1C659
 10
1506.53
 20
290.343
 30
0.000000
  70
    32
  0
VERTEX
  8
SJC2
  5
1C65A
 10
1508.25
 20
291.179
 30
0.000000
  70
    32
  0
VERTEX
  8
SJC2
  5
1C65B
 10
1509.99
 20
292.128
 30
0.000000
  70
    32
  0
VERTEX
  8
SJC2
  5
1C65C
 10
1511.75
 20
293.188
 30
0.000000
  70
    32
  0
VERTEX
  8
SJC2
  5
1C65D
 10
1513.51
 20
294.356
 30
0.000000
  70
    32
  0
VERTEX
  8
SJC2
  5
1C65E
 10
1515.29
 20
295.629
 30
0.000000
  70
    32
  0
VERTEX
  8
SJC2
  5
1C65F
 10
1517.07
 20
297.004
 30
0.000000
  70
    32
  0
VERTEX
  8
SJC2
  5
1C660
 10
1518.85
 20
298.479
 30
0.000000
  70
    32
  0
VERTEX
  8
SJC2
  5
1C661
 10
1520.63
 20
300.048
 30
0.000000
  70
    32
  0
VERTEX
  8
SJC2
  5
1C662
 10
1522.39
 20
301.709
 30
0.000000
  70
    32
  0
VERTEX
  8
SJC2
  5
1C663
 10
1524.15
 20
303.458
 30
0.000000
  70
    32
  0
VERTEX
  8
SJC2
  5
1C664
 10
1525.89
 20
305.291
 30
0.000000
  70
    32
  0
VERTEX
  8
SJC2
  5
1C665
 10
1527.60
 20
307.202
 30
0.000000
  70
    32
  0
VERTEX
  8
SJC2
  5
1C666
 10
1529.29
 20
309.187
 30
0.000000
  70
    32
  0
VERTEX
  8
SJC2
  5
1C667
 10
1530.95
 20
311.243
 30
0.000000
  70
    32
  0
VERTEX
  8
SJC2
  5
1C668
 10
1532.58
 20
313.362
 30
0.000000
  70
    32
  0
VERTEX
  8
SJC2
  5
1C669
 10
1534.17
 20
315.542
 30
0.000000
  70
    32
  0
VERTEX
  8
SJC2
  5
1C66A
 10
1535.71
 20
317.775
 30
0.000000
  70
    32
  0
VERTEX
  8
SJC2
  5
1C66B
 10
1537.22
 20
320.058
 30
0.000000
  70
    32
  0
VERTEX
  8
SJC2
  5
1C66C
 10
1538.67
 20
322.384
 30
0.000000
  70
    32
  0
VERTEX
  8
SJC2
  5
1C66D
 10
1540.07
 20
324.748
 30
0.000000
  70
    32
  0
VERTEX
  8
SJC2
  5
1C66E
 10
1541.42
 20
327.143
 30
0.000000
  70
    32
  0
VERTEX
  8
SJC2
  5
1C66F
 10
1542.71
 20
329.565
 30
0.000000
  70
    32
  0
VERTEX
  8
SJC2
  5
1C670
 10
1543.93
 20
332.008
 30
0.000000
  70
    32
  0
VERTEX
  8
SJC2
  5
1C671
 10
1545.09
 20
334.465
 30
0.000000
  70
    32
  0
VERTEX
  8
SJC2
  5
1C672
 10
1546.18
 20
336.931
 30
0.000000
  70
    32
  0
VERTEX
  8
SJC2
  5
1C673
 10
1547.21
 20
339.400
 30
0.000000
  70
    32
  0
VERTEX
  8
SJC2
  5
1C674
 10
1548.16
 20
341.865
 30
0.000000
  70
    32
  0
VERTEX
  8
SJC2
  5
1C675
 10
1549.03
 20
344.322
 30
0.000000
  70
    32
  0
VERTEX
  8
SJC2
  5
1C676
 10
1549.83
 20
346.763
 30
0.000000
  70
    32
  0
VERTEX
  8
SJC2
  5
1C677
 10
1550.55
 20
349.183
 30
0.000000
  70
    32
  0
VERTEX
  8
SJC2
  5
1C678
 10
1551.18
 20
351.577
 30
0.000000
  70
    32
  0
VERTEX
  8
SJC2
  5
1C679
 10
1551.74
 20
353.938
 30
0.000000
  70
    32
  0
VERTEX
  8
SJC2
  5
1C67A
 10
1552.21
 20
356.260
 30
0.000000
  70
    32
  0
VERTEX
  8
SJC2
  5
1C67B
 10
1552.60
 20
358.539
 30
0.000000
  70
    32
  0
VERTEX
  8
SJC2
  5
1C67C
 10
1552.90
 20
360.769
 30
0.000000
  70
    32
  0
VERTEX
  8
SJC2
  5
1C67D
 10
1553.11
 20
362.944
 30
0.000000
  70
    32
  0
VERTEX
  8
SJC2
  5
1C67E
 10
1553.24
 20
365.059
 30
0.000000
  70
    32
  0
VERTEX
  8
SJC2
  5
1C67F
 10
1553.28
 20
367.109
 30
0.000000
  70
    32
  0
VERTEX
  8
SJC2
  5
1C680
 10
1553.23
 20
369.089
 30
0.000000
  70
    32
  0
VERTEX
  8
SJC2
  5
1C681
 10
1553.10
 20
370.994
 30
0.000000
  70
    32
  0
VERTEX
  8
SJC2
  5
1C682
 10
1552.88
 20
372.820
 30
0.000000
  70
    32
  0
VERTEX
  8
SJC2
  5
1C683
 10
1552.57
 20
374.563
 30
0.000000
  70
    32
  0
VERTEX
  8
SJC2
  5
1C684
 10
1552.18
 20
376.217
 30
0.000000
  70
    32
  0
VERTEX
  8
SJC2
  5
1C685
 10
1551.70
 20
377.780
 30
0.000000
  70
    32
  0
VERTEX
  8
SJC2
  5
1C686
 10
1551.13
 20
379.247
 30
0.000000
  70
    32
  0
VERTEX
  8
SJC2
  5
1C687
 10
1550.49
 20
380.614
 30
0.000000
  70
    32
  0
VERTEX
  8
SJC2
  5
1C688
 10
1549.76
 20
381.879
 30
0.000000
  70
    32
  0
VERTEX
  8
SJC2
  5
1C689
 10
1548.96
 20
383.039
 30
0.000000
  70
    32
  0
VERTEX
  8
SJC2
  5
1C68A
 10
1548.08
 20
384.090
 30
0.000000
  70
    32
  0
VERTEX
  8
SJC2
  5
1C68B
 10
1547.12
 20
385.031
 30
0.000000
  70
    32
  0
VERTEX
  8
SJC2
  5
1C68C
 10
1546.10
 20
385.858
 30
0.000000
  70
    32
  0
VERTEX
  8
SJC2
  5
1C68D
 10
1545.00
 20
386.570
 30
0.000000
  70
    32
  0
VERTEX
  8
SJC2
  5
1C68E
 10
1543.83
 20
387.165
 30
0.000000
  70
    32
  0
VERTEX
  8
SJC2
  5
1C68F
 10
1542.60
 20
387.643
 30
0.000000
  70
    32
  0
VERTEX
  8
SJC2
  5
1C690
 10
1541.31
 20
388.000
 30
0.000000
  70
    32
  0
VERTEX
  8
SJC2
  5
1C691
 10
1539.96
 20
388.238
 30
0.000000
  70
    32
  0
VERTEX
  8
SJC2
  5
1C692
 10
1538.55
 20
388.354
 30
0.000000
  70
    32
  0
VERTEX
  8
SJC2
  5
1C693
 10
1537.09
 20
388.349
 30
0.000000
  70
    32
  0
VERTEX
  8
SJC2
  5
1C694
 10
1535.59
 20
388.224
 30
0.000000
  70
    32
  0
VERTEX
  8
SJC2
  5
1C695
 10
1534.03
 20
387.977
 30
0.000000
  70
    32
  0
VERTEX
  8
SJC2
  5
1C696
 10
1532.44
 20
387.610
 30
0.000000
  70
    32
  0
VERTEX
  8
SJC2
  5
1C697
 10
1530.81
 20
387.124
 30
0.000000
  70
    32
  0
VERTEX
  8
SJC2
  5
1C698
 10
1529.15
 20
386.520
 30
0.000000
  70
    32
  0
VERTEX
  8
SJC2
  5
1C699
 10
1527.46
 20
385.799
 30
0.000000
  70
    32
  0
VERTEX
  8
SJC2
  5
1C69A
 10
1525.74
 20
384.963
 30
0.000000
  70
    32
  0
VERTEX
  8
SJC2
  5
1C69B
 10
1524.00
 20
384.014
 30
0.000000
  70
    32
  0
VERTEX
  8
SJC2
  5
1C69C
 10
1522.25
 20
382.954
 30
0.000000
  70
    32
  0
VERTEX
  8
SJC2
  5
1C69D
 10
1520.48
 20
381.786
 30
0.000000
  70
    32
  0
VERTEX
  8
SJC2
  5
1C69E
 10
1518.70
 20
380.513
 30
0.000000
  70
    32
  0
VERTEX
  8
SJC2
  5
1C69F
 10
1516.92
 20
379.138
 30
0.000000
  70
    32
  0
VERTEX
  8
SJC2
  5
1C6A0
 10
1515.14
 20
377.663
 30
0.000000
  70
    32
  0
VERTEX
  8
SJC2
  5
1C6A1
 10
1513.36
 20
376.094
 30
0.000000
  70
    32
  0
VERTEX
  8
SJC2
  5
1C6A2
 10
1511.60
 20
374.432
 30
0.000000
  70
    32
  0
VERTEX
  8
SJC2
  5
1C6A3
 10
1509.84
 20
372.684
 30
0.000000
  70
    32
  0
VERTEX
  8
SJC2
  5
1C6A4
 10
1508.11
 20
370.851
 30
0.000000
  70
    32
  0
VERTEX
  8
SJC2
  5
1C6A5
 10
1506.39
 20
368.940
 30
0.000000
  70
    32
  0
VERTEX
  8
SJC2
  5
1C6A6
 10
1504.70
 20
366.954
 30
0.000000
  70
    32
  0
VERTEX
  8
SJC2
  5
1C6A7
 10
1503.04
 20
364.899
 30
0.000000
  70
    32
  0
VERTEX
  8
SJC2
  5
1C6A8
 10
1501.41
 20
362.779
 30
0.000000
  70
    32
  0
VERTEX
  8
SJC2
  5
1C6A9
 10
1499.83
 20
360.600
 30
0.000000
  70
    32
  0
VERTEX
  8
SJC2
  5
1C6AA
 10
1498.28
 20
358.367
 30
0.000000
  70
    32
  0
VERTEX
  8
SJC2
  5
1C6AB
 10
1496.77
 20
356.084
 30
0.000000
  70
    32
  0
VERTEX
  8
SJC2
  5
1C6AC
 10
1495.32
 20
353.758
 30
0.000000
  70
    32
  0
VERTEX
  8
SJC2
  5
1C6AD
 10
1493.92
 20
351.394
 30
0.000000
  70
    32
  0
VERTEX
  8
SJC2
  5
1C6AE
 10
1492.57
 20
348.999
 30
0.000000
  70
    32
  0
VERTEX
  8
SJC2
  5
1C6AF
 10
1491.29
 20
346.577
 30
0.000000
  70
    32
  0
VERTEX
  8
SJC2
  5
1C6B0
 10
1490.06
 20
344.134
 30
0.000000
  70
    32
  0
VERTEX
  8
SJC2
  5
1C6B1
 10
1488.90
 20
341.677
 30
0.000000
  70
    32
  0
VERTEX
  8
SJC2
  5
1C6B2
 10
1487.81
 20
339.211
 30
0.000000
  70
    32
  0
VERTEX
  8
SJC2
  5
1C6B3
 10
1486.78
 20
336.742
 30
0.000000
  70
    32
  0
VERTEX
  8
SJC2
  5
1C6B4
 10
1485.83
 20
334.277
 30
0.000000
  70
    32
  0
VERTEX
  8
SJC2
  5
1C6B5
 10
1484.96
 20
331.820
 30
0.000000
  70
    32
  0
VERTEX
  8
SJC2
  5
1C6B6
 10
1484.16
 20
329.379
 30
0.000000
  70
    32
  0
VERTEX
  8
SJC2
  5
1C6B7
 10
1483.44
 20
326.959
 30
0.000000
  70
    32
  0
VERTEX
  8
SJC2
  5
1C6B8
 10
1482.81
 20
324.565
 30
0.000000
  70
    32
  0
VERTEX
  8
SJC2
  5
1C6B9
 10
1482.25
 20
322.204
 30
0.000000
  70
    32
  0
VERTEX
  8
SJC2
  5
1C6BA
 10
1481.78
 20
319.882
 30
0.000000
  70
    32
  0
VERTEX
  8
SJC2
  5
1C6BB
 10
1481.39
 20
317.603
 30
0.000000
  70
    32
  0
VERTEX
  8
SJC2
  5
1C6BC
 10
1481.09
 20
315.373
 30
0.000000
  70
    32
  0
VERTEX
  8
SJC2
  5
1C6BD
 10
1480.88
 20
313.198
 30
0.000000
  70
    32
  0
VERTEX
  8
SJC2
  5
1C6BE
 10
1480.75
 20
311.083
 30
0.000000
  70
    32
  0
VERTEX
  8
SJC2
  5
1C6BF
 10
1480.71
 20
309.033
 30
0.000000
  70
    32
  0
VERTEX
  8
SJC2
  5
1C6C0
 10
1480.76
 20
307.053
 30
0.000000
  70
    32
  0
VERTEX
  8
SJC2
  5
1C6C1
 10
1480.89
 20
305.147
 30
0.000000
  70
    32
  0
VERTEX
  8
SJC2
  5
1C6C2
 10
1481.11
 20
303.321
 30
0.000000
  70
    32
  0
VERTEX
  8
SJC2
  5
1C6C3
 10
1481.42
 20
301.579
 30
0.000000
  70
    32
  0
VERTEX
  8
SJC2
  5
1C6C4
 10
1481.82
 20
299.925
 30
0.000000
  70
    32
  0
VERTEX
  8
SJC2
  5
1C6C5
 10
1482.30
 20
298.362
 30
0.000000
  70
    32
  0
VERTEX
  8
SJC2
  5
1C6C6
 10
1482.86
 20
296.895
 30
0.000000
  70
    32
  0
VERTEX
  8
SJC2
  5
1C6C7
 10
1483.50
 20
295.528
 30
0.000000
  70
    32
  0
VERTEX
  8
SJC2
  5
1C6C8
 10
1484.23
 20
294.263
 30
0.000000
  70
    32
  0
VERTEX
  8
SJC2
  5
1C6C9
 10
1485.03
 20
293.103
 30
0.000000
  70
    32
  0
VERTEX
  8
SJC2
  5
1C6CA
 10
1485.91
 20
292.052
 30
0.000000
  70
    32
  0
VERTEX
  8
SJC2
  5
1C6CB
 10
1486.87
 20
291.111
 30
0.000000
  70
    32
  0
VERTEX
  8
SJC2
  5
1C6CC
 10
1487.90
 20
290.284
 30
0.000000
  70
    32
  0
VERTEX
  8
SJC2
  5
1C6CD
 10
1488.99
 20
289.572
 30
0.000000
  70
    32
  0
SEQEND
  8
SJC2
  5
1C6CE
  0
POLYLINE
  5
1B0B4
  8
SJC2
 10
1551.254512881163
 20
289.57177566539235
 30
0.0
 66
     1
 70
     8
  0
VERTEX
  8
SJC2
  5
1C6CF
 10
1551.25
 20
289.572
 30
0.000000
  70
    32
  0
VERTEX
  8
SJC2
  5
1C6D0
 10
1552.42
 20
288.976
 30
0.000000
  70
    32
  0
VERTEX
  8
SJC2
  5
1C6D1
 10
1553.65
 20
288.499
 30
0.000000
  70
    32
  0
VERTEX
  8
SJC2
  5
1C6D2
 10
1554.94
 20
288.142
 30
0.000000
  70
    32
  0
VERTEX
  8
SJC2
  5
1C6D3
 10
1556.29
 20
287.904
 30
0.000000
  70
    32
  0
VERTEX
  8
SJC2
  5
1C6D4
 10
1557.70
 20
287.788
 30
0.000000
  70
    32
  0
VERTEX
  8
SJC2
  5
1C6D5
 10
1559.16
 20
287.793
 30
0.000000
  70
    32
  0
VERTEX
  8
SJC2
  5
1C6D6
 10
1560.67
 20
287.918
 30
0.000000
  70
    32
  0
VERTEX
  8
SJC2
  5
1C6D7
 10
1562.22
 20
288.165
 30
0.000000
  70
    32
  0
VERTEX
  8
SJC2
  5
1C6D8
 10
1563.81
 20
288.532
 30
0.000000
  70
    32
  0
VERTEX
  8
SJC2
  5
1C6D9
 10
1565.44
 20
289.018
 30
0.000000
  70
    32
  0
VERTEX
  8
SJC2
  5
1C6DA
 10
1567.10
 20
289.622
 30
0.000000
  70
    32
  0
VERTEX
  8
SJC2
  5
1C6DB
 10
1568.79
 20
290.343
 30
0.000000
  70
    32
  0
VERTEX
  8
SJC2
  5
1C6DC
 10
1570.51
 20
291.179
 30
0.000000
  70
    32
  0
VERTEX
  8
SJC2
  5
1C6DD
 10
1572.25
 20
292.128
 30
0.000000
  70
    32
  0
VERTEX
  8
SJC2
  5
1C6DE
 10
1574.01
 20
293.188
 30
0.000000
  70
    32
  0
VERTEX
  8
SJC2
  5
1C6DF
 10
1575.77
 20
294.356
 30
0.000000
  70
    32
  0
VERTEX
  8
SJC2
  5
1C6E0
 10
1577.55
 20
295.629
 30
0.000000
  70
    32
  0
VERTEX
  8
SJC2
  5
1C6E1
 10
1579.33
 20
297.004
 30
0.000000
  70
    32
  0
VERTEX
  8
SJC2
  5
1C6E2
 10
1581.11
 20
298.479
 30
0.000000
  70
    32
  0
VERTEX
  8
SJC2
  5
1C6E3
 10
1582.89
 20
300.048
 30
0.000000
  70
    32
  0
VERTEX
  8
SJC2
  5
1C6E4
 10
1584.65
 20
301.709
 30
0.000000
  70
    32
  0
VERTEX
  8
SJC2
  5
1C6E5
 10
1586.41
 20
303.458
 30
0.000000
  70
    32
  0
VERTEX
  8
SJC2
  5
1C6E6
 10
1588.14
 20
305.291
 30
0.000000
  70
    32
  0
VERTEX
  8
SJC2
  5
1C6E7
 10
1589.86
 20
307.202
 30
0.000000
  70
    32
  0
VERTEX
  8
SJC2
  5
1C6E8
 10
1591.55
 20
309.187
 30
0.000000
  70
    32
  0
VERTEX
  8
SJC2
  5
1C6E9
 10
1593.21
 20
311.243
 30
0.000000
  70
    32
  0
VERTEX
  8
SJC2
  5
1C6EA
 10
1594.84
 20
313.362
 30
0.000000
  70
    32
  0
VERTEX
  8
SJC2
  5
1C6EB
 10
1596.43
 20
315.542
 30
0.000000
  70
    32
  0
VERTEX
  8
SJC2
  5
1C6EC
 10
1597.97
 20
317.775
 30
0.000000
  70
    32
  0
VERTEX
  8
SJC2
  5
1C6ED
 10
1599.48
 20
320.058
 30
0.000000
  70
    32
  0
VERTEX
  8
SJC2
  5
1C6EE
 10
1600.93
 20
322.384
 30
0.000000
  70
    32
  0
VERTEX
  8
SJC2
  5
1C6EF
 10
1602.33
 20
324.748
 30
0.000000
  70
    32
  0
VERTEX
  8
SJC2
  5
1C6F0
 10
1603.68
 20
327.143
 30
0.000000
  70
    32
  0
VERTEX
  8
SJC2
  5
1C6F1
 10
1604.97
 20
329.565
 30
0.000000
  70
    32
  0
VERTEX
  8
SJC2
  5
1C6F2
 10
1606.19
 20
332.008
 30
0.000000
  70
    32
  0
VERTEX
  8
SJC2
  5
1C6F3
 10
1607.35
 20
334.465
 30
0.000000
  70
    32
  0
VERTEX
  8
SJC2
  5
1C6F4
 10
1608.44
 20
336.931
 30
0.000000
  70
    32
  0
VERTEX
  8
SJC2
  5
1C6F5
 10
1609.47
 20
339.400
 30
0.000000
  70
    32
  0
VERTEX
  8
SJC2
  5
1C6F6
 10
1610.42
 20
341.865
 30
0.000000
  70
    32
  0
VERTEX
  8
SJC2
  5
1C6F7
 10
1611.29
 20
344.322
 30
0.000000
  70
    32
  0
VERTEX
  8
SJC2
  5
1C6F8
 10
1612.09
 20
346.763
 30
0.000000
  70
    32
  0
VERTEX
  8
SJC2
  5
1C6F9
 10
1612.81
 20
349.183
 30
0.000000
  70
    32
  0
VERTEX
  8
SJC2
  5
1C6FA
 10
1613.44
 20
351.577
 30
0.000000
  70
    32
  0
VERTEX
  8
SJC2
  5
1C6FB
 10
1614.00
 20
353.938
 30
0.000000
  70
    32
  0
VERTEX
  8
SJC2
  5
1C6FC
 10
1614.47
 20
356.260
 30
0.000000
  70
    32
  0
VERTEX
  8
SJC2
  5
1C6FD
 10
1614.86
 20
358.539
 30
0.000000
  70
    32
  0
VERTEX
  8
SJC2
  5
1C6FE
 10
1615.16
 20
360.769
 30
0.000000
  70
    32
  0
VERTEX
  8
SJC2
  5
1C6FF
 10
1615.37
 20
362.944
 30
0.000000
  70
    32
  0
VERTEX
  8
SJC2
  5
1C700
 10
1615.50
 20
365.059
 30
0.000000
  70
    32
  0
VERTEX
  8
SJC2
  5
1C701
 10
1615.54
 20
367.109
 30
0.000000
  70
    32
  0
VERTEX
  8
SJC2
  5
1C702
 10
1615.49
 20
369.089
 30
0.000000
  70
    32
  0
VERTEX
  8
SJC2
  5
1C703
 10
1615.36
 20
370.994
 30
0.000000
  70
    32
  0
VERTEX
  8
SJC2
  5
1C704
 10
1615.14
 20
372.820
 30
0.000000
  70
    32
  0
VERTEX
  8
SJC2
  5
1C705
 10
1614.83
 20
374.563
 30
0.000000
  70
    32
  0
VERTEX
  8
SJC2
  5
1C706
 10
1614.43
 20
376.217
 30
0.000000
  70
    32
  0
VERTEX
  8
SJC2
  5
1C707
 10
1613.96
 20
377.780
 30
0.000000
  70
    32
  0
VERTEX
  8
SJC2
  5
1C708
 10
1613.39
 20
379.247
 30
0.000000
  70
    32
  0
VERTEX
  8
SJC2
  5
1C709
 10
1612.75
 20
380.614
 30
0.000000
  70
    32
  0
VERTEX
  8
SJC2
  5
1C70A
 10
1612.02
 20
381.879
 30
0.000000
  70
    32
  0
VERTEX
  8
SJC2
  5
1C70B
 10
1611.22
 20
383.039
 30
0.000000
  70
    32
  0
VERTEX
  8
SJC2
  5
1C70C
 10
1610.34
 20
384.090
 30
0.000000
  70
    32
  0
VERTEX
  8
SJC2
  5
1C70D
 10
1609.38
 20
385.031
 30
0.000000
  70
    32
  0
VERTEX
  8
SJC2
  5
1C70E
 10
1608.36
 20
385.858
 30
0.000000
  70
    32
  0
VERTEX
  8
SJC2
  5
1C70F
 10
1607.26
 20
386.570
 30
0.000000
  70
    32
  0
VERTEX
  8
SJC2
  5
1C710
 10
1606.09
 20
387.165
 30
0.000000
  70
    32
  0
VERTEX
  8
SJC2
  5
1C711
 10
1604.86
 20
387.643
 30
0.000000
  70
    32
  0
VERTEX
  8
SJC2
  5
1C712
 10
1603.57
 20
388.000
 30
0.000000
  70
    32
  0
VERTEX
  8
SJC2
  5
1C713
 10
1602.22
 20
388.238
 30
0.000000
  70
    32
  0
VERTEX
  8
SJC2
  5
1C714
 10
1600.81
 20
388.354
 30
0.000000
  70
    32
  0
VERTEX
  8
SJC2
  5
1C715
 10
1599.35
 20
388.349
 30
0.000000
  70
    32
  0
VERTEX
  8
SJC2
  5
1C716
 10
1597.85
 20
388.224
 30
0.000000
  70
    32
  0
VERTEX
  8
SJC2
  5
1C717
 10
1596.29
 20
387.977
 30
0.000000
  70
    32
  0
VERTEX
  8
SJC2
  5
1C718
 10
1594.70
 20
387.610
 30
0.000000
  70
    32
  0
VERTEX
  8
SJC2
  5
1C719
 10
1593.07
 20
387.124
 30
0.000000
  70
    32
  0
VERTEX
  8
SJC2
  5
1C71A
 10
1591.41
 20
386.520
 30
0.000000
  70
    32
  0
VERTEX
  8
SJC2
  5
1C71B
 10
1589.72
 20
385.799
 30
0.000000
  70
    32
  0
VERTEX
  8
SJC2
  5
1C71C
 10
1588.00
 20
384.963
 30
0.000000
  70
    32
  0
VERTEX
  8
SJC2
  5
1C71D
 10
1586.26
 20
384.014
 30
0.000000
  70
    32
  0
VERTEX
  8
SJC2
  5
1C71E
 10
1584.51
 20
382.954
 30
0.000000
  70
    32
  0
VERTEX
  8
SJC2
  5
1C71F
 10
1582.74
 20
381.786
 30
0.000000
  70
    32
  0
VERTEX
  8
SJC2
  5
1C720
 10
1580.96
 20
380.513
 30
0.000000
  70
    32
  0
VERTEX
  8
SJC2
  5
1C721
 10
1579.18
 20
379.138
 30
0.000000
  70
    32
  0
VERTEX
  8
SJC2
  5
1C722
 10
1577.40
 20
377.663
 30
0.000000
  70
    32
  0
VERTEX
  8
SJC2
  5
1C723
 10
1575.62
 20
376.094
 30
0.000000
  70
    32
  0
VERTEX
  8
SJC2
  5
1C724
 10
1573.86
 20
374.432
 30
0.000000
  70
    32
  0
VERTEX
  8
SJC2
  5
1C725
 10
1572.10
 20
372.684
 30
0.000000
  70
    32
  0
VERTEX
  8
SJC2
  5
1C726
 10
1570.37
 20
370.851
 30
0.000000
  70
    32
  0
VERTEX
  8
SJC2
  5
1C727
 10
1568.65
 20
368.940
 30
0.000000
  70
    32
  0
VERTEX
  8
SJC2
  5
1C728
 10
1566.96
 20
366.954
 30
0.000000
  70
    32
  0
VERTEX
  8
SJC2
  5
1C729
 10
1565.30
 20
364.899
 30
0.000000
  70
    32
  0
VERTEX
  8
SJC2
  5
1C72A
 10
1563.67
 20
362.779
 30
0.000000
  70
    32
  0
VERTEX
  8
SJC2
  5
1C72B
 10
1562.08
 20
360.600
 30
0.000000
  70
    32
  0
VERTEX
  8
SJC2
  5
1C72C
 10
1560.54
 20
358.367
 30
0.000000
  70
    32
  0
VERTEX
  8
SJC2
  5
1C72D
 10
1559.03
 20
356.084
 30
0.000000
  70
    32
  0
VERTEX
  8
SJC2
  5
1C72E
 10
1557.58
 20
353.758
 30
0.000000
  70
    32
  0
VERTEX
  8
SJC2
  5
1C72F
 10
1556.18
 20
351.394
 30
0.000000
  70
    32
  0
VERTEX
  8
SJC2
  5
1C730
 10
1554.83
 20
348.999
 30
0.000000
  70
    32
  0
VERTEX
  8
SJC2
  5
1C731
 10
1553.55
 20
346.577
 30
0.000000
  70
    32
  0
VERTEX
  8
SJC2
  5
1C732
 10
1552.32
 20
344.134
 30
0.000000
  70
    32
  0
VERTEX
  8
SJC2
  5
1C733
 10
1551.16
 20
341.677
 30
0.000000
  70
    32
  0
VERTEX
  8
SJC2
  5
1C734
 10
1550.07
 20
339.211
 30
0.000000
  70
    32
  0
VERTEX
  8
SJC2
  5
1C735
 10
1549.04
 20
336.742
 30
0.000000
  70
    32
  0
VERTEX
  8
SJC2
  5
1C736
 10
1548.09
 20
334.277
 30
0.000000
  70
    32
  0
VERTEX
  8
SJC2
  5
1C737
 10
1547.22
 20
331.820
 30
0.000000
  70
    32
  0
VERTEX
  8
SJC2
  5
1C738
 10
1546.42
 20
329.379
 30
0.000000
  70
    32
  0
VERTEX
  8
SJC2
  5
1C739
 10
1545.70
 20
326.959
 30
0.000000
  70
    32
  0
VERTEX
  8
SJC2
  5
1C73A
 10
1545.07
 20
324.565
 30
0.000000
  70
    32
  0
VERTEX
  8
SJC2
  5
1C73B
 10
1544.51
 20
322.204
 30
0.000000
  70
    32
  0
VERTEX
  8
SJC2
  5
1C73C
 10
1544.04
 20
319.882
 30
0.000000
  70
    32
  0
VERTEX
  8
SJC2
  5
1C73D
 10
1543.65
 20
317.603
 30
0.000000
  70
    32
  0
VERTEX
  8
SJC2
  5
1C73E
 10
1543.35
 20
315.373
 30
0.000000
  70
    32
  0
VERTEX
  8
SJC2
  5
1C73F
 10
1543.14
 20
313.198
 30
0.000000
  70
    32
  0
VERTEX
  8
SJC2
  5
1C740
 10
1543.01
 20
311.083
 30
0.000000
  70
    32
  0
VERTEX
  8
SJC2
  5
1C741
 10
1542.97
 20
309.033
 30
0.000000
  70
    32
  0
VERTEX
  8
SJC2
  5
1C742
 10
1543.02
 20
307.053
 30
0.000000
  70
    32
  0
VERTEX
  8
SJC2
  5
1C743
 10
1543.15
 20
305.147
 30
0.000000
  70
    32
  0
VERTEX
  8
SJC2
  5
1C744
 10
1543.37
 20
303.321
 30
0.000000
  70
    32
  0
VERTEX
  8
SJC2
  5
1C745
 10
1543.68
 20
301.579
 30
0.000000
  70
    32
  0
VERTEX
  8
SJC2
  5
1C746
 10
1544.08
 20
299.925
 30
0.000000
  70
    32
  0
VERTEX
  8
SJC2
  5
1C747
 10
1544.55
 20
298.362
 30
0.000000
  70
    32
  0
VERTEX
  8
SJC2
  5
1C748
 10
1545.12
 20
296.895
 30
0.000000
  70
    32
  0
VERTEX
  8
SJC2
  5
1C749
 10
1545.76
 20
295.528
 30
0.000000
  70
    32
  0
VERTEX
  8
SJC2
  5
1C74A
 10
1546.49
 20
294.263
 30
0.000000
  70
    32
  0
VERTEX
  8
SJC2
  5
1C74B
 10
1547.29
 20
293.103
 30
0.000000
  70
    32
  0
VERTEX
  8
SJC2
  5
1C74C
 10
1548.17
 20
292.052
 30
0.000000
  70
    32
  0
VERTEX
  8
SJC2
  5
1C74D
 10
1549.13
 20
291.111
 30
0.000000
  70
    32
  0
VERTEX
  8
SJC2
  5
1C74E
 10
1550.16
 20
290.284
 30
0.000000
  70
    32
  0
VERTEX
  8
SJC2
  5
1C74F
 10
1551.25
 20
289.572
 30
0.000000
  70
    32
  0
SEQEND
  8
SJC2
  5
1C750
  0
LINE
  5
1B794
  8
HASEN
 10
1379.3632148796321
 20
1787.588898764541
 30
0.0
 11
1454.3632148796321
 21
1787.5888987645401
 31
0.0
  0
DIMENSION
  5
1B804
  8
SUNPOU
  2
*D24
 10
1741.0954085864921
 20
387.58889876454123
 30
0.0
 11
1714.0954085864921
 21
1087.588898764541
 31
0.0
 70
     0
 13
1454.3632148796321
 23
1787.5888987645401
 33
0.0
 14
1616.8632148796351
 24
387.58889876454123
 34
0.0
 50
90.0
1001
ACAD
1000
DSTYLE
1002
{
1070
   287
1070
     5
1070
    40
1040
10.0
1070
    41
1040
2.0
1070
    42
1040
1.0
1070
    43
1040
6.0
1070
    44
1040
1.0
1070
    73
1070
     0
1070
    74
1070
     0
1070
    77
1070
     1
1070
    78
1070
     8
1070
   140
1040
3.0
1070
   147
1040
1.1999999999999991
1070
   172
1070
     1
1070
   179
1070
     2
1070
   271
1070
     2
1070
   279
1070
     2
1070
   340
1005
55
1002
}
  0
TEXT
  5
1B873
  8
MOJI
 10
2934.3431438828802
 20
2090.4653334809768
 30
0.0
 40
30.0
  1
鉄製
 41
0.8
  7
EXT08
 11
2934.3431438828802
 21
2105.4653334809768
 31
0.0
 73
     2
  0
TEXT
  5
1BA0D
  8
SUNPOU
 10
406.18503880373368
 20
842.36381836552243
 30
0.0
 40
30.0
  1
φ9×150
 41
0.8
  7
EXT08
  0
LINE
  5
1BD7F
  8
MOJI
 10
3663.0844272244772
 20
2177.4653334629761
 30
0.0
 11
2539.8840360922268
 21
2177.4653334629761
 31
0.0
  0
TEXT
  5
1BD80
  8
MOJI
 10
2593.2144519859548
 20
2186.4653334569762
 30
0.0
 40
30.0
  1
サインシート
 41
0.8
  7
EXT08
 72
     4
 11
2675.6144519859549
 21
2201.4653334569762
 31
0.0
  0
TEXT
  5
1BD81
  8
MOJI
 10
2934.3431438828802
 20
2186.4653334569762
 30
0.0
 40
30.0
  1
封入レンズ型反射シート
 41
0.8
  7
EXT08
 11
2934.3431438828802
 21
2201.4653334569762
 31
0.0
 73
     2
  0
TEXT
  5
1BD82
  8
MOJI
 10
2852.6288581865952
 20
2186.4653334569762
 30
0.0
 40
30.0
  1
1
 41
0.8
  7
EXT08
 72
     4
 11
2862.3431439008809
 21
2201.4653334569762
 31
0.0
  0
TEXT
  5
1BD83
  8
MOJI
 10
3407.9976583548132
 20
2186.4653334569748
 30
0.0
 40
30.0
  1
デジタル印刷
 41
0.8
  7
EXT08
 72
     4
 11
3492.7976583548138
 21
2201.4653334569762
 31
0.0
  0
INSERT
  5
1BDE6
  8
0
  2
*U38
 10
0.0
 20
0.0
 30
0.0
1001
ACAD
1000
DSTYLE
1002
{
1070
   140
1040
30.0
1070
   144
1040
0.5
1070
   147
1040
15.0
1070
    42
1040
10.0
1070
    44
1040
10.0
1070
    43
1040
60.0
1070
    41
1040
20.0
1002
}
  0
TEXT
  5
1BDE7
  8
SUNPOU
 10
841.82439608592995
 20
1946.2739178310401
 30
0.0
 40
30.0
  1
封入レンズ型反射シート
 41
0.8
  7
EXT08
  0
LINE
  5
1BDE8
  8
SUNPOU
 10
839.34821530985289
 20
1981.101781087898
 30
0.0
 11
1163.556872700819
 21
1981.101781087898
 31
0.0
1001
ACAD
1000
DSTYLE
1002
{
1070
    77
1070
     0
1070
    40
1040
10.0
1070
   147
1040
1.1999999999999991
1070
   176
1070
     0
1070
   177
1070
     0
1070
   178
1070
     0
1070
   179
1070
     2
1070
   271
1070
     2
1002
}
  0
TEXT
  5
1BDE9
  8
SUNPOU
 10
841.82439608592995
 20
1986.8598015800101
 30
0.0
 40
30.0
  1
サインシート
 41
0.8
  7
EXT08
  0
TEXT
  5
1BDEA
  8
SUNPOU
 10
815.51658868429422
 20
1901.8896392241579
 30
0.0
 40
30.0
  1
　デジタル印刷
 41
0.8
  7
EXT08
  0
VIEWPORT
  5
1464C
 67
     1
  8
0
 10
128.5
 20
97.5
 30
0.0
 40
314.226
 41
243.9518146964856
 68
     1
 69
     1
1001
ACAD
1000
MVIEW
1002
{
1070
    16
1010
0.0
1020
0.0
1030
0.0
1010
0.0
1020
0.0
1030
1.0
1040
0.0
1040
243.9518146964856
1040
128.5
1040
97.5
1040
50.0
1040
0.0
1040
0.0
1070
     0
1070
   100
1070
     1
1070
     1
1070
     0
1070
     0
1070
     0
1070
     0
1040
0.0
1040
0.0
1040
0.0
1040
10.0
1040
10.0
1040
10.0
1040
10.0
1070
     0
1002
{
1002
}
1002
}
  0
VIEWPORT
  5
1464E
 67
     1
  8
SUNPOU
 10
128.5
 20
97.5
 30
0.0
 40
205.59999999999999
 41
156.0
 68
     2
 69
     2
1001
ACAD
1000
MVIEW
1002
{
1070
    16
1010
0.0
1020
0.0
1030
0.0
1010
0.0
1020
0.0
1030
1.0
1040
0.0
1040
5536.5396555471661
1040
-4689.111563369348
1040
1441.2182828350519
1040
50.0
1040
0.0
1040
0.0
1070
     0
1070
   100
1070
     1
1070
     3
1070
     0
1070
     0
1070
     0
1070
     0
1040
0.0
1040
0.0
1040
0.0
1040
10.0
1040
10.0
1040
10.0
1040
10.0
1070
     0
1002
{
1002
}
1002
}
  0
ENDSEC
  0
EOF
