  0
SECTION
  2
HEADER
  9
$ACADVER
  1
AC1009
  9
$INSBASE
 10
0.0
 20
0.0
 30
0.0
  9
$EXTMIN
 10
0.0
 20
0.0
 30
0.0
  9
$EXTMAX
 10
7400.0
 20
5340.0
 30
0.0
  9
$LIMMIN
 10
0.0
 20
0.0
  9
$LIMMAX
 10
8400.0
 20
5940.0
  9
$ORTHOMODE
 70
     1
  9
$REGENMODE
 70
     1
  9
$FILLMODE
 70
     1
  9
$QTEXTMODE
 70
     0
  9
$MIRRTEXT
 70
     0
  9
$DRAGMODE
 70
     2
  9
$LTSCALE
 40
200.0
  9
$OSMODE
 70
    37
  9
$ATTMODE
 70
     1
  9
$TEXTSIZE
 40
60.0
  9
$TRACEWID
 40
0.05
  9
$TEXTSTYLE
  7
EXT08
  9
$CLAYER
  8
0
  9
$CELTYPE
  6
BYLAYER
  9
$CECOLOR
 62
   256
  9
$DIMSCALE
 40
20.0
  9
$DIMASZ
 40
2.0
  9
$DIMEXO
 40
1.0
  9
$DIMDLI
 40
6.0
  9
$DIMRND
 40
0.0
  9
$DIMDLE
 40
0.0
  9
$DIMEXE
 40
1.0
  9
$DIMTP
 40
0.0
  9
$DIMTM
 40
0.0
  9
$DIMTXT
 40
3.0
  9
$DIMCEN
 40
0.09
  9
$DIMTSZ
 40
0.0
  9
$DIMTOL
 70
     0
  9
$DIMLIM
 70
     0
  9
$DIMTIH
 70
     0
  9
$DIMTOH
 70
     0
  9
$DIMSE1
 70
     0
  9
$DIMSE2
 70
     0
  9
$DIMTAD
 70
     1
  9
$DIMZIN
 70
     8
  9
$DIMBLK
  1

  9
$DIMASO
 70
     1
  9
$DIMSHO
 70
     1
  9
$DIMPOST
  1

  9
$DIMAPOST
  1

  9
$DIMALT
 70
     0
  9
$DIMALTD
 70
     2
  9
$DIMALTF
 40
25.399999999999999
  9
$DIMLFAC
 40
1.0
  9
$DIMTOFL
 70
     1
  9
$DIMTVP
 40
0.0
  9
$DIMTIX
 70
     0
  9
$DIMSOXD
 70
     0
  9
$DIMSAH
 70
     0
  9
$DIMBLK1
  1

  9
$DIMBLK2
  1

  9
$DIMSTYLE
  2
SJC
  9
$DIMCLRD
 70
     0
  9
$DIMCLRE
 70
     0
  9
$DIMCLRT
 70
     0
  9
$DIMTFAC
 40
1.0
  9
$DIMGAP
 40
1.1999999999999991
  9
$LUNITS
 70
     2
  9
$LUPREC
 70
     2
  9
$SKETCHINC
 40
0.1
  9
$FILLETRAD
 40
0.0
  9
$AUNITS
 70
     1
  9
$AUPREC
 70
     2
  9
$MENU
  1
C:\r13\win\SUPPORT\sjc
  9
$ELEVATION
 40
0.0
  9
$PELEVATION
 40
0.0
  9
$THICKNESS
 40
0.0
  9
$LIMCHECK
 70
     0
  9
$BLIPMODE
 70
     0
  9
$CHAMFERA
 40
0.0
  9
$CHAMFERB
 40
0.0
  9
$SKPOLY
 70
     0
  9
$TDCREATE
 40
2450389.7201770842
  9
$TDUPDATE
 40
2454777.4566474892
  9
$TDINDWG
 40
0.7643953819
  9
$TDUSRTIMER
 40
0.7643953819
  9
$USRTIMER
 70
     1
  9
$ANGBASE
 50
0.0
  9
$ANGDIR
 70
     0
  9
$PDMODE
 70
    33
  9
$PDSIZE
 40
5.0
  9
$PLINEWID
 40
0.0
  9
$COORDS
 70
     1
  9
$SPLFRAME
 70
     0
  9
$SPLINETYPE
 70
     6
  9
$SPLINESEGS
 70
     8
  9
$ATTDIA
 70
     0
  9
$ATTREQ
 70
     1
  9
$HANDLING
 70
     1
  9
$HANDSEED
  5
5CD1
  9
$SURFTAB1
 70
     6
  9
$SURFTAB2
 70
     6
  9
$SURFTYPE
 70
     6
  9
$SURFU
 70
     6
  9
$SURFV
 70
     6
  9
$UCSNAME
  2

  9
$UCSORG
 10
0.0
 20
0.0
 30
0.0
  9
$UCSXDIR
 10
1.0
 20
0.0
 30
0.0
  9
$UCSYDIR
 10
0.0
 20
1.0
 30
0.0
  9
$PUCSNAME
  2

  9
$PUCSORG
 10
0.0
 20
0.0
 30
0.0
  9
$PUCSXDIR
 10
1.0
 20
0.0
 30
0.0
  9
$PUCSYDIR
 10
0.0
 20
1.0
 30
0.0
  9
$USERI1
 70
     3
  9
$USERI2
 70
    20
  9
$USERI3
 70
     0
  9
$USERI4
 70
     0
  9
$USERI5
 70
     0
  9
$USERR1
 40
0.05
  9
$USERR2
 40
0.0
  9
$USERR3
 40
0.0
  9
$USERR4
 40
0.0
  9
$USERR5
 40
0.0
  9
$WORLDVIEW
 70
     1
  9
$SHADEDGE
 70
     3
  9
$SHADEDIF
 70
    70
  9
$TILEMODE
 70
     1
  9
$MAXACTVP
 70
    16
  9
$PLIMCHECK
 70
     0
  9
$PEXTMIN
 10
1.0000000000000000E+020
 20
1.0000000000000000E+020
 30
1.0000000000000000E+020
  9
$PEXTMAX
 10
-1.0000000000000000E+020
 20
-1.0000000000000000E+020
 30
-1.0000000000000000E+020
  9
$PLIMMIN
 10
0.0
 20
0.0
  9
$PLIMMAX
 10
12.0
 20
9.0
  9
$UNITMODE
 70
     0
  9
$VISRETAIN
 70
     0
  9
$PLINEGEN
 70
     0
  9
$PSLTSCALE
 70
     0
  0
ENDSEC
  0
SECTION
  2
TABLES
  0
TABLE
  2
VPORT
 70
     2
  0
VPORT
  2
*ACTIVE
 70
     0
 10
0.0
 20
0.0
 11
1.0
 21
1.0
 12
4792.4965706578159
 22
2969.8640759998621
 13
0.0
 23
0.0
 14
10.0
 24
10.0
 15
0.0
 25
0.0
 16
0.0
 26
0.0
 36
1.0
 17
0.0
 27
0.0
 37
0.0
 40
5988.3063912455609
 41
1.9010526315789471
 42
50.0
 43
0.0
 44
0.0
 50
0.0
 51
0.0
 71
     0
 72
   100
 73
     1
 74
     0
 75
     0
 76
     0
 77
     0
 78
     0
  0
ENDTAB
  0
TABLE
  2
LTYPE
 70
     4
  0
LTYPE
  2
CONTINUOUS
 70
     0
  3
Solid line
 72
    65
 73
     0
 40
0.0
  0
LTYPE
  2
CENTER
 70
     0
  3
____ _ ____ _ ____ _ ____ _ ____ _ ____ _ ____ 
 72
    65
 73
     4
 40
2.0
 49
1.25
 49
-0.25
 49
0.25
 49
-0.25
  0
LTYPE
  2
HIDDEN
 70
     0
  3
__ __ __ __ __ __ __ __ __ __ __ __ __ __ __ __
 72
    65
 73
     2
 40
0.375
 49
0.25
 49
-0.125
  0
LTYPE
  2
PHANTOM
 70
     0
  3
______  __  __  ______  __  __  ______  __  __ 
 72
    65
 73
     6
 40
2.5
 49
1.25
 49
-0.25
 49
0.25
 49
-0.25
 49
0.25
 49
-0.25
  0
ENDTAB
  0
TABLE
  2
LAYER
 70
    15
  0
LAYER
  2
0
 70
     0
 62
     7
  6
CONTINUOUS
  0
LAYER
  2
CENTER
 70
     0
 62
     3
  6
CENTER
  0
LAYER
  2
HASEN
 70
     0
 62
     7
  6
HIDDEN
  0
LAYER
  2
HOJO
 70
     0
 62
     8
  6
CONTINUOUS
  0
LAYER
  2
KASOU
 70
     0
 62
     2
  6
PHANTOM
  0
LAYER
  2
MOJI
 70
     0
 62
     6
  6
CONTINUOUS
  0
LAYER
  2
SJC
 70
     0
 62
     1
  6
CONTINUOUS
  0
LAYER
  2
SUNPOU
 70
     0
 62
     4
  6
CONTINUOUS
  0
LAYER
  2
WAKU
 70
     0
 62
     5
  6
CONTINUOUS
  0
LAYER
  2
DEFPOINTS
 70
     0
 62
     7
  6
CONTINUOUS
  0
LAYER
  2
ZWAKU
 70
     1
 62
     7
  6
CONTINUOUS
  0
LAYER
  2
INFORMATION
 70
     1
 62
     7
  6
CONTINUOUS
  0
LAYER
  2
SJC2
 70
     0
 62
     7
  6
CONTINUOUS
  0
LAYER
  2
MOJI2
 70
     0
 62
     1
  6
CONTINUOUS
  0
LAYER
  2
HATCH
 70
     0
 62
     2
  6
CONTINUOUS
  0
ENDTAB
  0
TABLE
  2
STYLE
 70
     8
  0
STYLE
  2
STANDARD
 70
     0
 40
0.0
 41
1.0
 50
0.0
 71
     0
 42
3.0
  3
ROMANS.SHX
  4
BIGFONT.SHX
  0
STYLE
  2
SIMPLEX
 70
     0
 40
0.0
 41
1.0
 50
0.0
 71
     0
 42
0.0
  3
SCRIPTS.SHX
  4

  0
STYLE
  2
KANJI
 70
     0
 40
0.0
 41
1.0
 50
0.0
 71
     0
 42
0.0
  3
ROMANS.SHX
  4
BIGFONT.SHX
  0
STYLE
  2
TATEEXT
 70
     4
 40
0.0
 41
1.0
 50
0.0
 71
     0
 42
0.0
  3
ROMANS
  4
EXTFONT
  0
STYLE
  2
TATEBIG
 70
     4
 40
0.0
 41
5.0
 50
0.0
 71
     0
 42
0.0
  3
ROMANS
  4
BIGFONT
  0
STYLE
  2
EXT08
 70
     0
 40
0.0
 41
0.8
 50
0.0
 71
     0
 42
60.0
  3
ROMANS
  4
EXTFONT
  0
STYLE
  2
EXT
 70
     0
 40
0.0
 41
1.0
 50
0.0
 71
     0
 42
0.0
  3
ROMANS
  4
EXTFONT
  0
STYLE
  2
KANJI08
 70
     0
 40
0.0
 41
0.8
 50
0.0
 71
     0
 42
0.0
  3
ROMANS
  4
BIGFONT
  0
ENDTAB
  0
TABLE
  2
VIEW
 70
     0
  0
ENDTAB
  0
TABLE
  2
UCS
 70
     0
  0
ENDTAB
  0
TABLE
  2
APPID
 70
     2
  0
APPID
  2
ACAD
 70
     0
  0
APPID
  2
ACAD_PSEXT
 70
     0
  0
ENDTAB
  0
TABLE
  2
DIMSTYLE
 70
     4
  0
DIMSTYLE
  2
SJC
 70
     0
  3

  4

  5

  6

  7

 40
1.0
 41
0.18
 42
0.0625
 43
0.38
 44
0.18
 45
0.0
 46
0.0
 47
0.0
 48
0.0
140
0.18
141
0.09
142
0.0
143
25.399999999999999
144
1.0
145
0.0
146
1.0
147
0.09
 71
     0
 72
     0
 73
     1
 74
     1
 75
     0
 76
     0
 77
     0
 78
     0
170
     0
171
     2
172
     0
173
     0
174
     0
175
     0
176
     0
177
     0
178
     0
  0
DIMSTYLE
  2
STANDARD
 70
     0
  3

  4

  5

  6

  7

 40
20.0
 41
2.0
 42
1.0
 43
6.0
 44
1.0
 45
0.0
 46
0.0
 47
0.0
 48
0.0
140
3.0
141
0.09
142
0.0
143
25.399999999999999
144
1.0
145
0.0
146
1.0
147
1.1999999999999991
 71
     0
 72
     0
 73
     0
 74
     0
 75
     0
 76
     0
 77
     1
 78
     8
170
     0
171
     2
172
     1
173
     0
174
     0
175
     0
176
   256
177
   256
178
   256
  0
DIMSTYLE
  2
RUISEKI1
 70
     0
  3

  4

  5

  6

  7

 40
20.0
 41
2.0
 42
1.0
 43
6.0
 44
30.0
 45
0.0
 46
0.0
 47
0.0
 48
0.0
140
3.0
141
0.09
142
0.0
143
25.399999999999999
144
1.0
145
0.0
146
1.0
147
1.5
 71
     0
 72
     0
 73
     0
 74
     0
 75
     0
 76
     0
 77
     1
 78
     8
170
     0
171
     2
172
     1
173
     1
174
     0
175
     0
176
   256
177
   256
178
   256
  0
DIMSTYLE
  2
RUISEKI2
 70
     0
  3

  4

  5

  6

  7

 40
20.0
 41
2.0
 42
1.0
 43
6.0
 44
30.0
 45
0.0
 46
0.0
 47
0.0
 48
0.0
140
3.0
141
0.09
142
0.0
143
25.399999999999999
144
1.0
145
0.0
146
1.0
147
1.5
 71
     0
 72
     0
 73
     0
 74
     0
 75
     0
 76
     0
 77
     1
 78
     8
170
     0
171
     2
172
     1
173
     1
174
     0
175
     0
176
   256
177
   256
178
   256
  0
ENDTAB
  0
ENDSEC
  0
SECTION
  2
BLOCKS
  0
BLOCK
  8
0
  2
$MODEL_SPACE
 70
     0
 10
0.0
 20
0.0
 30
0.0
  3
$MODEL_SPACE
  1

  0
ENDBLK
  5
5C9
  8
0
  0
BLOCK
 67
     1
  8
0
  2
$PAPER_SPACE
 70
     0
 10
0.0
 20
0.0
 30
0.0
  3
$PAPER_SPACE
  1

  0
ENDBLK
  5
5C7
 67
     1
  8
0
  0
BLOCK
  8
0
  2
CALCOMP_TECHJET720A3
 70
     0
 10
0.0
 20
0.0
 30
0.0
  3
CALCOMP_TECHJET720A3
  1

  0
POLYLINE
  5
5D1
  8
ZWAKU
 66
     1
 10
0.0
 20
0.0
 30
0.0
 70
     1
  0
VERTEX
  5
5AA9
  8
ZWAKU
 10
0.0
 20
0.0
 30
0.0
  0
VERTEX
  5
5AAA
  8
ZWAKU
 10
0.0
 20
267.0
 30
0.0
  0
VERTEX
  5
5AAB
  8
ZWAKU
 10
370.0
 20
267.0
 30
0.0
  0
VERTEX
  5
5AAC
  8
ZWAKU
 10
370.0
 20
0.0
 30
0.0
  0
SEQEND
  5
5AAD
  8
ZWAKU
  0
ENDBLK
  5
5D8
  8
0
  0
BLOCK
  8
0
  2
*D1
 70
     1
 10
0.0
 20
0.0
 30
0.0
  3
*D1
  1

  0
LINE
  5
5A39
  8
SUNPOU
 10
887.14997567284252
 20
4567.7757462170539
 30
0.0
 11
887.14997567284252
 21
4911.7132462170539
 31
0.0
  0
LINE
  5
5A3A
  8
SUNPOU
 10
2887.1499756728431
 20
4567.7132462170539
 30
0.0
 11
2887.1499756728431
 21
4911.7132462170539
 31
0.0
  0
LINE
  5
5A3B
  8
SUNPOU
 10
937.14997567284252
 20
4886.7132462170539
 30
0.0
 11
2837.1499756728431
 21
4886.7132462170539
 31
0.0
  0
SOLID
  5
5A3C
  8
SUNPOU
 10
937.14997567284252
 20
4895.0465795503869
 30
0.0
 11
937.14997567284252
 21
4878.3799128837209
 31
0.0
 12
887.14997567284252
 22
4886.7132462170539
 32
0.0
 13
887.14997567284252
 23
4886.7132462170539
 33
0.0
  0
SOLID
  5
5A3D
  8
SUNPOU
 10
2837.1499756728431
 20
4895.0465795503869
 30
0.0
 11
2837.1499756728431
 21
4878.3799128837209
 31
0.0
 12
2887.1499756728431
 22
4886.7132462170539
 32
0.0
 13
2887.1499756728431
 23
4886.7132462170539
 33
0.0
  0
TEXT
  8
SUNPOU
  40
60
  5
5CAB
  72
0
  71
0
 10
1767.15
 20
4840.51
 30
0.000000
  1
2000
  7
EXT08
  0
POINT
  5
5A3F
  8
DEFPOINTS
 62
     0
 10
887.14997567284252
 20
4542.7757462170539
 30
0.0
  0
POINT
  5
5A40
  8
DEFPOINTS
 62
     0
 10
2887.1499756728431
 20
4542.713246217053
 30
0.0
  0
POINT
  5
5A41
  8
DEFPOINTS
 62
     0
 10
2887.1499756728431
 20
4886.7132462170539
 30
0.0
  0
ENDBLK
  5
F2C
  8
0
  0
BLOCK
  8
0
  2
*D2
 70
     1
 10
0.0
 20
0.0
 30
0.0
  3
*D2
  1

  0
LINE
  5
5A30
  8
SUNPOU
 10
737.14997567284263
 20
4533.5632462170543
 30
0.0
 11
737.14997567284263
 21
4911.7132462170539
 31
0.0
  0
LINE
  5
5A31
  8
SUNPOU
 10
887.14997567284252
 20
4567.7132462170539
 30
0.0
 11
887.14997567284252
 21
4911.7132462170539
 31
0.0
  0
LINE
  5
5A32
  8
SUNPOU
 10
787.14997567284263
 20
4886.7132462170539
 30
0.0
 11
837.14997567284252
 21
4886.7132462170539
 31
0.0
  0
TEXT
  8
SUNPOU
  40
60
  5
5CAC
  72
0
  71
0
 10
692.150
 20
4840.51
 30
0.000000
  1
150
  7
EXT08
  0
SOLID
  5
5A34
  8
SUNPOU
 10
787.14997567284263
 20
4895.0465795503869
 30
0.0
 11
787.14997567284263
 21
4878.3799128837209
 31
0.0
 12
737.14997567284263
 22
4886.7132462170539
 32
0.0
 13
737.14997567284263
 23
4886.7132462170539
 33
0.0
  0
SOLID
  5
5A35
  8
SUNPOU
 10
837.14997567284252
 20
4895.0465795503869
 30
0.0
 11
837.14997567284252
 21
4878.3799128837209
 31
0.0
 12
887.14997567284252
 22
4886.7132462170539
 32
0.0
 13
887.14997567284252
 23
4886.7132462170539
 33
0.0
  0
POINT
  5
5A36
  8
DEFPOINTS
 62
     0
 10
737.14997567284263
 20
4508.5632462170543
 30
0.0
  0
POINT
  5
5A37
  8
DEFPOINTS
 62
     0
 10
887.14997567284252
 20
4542.713246217053
 30
0.0
  0
POINT
  5
5A38
  8
DEFPOINTS
 62
     0
 10
887.14997567284252
 20
4886.7132462170539
 30
0.0
  0
ENDBLK
  5
F37
  8
0
  0
BLOCK
  8
0
  2
*D3
 70
     1
 10
0.0
 20
0.0
 30
0.0
  3
*D3
  1

  0
LINE
  5
5A54
  8
SUNPOU
 10
4302.2572924938249
 20
4316.7132462170539
 30
0.0
 11
4462.1034463399783
 21
4316.7132462170539
 31
0.0
  0
LINE
  5
5A55
  8
SUNPOU
 10
4302.0770040322859
 20
3566.7132462170539
 30
0.0
 11
4462.1034463399783
 21
3566.7132462170539
 31
0.0
  0
LINE
  5
5A56
  8
SUNPOU
 10
4437.1034463399774
 20
4266.7132462170539
 30
0.0
 11
4437.1034463399774
 21
3616.7132462170548
 31
0.0
  0
SOLID
  5
5A57
  8
SUNPOU
 10
4428.7701130066453
 20
4266.7132462170539
 30
0.0
 11
4445.4367796733113
 21
4266.7132462170539
 31
0.0
 12
4437.1034463399774
 22
4316.7132462170539
 32
0.0
 13
4437.1034463399774
 23
4316.7132462170539
 33
0.0
  0
SOLID
  5
5A58
  8
SUNPOU
 10
4428.7701130066453
 20
3616.7132462170548
 30
0.0
 11
4445.4367796733113
 21
3616.7132462170548
 31
0.0
 12
4437.1034463399774
 22
3566.7132462170539
 32
0.0
 13
4437.1034463399774
 23
3566.7132462170539
 33
0.0
  0
TEXT
  8
SUNPOU
  40
60
  5
5CAD
  72
0
  71
0
 10
4257.10
 20
3835.51
 30
0.000000
  1
750
  7
EXT08
  0
POINT
  5
5A5A
  8
DEFPOINTS
 62
     0
 10
4277.2572924938249
 20
4316.7132462170539
 30
0.0
  0
POINT
  5
5A5B
  8
DEFPOINTS
 62
     0
 10
4277.077004032285
 20
3566.7132462170539
 30
0.0
  0
POINT
  5
5A5C
  8
DEFPOINTS
 62
     0
 10
4437.1034463399774
 20
3566.7132462170539
 30
0.0
  0
ENDBLK
  5
F0B
  8
0
  0
BLOCK
  8
0
  2
*D4
 70
     1
 10
0.0
 20
0.0
 30
0.0
  3
*D4
  1

  0
LINE
  5
5A42
  8
SUNPOU
 10
4302.1034463399783
 20
4516.7132462170539
 30
0.0
 11
4602.1034463399783
 21
4516.7132462170539
 31
0.0
  0
LINE
  5
5A43
  8
SUNPOU
 10
4302.1034463399783
 20
3416.7132462170539
 30
0.0
 11
4602.1034463399783
 21
3416.7132462170539
 31
0.0
  0
LINE
  5
5A44
  8
SUNPOU
 10
4577.1034463399783
 20
4466.7132462170539
 30
0.0
 11
4577.1034463399783
 21
3466.7132462170539
 31
0.0
  0
SOLID
  5
5A45
  8
SUNPOU
 10
4568.7701130066453
 20
4466.7132462170539
 30
0.0
 11
4585.4367796733113
 21
4466.7132462170539
 31
0.0
 12
4577.1034463399783
 22
4516.7132462170539
 32
0.0
 13
4577.1034463399783
 23
4516.7132462170539
 33
0.0
  0
SOLID
  5
5A46
  8
SUNPOU
 10
4568.7701130066453
 20
3466.7132462170539
 30
0.0
 11
4585.4367796733113
 21
3466.7132462170539
 31
0.0
 12
4577.1034463399783
 22
3416.7132462170539
 32
0.0
 13
4577.1034463399783
 23
3416.7132462170539
 33
0.0
  0
TEXT
  8
SUNPOU
  40
60
  5
5CAE
  72
0
  71
0
 10
4397.10
 20
3860.51
 30
0.000000
  1
1100
  7
EXT08
  0
POINT
  5
5A48
  8
DEFPOINTS
 62
     0
 10
4277.1034463399783
 20
4516.7132462170539
 30
0.0
  0
POINT
  5
5A49
  8
DEFPOINTS
 62
     0
 10
4277.1034463399783
 20
3416.7132462170539
 30
0.0
  0
POINT
  5
5A4A
  8
DEFPOINTS
 62
     0
 10
4577.1034463399783
 20
3416.7132462170539
 30
0.0
  0
ENDBLK
  5
F21
  8
0
  0
BLOCK
  8
0
  2
*D5
 70
     1
 10
0.0
 20
0.0
 30
0.0
  3
*D5
  1

  0
LINE
  5
5A5D
  8
SUNPOU
 10
4302.1659463399783
 20
3566.7132462170539
 30
0.0
 11
4462.1034463399783
 21
3566.7132462170539
 31
0.0
  0
LINE
  5
5A5E
  8
SUNPOU
 10
4302.1659463399783
 20
3416.7132462170539
 30
0.0
 11
4462.1034463399783
 21
3416.7132462170539
 31
0.0
  0
LINE
  5
5A5F
  8
SUNPOU
 10
4437.1034463399774
 20
3516.7132462170539
 30
0.0
 11
4437.1034463399774
 21
3466.7132462170539
 31
0.0
  0
TEXT
  8
SUNPOU
  40
60
  5
5CAF
  72
0
  71
0
 10
4256.85
 20
3385.51
 30
0.000000
  1
150
  7
EXT08
  0
SOLID
  5
5A61
  8
SUNPOU
 10
4428.7701130066453
 20
3516.7132462170539
 30
0.0
 11
4445.4367796733113
 21
3516.7132462170539
 31
0.0
 12
4437.1034463399774
 22
3566.7132462170539
 32
0.0
 13
4437.1034463399774
 23
3566.7132462170539
 33
0.0
  0
SOLID
  5
5A62
  8
SUNPOU
 10
4428.7701130066453
 20
3466.7132462170539
 30
0.0
 11
4445.4367796733113
 21
3466.7132462170539
 31
0.0
 12
4437.1034463399774
 22
3416.7132462170539
 32
0.0
 13
4437.1034463399774
 23
3416.7132462170539
 33
0.0
  0
POINT
  5
5A63
  8
DEFPOINTS
 62
     0
 10
4277.1659463399783
 20
3566.7132462170539
 30
0.0
  0
POINT
  5
5A64
  8
DEFPOINTS
 62
     0
 10
4277.1659463399783
 20
3416.7132462170539
 30
0.0
  0
POINT
  5
5A65
  8
DEFPOINTS
 62
     0
 10
4437.1034463399774
 20
3416.7132462170539
 30
0.0
  0
ENDBLK
  5
F00
  8
0
  0
BLOCK
  8
0
  2
*D6
 70
     1
 10
0.0
 20
0.0
 30
0.0
  3
*D6
  1

  0
LINE
  5
5A4B
  8
SUNPOU
 10
4302.1659463399783
 20
4516.7132462170539
 30
0.0
 11
4462.1034463399783
 21
4516.7132462170539
 31
0.0
  0
LINE
  5
5A4C
  8
SUNPOU
 10
4302.1268838399783
 20
4316.7132462170539
 30
0.0
 11
4462.1034463399783
 21
4316.7132462170539
 31
0.0
  0
LINE
  5
5A4D
  8
SUNPOU
 10
4437.1034463399774
 20
4466.7132462170539
 30
0.0
 11
4437.1034463399774
 21
4366.7132462170539
 31
0.0
  0
TEXT
  8
SUNPOU
  40
60
  5
5CB0
  72
0
  71
0
 10
4257.10
 20
4310.51
 30
0.000000
  1
200
  7
EXT08
  0
SOLID
  5
5A4F
  8
SUNPOU
 10
4428.7701130066453
 20
4466.7132462170539
 30
0.0
 11
4445.4367796733113
 21
4466.7132462170539
 31
0.0
 12
4437.1034463399774
 22
4516.7132462170539
 32
0.0
 13
4437.1034463399774
 23
4516.7132462170539
 33
0.0
  0
SOLID
  5
5A50
  8
SUNPOU
 10
4428.7701130066453
 20
4366.7132462170539
 30
0.0
 11
4445.4367796733113
 21
4366.7132462170539
 31
0.0
 12
4437.1034463399774
 22
4316.7132462170539
 32
0.0
 13
4437.1034463399774
 23
4316.7132462170539
 33
0.0
  0
POINT
  5
5A51
  8
DEFPOINTS
 62
     0
 10
4277.1659463399783
 20
4516.7132462170539
 30
0.0
  0
POINT
  5
5A52
  8
DEFPOINTS
 62
     0
 10
4277.1268838399783
 20
4316.7132462170539
 30
0.0
  0
POINT
  5
5A53
  8
DEFPOINTS
 62
     0
 10
4437.1034463399774
 20
4316.7132462170539
 30
0.0
  0
ENDBLK
  5
F16
  8
0
  0
BLOCK
  8
0
  2
*D7
 70
     1
 10
0.0
 20
0.0
 30
0.0
  3
*D7
  1

  0
LINE
  5
5A93
  8
SUNPOU
 10
5189.7786137312669
 20
4516.7132462170539
 30
0.0
 11
5682.1466914734592
 21
4516.7132462170539
 31
0.0
  0
LINE
  5
5A94
  8
SUNPOU
 10
5206.9286137312656
 20
3016.7132462170539
 30
0.0
 11
5682.1466914734592
 21
3016.7132462170539
 31
0.0
  0
LINE
  5
5A95
  8
SUNPOU
 10
5657.1466914734583
 20
4466.7132462170539
 30
0.0
 11
5657.1466914734583
 21
3066.7132462170539
 31
0.0
  0
SOLID
  5
5A96
  8
SUNPOU
 10
5648.8133581401262
 20
4466.7132462170539
 30
0.0
 11
5665.4800248067913
 21
4466.7132462170539
 31
0.0
 12
5657.1466914734583
 22
4516.7132462170539
 32
0.0
 13
5657.1466914734583
 23
4516.7132462170539
 33
0.0
  0
SOLID
  5
5A97
  8
SUNPOU
 10
5648.8133581401262
 20
3066.7132462170539
 30
0.0
 11
5665.4800248067913
 21
3066.7132462170539
 31
0.0
 12
5657.1466914734583
 22
3016.7132462170539
 32
0.0
 13
5657.1466914734583
 23
3016.7132462170539
 33
0.0
  0
TEXT
  8
SUNPOU
  40
60
  5
5CB1
  72
0
  71
0
 10
5477.15
 20
3660.51
 30
0.000000
  1
1500
  7
EXT08
  0
POINT
  5
5A99
  8
DEFPOINTS
 62
     0
 10
5164.778613731266
 20
4516.7132462170539
 30
0.0
  0
POINT
  5
5A9A
  8
DEFPOINTS
 62
     0
 10
5181.9286137312647
 20
3016.7132462170539
 30
0.0
  0
POINT
  5
5A9B
  8
DEFPOINTS
 62
     0
 10
5657.1466914734583
 20
3016.7132462170539
 30
0.0
  0
ENDBLK
  5
E92
  8
0
  0
BLOCK
  8
0
  2
*D8
 70
     1
 10
0.0
 20
0.0
 30
0.0
  3
*D8
  1

  0
LINE
  5
5A66
  8
SUNPOU
 10
5189.7786137312669
 20
4516.7132462170539
 30
0.0
 11
5506.9286137312647
 21
4516.7132462170539
 31
0.0
  0
LINE
  5
5A67
  8
SUNPOU
 10
5384.1432719410614
 20
3416.7132462170539
 30
0.0
 11
5506.9286137312647
 21
3416.7132462170539
 31
0.0
  0
LINE
  5
5A68
  8
SUNPOU
 10
5481.9286137312638
 20
4466.7132462170539
 30
0.0
 11
5481.9286137312638
 21
3466.7132462170539
 31
0.0
  0
SOLID
  5
5A69
  8
SUNPOU
 10
5473.5952803979308
 20
4466.7132462170539
 30
0.0
 11
5490.2619470645977
 21
4466.7132462170539
 31
0.0
 12
5481.9286137312638
 22
4516.7132462170539
 32
0.0
 13
5481.9286137312638
 23
4516.7132462170539
 33
0.0
  0
SOLID
  5
5A6A
  8
SUNPOU
 10
5473.5952803979308
 20
3466.7132462170539
 30
0.0
 11
5490.2619470645977
 21
3466.7132462170539
 31
0.0
 12
5481.9286137312638
 22
3416.7132462170539
 32
0.0
 13
5481.9286137312638
 23
3416.7132462170539
 33
0.0
  0
TEXT
  8
SUNPOU
  40
60
  5
5CB2
  72
0
  71
0
 10
5301.93
 20
3860.51
 30
0.000000
  1
1100
  7
EXT08
  0
POINT
  5
5A6C
  8
DEFPOINTS
 62
     0
 10
5164.778613731266
 20
4516.7132462170539
 30
0.0
  0
POINT
  5
5A6D
  8
DEFPOINTS
 62
     0
 10
5359.1432719410614
 20
3416.7132462170539
 30
0.0
  0
POINT
  5
5A6E
  8
DEFPOINTS
 62
     0
 10
5481.9286137312638
 20
3416.7132462170539
 30
0.0
  0
ENDBLK
  5
EF5
  8
0
  0
BLOCK
  8
0
  2
*D9
 70
     1
 10
0.0
 20
0.0
 30
0.0
  3
*D9
  1

  0
LINE
  5
5A6F
  8
SUNPOU
 10
5384.1432719410614
 20
3416.7132462170539
 30
0.0
 11
5506.9286137312647
 21
3416.7132462170539
 31
0.0
  0
LINE
  5
5A70
  8
SUNPOU
 10
5319.778613731266
 20
3016.7132462170539
 30
0.0
 11
5506.9286137312647
 21
3016.7132462170539
 31
0.0
  0
LINE
  5
5A71
  8
SUNPOU
 10
5481.9286137312638
 20
3366.7132462170548
 30
0.0
 11
5481.9286137312638
 21
3066.7132462170539
 31
0.0
  0
SOLID
  5
5A72
  8
SUNPOU
 10
5473.5952803979308
 20
3366.7132462170548
 30
0.0
 11
5490.2619470645977
 21
3366.7132462170548
 31
0.0
 12
5481.9286137312638
 22
3416.7132462170539
 32
0.0
 13
5481.9286137312638
 23
3416.7132462170539
 33
0.0
  0
SOLID
  5
5A73
  8
SUNPOU
 10
5473.5952803979308
 20
3066.7132462170539
 30
0.0
 11
5490.2619470645977
 21
3066.7132462170539
 31
0.0
 12
5481.9286137312638
 22
3016.7132462170539
 32
0.0
 13
5481.9286137312638
 23
3016.7132462170539
 33
0.0
  0
TEXT
  8
SUNPOU
  40
60
  5
5CB3
  72
0
  71
0
 10
5301.93
 20
3110.51
 30
0.000000
  1
400
  7
EXT08
  0
POINT
  5
5A75
  8
DEFPOINTS
 62
     0
 10
5359.1432719410614
 20
3416.7132462170539
 30
0.0
  0
POINT
  5
5A76
  8
DEFPOINTS
 62
     0
 10
5294.778613731266
 20
3016.7132462170539
 30
0.0
  0
POINT
  5
5A77
  8
DEFPOINTS
 62
     0
 10
5481.9286137312638
 20
3016.7132462170539
 30
0.0
  0
ENDBLK
  5
3559
  8
0
  0
BLOCK
  8
0
  2
*D10
 70
     1
 10
0.0
 20
0.0
 30
0.0
  3
*D10
  1

  0
LINE
  5
5A78
  8
SUNPOU
 10
6184.1767469451243
 20
4516.7132462170539
 30
0.0
 11
6801.4137261037222
 21
4516.7132462170539
 31
0.0
  0
LINE
  5
5A79
  8
SUNPOU
 10
6716.0641539587041
 20
3416.7132462170539
 30
0.0
 11
6801.4137261037222
 21
3416.7132462170539
 31
0.0
  0
LINE
  5
5A7A
  8
SUNPOU
 10
6776.4137261037222
 20
4466.7132462170539
 30
0.0
 11
6776.4137261037222
 21
3466.7132462170539
 31
0.0
  0
SOLID
  5
5A7B
  8
SUNPOU
 10
6768.0803927703882
 20
4466.7132462170539
 30
0.0
 11
6784.7470594370552
 21
4466.7132462170539
 31
0.0
 12
6776.4137261037222
 22
4516.7132462170539
 32
0.0
 13
6776.4137261037222
 23
4516.7132462170539
 33
0.0
  0
SOLID
  5
5A7C
  8
SUNPOU
 10
6768.0803927703882
 20
3466.7132462170539
 30
0.0
 11
6784.7470594370552
 21
3466.7132462170539
 31
0.0
 12
6776.4137261037222
 22
3416.7132462170539
 32
0.0
 13
6776.4137261037222
 23
3416.7132462170539
 33
0.0
  0
TEXT
  8
SUNPOU
  40
60
  5
5CB4
  72
0
  71
0
 10
6596.41
 20
3860.51
 30
0.000000
  1
1100
  7
EXT08
  0
POINT
  5
5A7E
  8
DEFPOINTS
 62
     0
 10
6159.1767469451243
 20
4516.7132462170539
 30
0.0
  0
POINT
  5
5A7F
  8
DEFPOINTS
 62
     0
 10
6691.064153958705
 20
3416.7132462170539
 30
0.0
  0
POINT
  5
5A80
  8
DEFPOINTS
 62
     0
 10
6776.4137261037222
 20
3416.7132462170539
 30
0.0
  0
ENDBLK
  5
EDF
  8
0
  0
BLOCK
  8
0
  2
*D11
 70
     1
 10
0.0
 20
0.0
 30
0.0
  3
*D11
  1

  0
LINE
  5
5A9C
  8
SUNPOU
 10
6371.3267469451239
 20
3416.7132462170539
 30
0.0
 11
6335.3771125841522
 21
3416.7132462170539
 31
0.0
  0
LINE
  5
5A9D
  8
SUNPOU
 10
6244.1767469451243
 20
3432.7132462170539
 30
0.0
 11
6385.3771125841522
 21
3432.7132462170539
 31
0.0
  0
LINE
  5
5A9E
  8
SUNPOU
 10
6360.3771125841531
 20
3366.7132462170548
 30
0.0
 11
6360.3771125841531
 21
3316.7132462170539
 31
0.0
  0
LINE
  5
5A9F
  8
SUNPOU
 10
6360.3771125841531
 20
3482.7132462170539
 30
0.0
 11
6360.3771125841531
 21
3532.7132462170539
 31
0.0
  0
TEXT
  8
SUNPOU
  40
60
  5
5CB5
  72
0
  71
0
 10
6192.75
 20
3402.79
 30
0.000000
  1
t16
  7
EXT08
  0
LINE
  5
5AA1
  8
SUNPOU
 10
6360.3771125841531
 20
3416.7132462170539
 30
0.0
 11
6360.3771125841531
 21
3432.7132462170539
 31
0.0
  0
SOLID
  5
5AA2
  8
SUNPOU
 10
6352.0437792508192
 20
3366.7132462170548
 30
0.0
 11
6368.7104459174861
 21
3366.7132462170548
 31
0.0
 12
6360.3771125841531
 22
3416.7132462170539
 32
0.0
 13
6360.3771125841531
 23
3416.7132462170539
 33
0.0
  0
SOLID
  5
5AA3
  8
SUNPOU
 10
6352.0437792508192
 20
3482.7132462170539
 30
0.0
 11
6368.7104459174861
 21
3482.7132462170539
 31
0.0
 12
6360.3771125841531
 22
3432.7132462170539
 32
0.0
 13
6360.3771125841531
 23
3432.7132462170539
 33
0.0
  0
POINT
  5
5AA4
  8
DEFPOINTS
 62
     0
 10
6396.3267469451239
 20
3416.7132462170539
 30
0.0
  0
POINT
  5
5AA5
  8
DEFPOINTS
 62
     0
 10
6219.1767469451243
 20
3432.7132462170539
 30
0.0
  0
POINT
  5
5AA6
  8
DEFPOINTS
 62
     0
 10
6360.3771125841531
 20
3432.7132462170539
 30
0.0
  0
ENDBLK
  5
E87
  8
0
  0
BLOCK
  8
0
  2
*D12
 70
     1
 10
0.0
 20
0.0
 30
0.0
  3
*D12
  1

  0
LINE
  5
5AAE
  8
SUNPOU
 10
974.05003737294226
 20
4341.7130944114551
 30
0.0
 11
974.05003737294226
 21
4741.7132462170539
 31
0.0
  0
LINE
  5
5AAF
  8
SUNPOU
 10
1019.050122682143
 20
4299.0136610839554
 30
0.0
 11
1019.050122682143
 21
4741.7132462170539
 31
0.0
  0
LINE
  5
5AB0
  8
SUNPOU
 10
924.05003737294226
 20
4716.7132462170539
 30
0.0
 11
874.05003737294226
 21
4716.7132462170539
 31
0.0
  0
LINE
  5
5AB1
  8
SUNPOU
 10
1069.050122682143
 20
4716.7132462170539
 30
0.0
 11
1119.050122682143
 21
4716.7132462170539
 31
0.0
  0
TEXT
  8
SUNPOU
  40
60
  5
5CB6
  72
0
  71
0
 10
821.825
 20
4685.72
 30
0.000000
  1
(45)
  7
EXT08
  0
LINE
  5
5AB3
  8
SUNPOU
 10
974.05003737294226
 20
4716.7132462170539
 30
0.0
 11
1019.050122682143
 21
4716.7132462170539
 31
0.0
  0
SOLID
  5
5AB4
  8
SUNPOU
 10
924.05003737294226
 20
4725.0465795503869
 30
0.0
 11
924.05003737294226
 21
4708.37991288372
 31
0.0
 12
974.05003737294226
 22
4716.7132462170539
 32
0.0
 13
974.05003737294226
 23
4716.7132462170539
 33
0.0
  0
SOLID
  5
5AB5
  8
SUNPOU
 10
1069.050122682143
 20
4725.0465795503869
 30
0.0
 11
1069.050122682143
 21
4708.37991288372
 31
0.0
 12
1019.050122682143
 22
4716.7132462170539
 32
0.0
 13
1019.050122682143
 23
4716.7132462170539
 33
0.0
  0
POINT
  5
5AB6
  8
DEFPOINTS
 62
     0
 10
974.05003737294226
 20
4316.7130944114551
 30
0.0
  0
POINT
  5
5AB7
  8
DEFPOINTS
 62
     0
 10
1019.050122682143
 20
4274.0136610839554
 30
0.0
  0
POINT
  5
5AB8
  8
DEFPOINTS
 62
     0
 10
1019.050122682143
 20
4716.7132462170539
 30
0.0
  0
ENDBLK
  5
1561
  8
0
  0
BLOCK
  8
0
  2
*D13
 70
     1
 10
0.0
 20
0.0
 30
0.0
  3
*D13
  1

  0
LINE
  5
5AB9
  8
SUNPOU
 10
1147.050122682143
 20
4299.0136610839554
 30
0.0
 11
1147.050122682143
 21
4741.7132462170539
 31
0.0
  0
LINE
  5
5ABA
  8
SUNPOU
 10
2627.050122682143
 20
4299.0136610839563
 30
0.0
 11
2627.050122682143
 21
4741.7132462170539
 31
0.0
  0
LINE
  5
5ABB
  8
SUNPOU
 10
1197.050122682143
 20
4716.7132462170539
 30
0.0
 11
2577.050122682143
 21
4716.7132462170539
 31
0.0
  0
SOLID
  5
5ABC
  8
SUNPOU
 10
1197.050122682143
 20
4725.0465795503869
 30
0.0
 11
1197.050122682143
 21
4708.37991288372
 31
0.0
 12
1147.050122682143
 22
4716.7132462170539
 32
0.0
 13
1147.050122682143
 23
4716.7132462170539
 33
0.0
  0
SOLID
  5
5ABD
  8
SUNPOU
 10
2577.050122682143
 20
4725.0465795503869
 30
0.0
 11
2577.050122682143
 21
4708.37991288372
 31
0.0
 12
2627.050122682143
 22
4716.7132462170539
 32
0.0
 13
2627.050122682143
 23
4716.7132462170539
 33
0.0
  0
TEXT
  8
SUNPOU
  40
60
  5
5CB7
  72
0
  71
0
 10
1767.05
 20
4670.51
 30
0.000000
  1
10@148=1480
  7
EXT08
  0
POINT
  5
5ABF
  8
DEFPOINTS
 62
     0
 10
1147.050122682143
 20
4274.0136610839554
 30
0.0
  0
POINT
  5
5AC0
  8
DEFPOINTS
 62
     0
 10
2627.050122682143
 20
4274.0136610839563
 30
0.0
  0
POINT
  5
5AC1
  8
DEFPOINTS
 62
     0
 10
2627.050122682143
 20
4716.7132462170539
 30
0.0
  0
ENDBLK
  5
14C4
  8
0
  0
BLOCK
  8
0
  2
*D14
 70
     1
 10
0.0
 20
0.0
 30
0.0
  3
*D14
  1

  0
LINE
  5
5AC2
  8
SUNPOU
 10
2627.050122682143
 20
4299.0136610839563
 30
0.0
 11
2627.050122682143
 21
4741.7132462170539
 31
0.0
  0
LINE
  5
5AC3
  8
SUNPOU
 10
2755.050122682143
 20
4299.0136610839563
 30
0.0
 11
2755.050122682143
 21
4741.7132462170539
 31
0.0
  0
LINE
  5
5AC4
  8
SUNPOU
 10
2677.050122682143
 20
4716.7132462170539
 30
0.0
 11
2755.050122682143
 21
4716.7132462170539
 31
0.0
  0
TEXT
  8
SUNPOU
  40
60
  5
5CB8
  72
0
  71
0
 10
2527.80
 20
4675.22
 30
0.000000
  1
128
  7
EXT08
  0
SOLID
  5
5AC6
  8
SUNPOU
 10
2677.050122682143
 20
4725.0465795503869
 30
0.0
 11
2677.050122682143
 21
4708.37991288372
 31
0.0
 12
2627.050122682143
 22
4716.7132462170539
 32
0.0
 13
2627.050122682143
 23
4716.7132462170539
 33
0.0
  0
POINT
  5
5AC7
  8
DEFPOINTS
 62
     0
 10
2627.050122682143
 20
4274.0136610839563
 30
0.0
  0
POINT
  5
5AC8
  8
DEFPOINTS
 62
     0
 10
2755.050122682143
 20
4274.0136610839563
 30
0.0
  0
POINT
  5
5AC9
  8
DEFPOINTS
 62
     0
 10
2755.050122682143
 20
4716.7132462170539
 30
0.0
  0
ENDBLK
  5
1479
  8
0
  0
BLOCK
  8
0
  2
*D15
 70
     1
 10
0.0
 20
0.0
 30
0.0
  3
*D15
  1

  0
LINE
  5
5ACA
  8
SUNPOU
 10
2755.050122682143
 20
4299.0136610839563
 30
0.0
 11
2755.050122682143
 21
4741.7132462170539
 31
0.0
  0
LINE
  5
5ACB
  8
SUNPOU
 10
2800.0500373729428
 20
4341.713094411456
 30
0.0
 11
2800.0500373729428
 21
4741.7132462170539
 31
0.0
  0
LINE
  5
5ACC
  8
SUNPOU
 10
2705.050122682143
 20
4716.7132462170539
 30
0.0
 11
2655.050122682143
 21
4716.7132462170539
 31
0.0
  0
LINE
  5
5ACD
  8
SUNPOU
 10
2850.0500373729428
 20
4716.7132462170539
 30
0.0
 11
2900.0500373729428
 21
4716.7132462170539
 31
0.0
  0
TEXT
  8
SUNPOU
  40
60
  5
5CB9
  72
0
  71
0
 10
2706.76
 20
4688.16
 30
0.000000
  1
(45)
  7
EXT08
  0
LINE
  5
5ACF
  8
SUNPOU
 10
2755.050122682143
 20
4716.7132462170539
 30
0.0
 11
2800.0500373729428
 21
4716.7132462170539
 31
0.0
  0
SOLID
  5
5AD0
  8
SUNPOU
 10
2705.050122682143
 20
4725.0465795503869
 30
0.0
 11
2705.050122682143
 21
4708.37991288372
 31
0.0
 12
2755.050122682143
 22
4716.7132462170539
 32
0.0
 13
2755.050122682143
 23
4716.7132462170539
 33
0.0
  0
SOLID
  5
5AD1
  8
SUNPOU
 10
2850.0500373729428
 20
4725.0465795503869
 30
0.0
 11
2850.0500373729428
 21
4708.37991288372
 31
0.0
 12
2800.0500373729428
 22
4716.7132462170539
 32
0.0
 13
2800.0500373729428
 23
4716.7132462170539
 33
0.0
  0
POINT
  5
5AD2
  8
DEFPOINTS
 62
     0
 10
2755.050122682143
 20
4274.0136610839563
 30
0.0
  0
POINT
  5
5AD3
  8
DEFPOINTS
 62
     0
 10
2800.0500373729428
 20
4316.713094411457
 30
0.0
  0
POINT
  5
5AD4
  8
DEFPOINTS
 62
     0
 10
2800.0500373729428
 20
4716.7132462170539
 30
0.0
  0
ENDBLK
  5
1554
  8
0
  0
BLOCK
  8
0
  2
*D16
 70
     1
 10
0.0
 20
0.0
 30
0.0
  3
*D16
  1

  0
LINE
  5
5AFD
  8
SUNPOU
 10
2798.2542796432508
 20
1717.4233232050351
 30
0.0
 11
2967.5460220111768
 21
1717.4233232050351
 31
0.0
  0
LINE
  5
5AFE
  8
SUNPOU
 10
2435.1051872024741
 20
1037.421587798274
 30
0.0
 11
2967.5460220111768
 21
1037.421587798274
 31
0.0
  0
LINE
  5
5AFF
  8
SUNPOU
 10
2942.5460220111768
 20
1667.4233232050351
 30
0.0
 11
2942.5460220111768
 21
1087.421587798274
 31
0.0
  0
SOLID
  5
5B00
  8
SUNPOU
 10
2934.2126886778442
 20
1667.4233232050351
 30
0.0
 11
2950.8793553445112
 21
1667.4233232050351
 31
0.0
 12
2942.5460220111768
 22
1717.4233232050351
 32
0.0
 13
2942.5460220111768
 23
1717.4233232050351
 33
0.0
  0
SOLID
  5
5B01
  8
SUNPOU
 10
2934.2126886778442
 20
1087.421587798274
 30
0.0
 11
2950.8793553445112
 21
1087.421587798274
 31
0.0
 12
2942.5460220111768
 22
1037.421587798274
 32
0.0
 13
2942.5460220111768
 23
1037.421587798274
 33
0.0
  0
TEXT
  8
SUNPOU
  40
60
  5
5CBA
  72
0
  71
0
 10
2762.55
 20
1271.22
 30
0.000000
  1
170
  7
EXT08
  0
POINT
  5
5B03
  8
DEFPOINTS
 62
     0
 10
2773.2542796432499
 20
1717.4233232050351
 30
0.0
  0
POINT
  5
5B04
  8
DEFPOINTS
 62
     0
 10
2410.1051872024741
 20
1037.421587798274
 30
0.0
  0
POINT
  5
5B05
  8
DEFPOINTS
 62
     0
 10
2942.5460220111768
 20
1037.421587798274
 30
0.0
  0
ENDBLK
  5
2945
  8
0
  0
BLOCK
  8
0
  2
*D17
 70
     1
 10
0.0
 20
0.0
 30
0.0
  3
*D17
  1

  0
LINE
  5
5B06
  8
SUNPOU
 10
2410.1051872024741
 20
1202.4210748703599
 30
0.0
 11
2410.1051872024741
 21
1385.665306987976
 31
0.0
  0
LINE
  5
5B07
  8
SUNPOU
 10
2239.3059547983671
 20
1202.4210748703599
 30
0.0
 11
2239.3059547983671
 21
1385.665306987976
 31
0.0
  0
LINE
  5
5B08
  8
SUNPOU
 10
2360.1051872024732
 20
1360.665306987976
 30
0.0
 11
2289.3059547983671
 21
1360.665306987976
 31
0.0
  0
TEXT
  8
SUNPOU
  40
60
  5
5CBB
  72
0
  71
0
 10
2204.71
 20
1319.11
 30
0.000000
  1
42.7
  7
EXT08
  0
SOLID
  5
5B0A
  8
SUNPOU
 10
2360.1051872024732
 20
1368.998640321309
 30
0.0
 11
2360.1051872024732
 21
1352.3319736546421
 31
0.0
 12
2410.1051872024741
 22
1360.665306987976
 32
0.0
 13
2410.1051872024741
 23
1360.665306987976
 33
0.0
  0
SOLID
  5
5B0B
  8
SUNPOU
 10
2289.3059547983671
 20
1368.998640321309
 30
0.0
 11
2289.3059547983671
 21
1352.3319736546421
 31
0.0
 12
2239.3059547983671
 22
1360.665306987976
 32
0.0
 13
2239.3059547983671
 23
1360.665306987976
 33
0.0
  0
POINT
  5
5B0C
  8
DEFPOINTS
 62
     0
 10
2410.1051872024741
 20
1177.4210748703599
 30
0.0
  0
POINT
  5
5B0D
  8
DEFPOINTS
 62
     0
 10
2239.3059547983671
 20
1177.4210748703599
 30
0.0
  0
POINT
  5
5B0E
  8
DEFPOINTS
 62
     0
 10
2239.3059547983671
 20
1360.665306987976
 30
0.0
  0
ENDBLK
  5
29C2
  8
0
  0
BLOCK
  8
0
  2
*D18
 70
     1
 10
0.0
 20
0.0
 30
0.0
  3
*D18
  1

  0
LINE
  5
5B0F
  8
SUNPOU
 10
2410.1051872024741
 20
1202.4210748703599
 30
0.0
 11
2410.1051872024741
 21
1264.809206493466
 31
0.0
  0
LINE
  5
5B10
  8
SUNPOU
 10
2294.20479732593
 20
1216.7433305713889
 30
0.0
 11
2294.20479732593
 21
1264.809206493466
 31
0.0
  0
LINE
  5
5B11
  8
SUNPOU
 10
2360.1051872024732
 20
1239.809206493466
 30
0.0
 11
2344.20479732593
 21
1239.809206493466
 31
0.0
  0
TEXT
  8
SUNPOU
  40
60
  5
5CBC
  72
0
  71
0
 10
2232.87
 20
1201.06
 30
0.000000
  1
29
  7
EXT08
  0
SOLID
  5
5B13
  8
SUNPOU
 10
2360.1051872024732
 20
1248.1425398268
 30
0.0
 11
2360.1051872024732
 21
1231.475873160133
 31
0.0
 12
2410.1051872024741
 22
1239.809206493466
 32
0.0
 13
2410.1051872024741
 23
1239.809206493466
 33
0.0
  0
SOLID
  5
5B14
  8
SUNPOU
 10
2344.20479732593
 20
1248.1425398268
 30
0.0
 11
2344.20479732593
 21
1231.475873160133
 31
0.0
 12
2294.20479732593
 22
1239.809206493466
 32
0.0
 13
2294.20479732593
 23
1239.809206493466
 33
0.0
  0
POINT
  5
5B15
  8
DEFPOINTS
 62
     0
 10
2410.1051872024741
 20
1177.4210748703599
 30
0.0
  0
POINT
  5
5B16
  8
DEFPOINTS
 62
     0
 10
2294.20479732593
 20
1191.7433305713889
 30
0.0
  0
POINT
  5
5B17
  8
DEFPOINTS
 62
     0
 10
2294.20479732593
 20
1239.809206493466
 30
0.0
  0
ENDBLK
  5
2992
  8
0
  0
BLOCK
  8
0
  2
*D19
 70
     1
 10
0.0
 20
0.0
 30
0.0
  3
*D19
  1

  0
LINE
  5
5B18
  8
SUNPOU
 10
2227.5388563856432
 20
1177.4210748703599
 30
0.0
 11
2133.6513282430719
 21
1177.4210748703599
 31
0.0
  0
LINE
  5
5B19
  8
SUNPOU
 10
2214.3059547983671
 20
1037.421587798274
 30
0.0
 11
2133.6513282430719
 21
1037.421587798274
 31
0.0
  0
LINE
  5
5B1A
  8
SUNPOU
 10
2158.6513282430719
 20
1127.4210748703599
 30
0.0
 11
2158.6513282430719
 21
1087.421587798274
 31
0.0
  0
SOLID
  5
5B1B
  8
SUNPOU
 10
2150.317994909738
 20
1127.4210748703599
 30
0.0
 11
2166.984661576405
 21
1127.4210748703599
 31
0.0
 12
2158.6513282430719
 22
1177.4210748703599
 32
0.0
 13
2158.6513282430719
 23
1177.4210748703599
 33
0.0
  0
SOLID
  5
5B1C
  8
SUNPOU
 10
2150.317994909738
 20
1087.421587798274
 30
0.0
 11
2166.984661576405
 21
1087.421587798274
 31
0.0
 12
2158.6513282430719
 22
1037.421587798274
 32
0.0
 13
2158.6513282430719
 23
1037.421587798274
 33
0.0
  0
TEXT
  8
SUNPOU
  40
60
  5
5CBD
  72
0
  71
0
 10
1978.65
 20
1001.22
 30
0.000000
  1
35
  7
EXT08
  0
POINT
  5
5B1E
  8
DEFPOINTS
 62
     0
 10
2252.5388563856432
 20
1177.4210748703599
 30
0.0
  0
POINT
  5
5B1F
  8
DEFPOINTS
 62
     0
 10
2239.3059547983671
 20
1037.421587798274
 30
0.0
  0
POINT
  5
5B20
  8
DEFPOINTS
 62
     0
 10
2158.6513282430719
 20
1037.421587798274
 30
0.0
  0
ENDBLK
  5
29D0
  8
0
  0
BLOCK
  8
0
  2
*D20
 70
     1
 10
0.0
 20
0.0
 30
0.0
  3
*D20
  1

  0
LINE
  5
5B21
  8
SUNPOU
 10
1581.7886186998689
 20
872.42210072618877
 30
0.0
 11
1581.7886186998689
 21
574.0467471078573
 31
0.0
  0
LINE
  5
5B22
  8
SUNPOU
 10
1410.989141771855
 20
872.42210072618877
 30
0.0
 11
1410.989141771855
 21
574.0467471078573
 31
0.0
  0
LINE
  5
5B23
  8
SUNPOU
 10
1531.7886186998689
 20
599.0467471078573
 30
0.0
 11
1460.989141771855
 21
599.0467471078573
 31
0.0
  0
TEXT
  8
SUNPOU
  40
60
  5
5CBE
  72
0
  71
0
 10
1376.39
 20
554.110
 30
0.000000
  1
42.7
  7
EXT08
  0
SOLID
  5
5B25
  8
SUNPOU
 10
1531.7886186998689
 20
607.38008044119067
 30
0.0
 11
1531.7886186998689
 21
590.71341377452393
 31
0.0
 12
1581.7886186998689
 22
599.0467471078573
 32
0.0
 13
1581.7886186998689
 23
599.0467471078573
 33
0.0
  0
SOLID
  5
5B26
  8
SUNPOU
 10
1460.989141771855
 20
607.38008044119067
 30
0.0
 11
1460.989141771855
 21
590.71341377452393
 31
0.0
 12
1410.989141771855
 22
599.0467471078573
 32
0.0
 13
1410.989141771855
 23
599.0467471078573
 33
0.0
  0
POINT
  5
5B27
  8
DEFPOINTS
 62
     0
 10
1581.7886186998689
 20
897.42210072618877
 30
0.0
  0
POINT
  5
5B28
  8
DEFPOINTS
 62
     0
 10
1410.989141771855
 20
897.42210072618877
 30
0.0
  0
POINT
  5
5B29
  8
DEFPOINTS
 62
     0
 10
1410.989141771855
 20
599.0467471078573
 30
0.0
  0
ENDBLK
  5
2A1F
  8
0
  0
BLOCK
  8
0
  2
*D21
 70
     1
 10
0.0
 20
0.0
 30
0.0
  3
*D21
  1

  0
LINE
  5
5B2A
  8
SUNPOU
 10
1526.9898276117949
 20
872.42210072618877
 30
0.0
 11
1526.9898276117949
 21
716.82958675771431
 31
0.0
  0
LINE
  5
5B2B
  8
SUNPOU
 10
1410.989141771855
 20
872.42210072618877
 30
0.0
 11
1410.989141771855
 21
716.82958675771431
 31
0.0
  0
LINE
  5
5B2C
  8
SUNPOU
 10
1476.9898276117949
 20
741.82958675771431
 30
0.0
 11
1460.989141771855
 21
741.82958675771431
 31
0.0
  0
TEXT
  8
SUNPOU
  40
60
  5
5CBF
  72
0
  71
0
 10
1348.99
 20
691.239
 30
0.000000
  1
29
  7
EXT08
  0
SOLID
  5
5B2E
  8
SUNPOU
 10
1476.9898276117949
 20
750.16292009104768
 30
0.0
 11
1476.9898276117949
 21
733.49625342438105
 31
0.0
 12
1526.9898276117949
 22
741.82958675771431
 32
0.0
 13
1526.9898276117949
 23
741.82958675771431
 33
0.0
  0
SOLID
  5
5B2F
  8
SUNPOU
 10
1460.989141771855
 20
750.16292009104768
 30
0.0
 11
1460.989141771855
 21
733.49625342438105
 31
0.0
 12
1410.989141771855
 22
741.82958675771431
 32
0.0
 13
1410.989141771855
 23
741.82958675771431
 33
0.0
  0
POINT
  5
5B30
  8
DEFPOINTS
 62
     0
 10
1526.9898276117949
 20
897.42210072618877
 30
0.0
  0
POINT
  5
5B31
  8
DEFPOINTS
 62
     0
 10
1410.989141771855
 20
897.42210072618877
 30
0.0
  0
POINT
  5
5B32
  8
DEFPOINTS
 62
     0
 10
1410.989141771855
 20
741.82958675771431
 30
0.0
  0
ENDBLK
  5
2A14
  8
0
  0
BLOCK
  8
0
  2
*D22
 70
     1
 10
0.0
 20
0.0
 30
0.0
  3
*D22
  1

  0
LINE
  5
5B33
  8
SUNPOU
 10
1606.7886186998689
 20
897.42210072618877
 30
0.0
 11
1746.3496929633179
 21
897.42210072618877
 31
0.0
  0
LINE
  5
5B34
  8
SUNPOU
 10
1606.7886186998689
 20
1037.421587798274
 30
0.0
 11
1746.3496929633179
 21
1037.421587798274
 31
0.0
  0
LINE
  5
5B35
  8
SUNPOU
 10
1721.3496929633179
 20
947.42210072618877
 30
0.0
 11
1721.3496929633179
 21
987.42158779827435
 31
0.0
  0
TEXT
  8
SUNPOU
  40
60
  5
5CC0
  72
0
  71
0
 10
1550.68
 20
861.222
 30
0.000000
  1
35
  7
EXT08
  0
SOLID
  5
5B37
  8
SUNPOU
 10
1713.0163596299849
 20
947.42210072618877
 30
0.0
 11
1729.683026296651
 21
947.42210072618877
 31
0.0
 12
1721.3496929633179
 22
897.42210072618877
 32
0.0
 13
1721.3496929633179
 23
897.42210072618877
 33
0.0
  0
SOLID
  5
5B38
  8
SUNPOU
 10
1713.0163596299849
 20
987.42158779827435
 30
0.0
 11
1729.683026296651
 21
987.42158779827435
 31
0.0
 12
1721.3496929633179
 22
1037.421587798274
 32
0.0
 13
1721.3496929633179
 23
1037.421587798274
 33
0.0
  0
POINT
  5
5B39
  8
DEFPOINTS
 62
     0
 10
1581.7886186998689
 20
897.42210072618877
 30
0.0
  0
POINT
  5
5B3A
  8
DEFPOINTS
 62
     0
 10
1581.7886186998689
 20
1037.421587798274
 30
0.0
  0
POINT
  5
5B3B
  8
DEFPOINTS
 62
     0
 10
1721.3496929633179
 20
1037.421587798274
 30
0.0
  0
ENDBLK
  5
2A4A
  8
0
  0
BLOCK
  8
0
  2
*X23
 70
     1
 10
0.0
 20
0.0
 30
0.0
  3
*X23
  1

  0
LINE
  5
2ABB
  8
0
 62
     0
 10
4678.4166716118261
 20
-113.28723736925861
 30
0.0
 11
4688.0584857571239
 21
-101.7965707224739
 31
0.0
  0
LINE
  5
2ABC
  8
0
 62
     0
 10
4590.4651686448224
 20
-401.6136638886091
 30
0.0
 11
4591.819193418597
 21
-400.00000000000023
 31
0.0
  0
LINE
  5
2ABD
  8
0
 62
     0
 10
4706.1669383884
 20
-263.72566412719362
 30
0.0
 11
4715.8087525336978
 21
-252.23499748040891
 31
0.0
  0
LINE
  5
2ABE
  8
0
 62
     0
 10
4618.2154354213963
 20
-552.05209064654457
 30
0.0
 11
4627.857249566694
 21
-540.56142399975977
 31
0.0
  0
LINE
  5
2ABF
  8
0
 62
     0
 10
4733.917205164973
 20
-414.16409088512847
 30
0.0
 11
4736.4499999999998
 21
-411.14562354117999
 31
0.0
  0
LINE
  5
2AC0
  8
0
 62
     0
 10
4534.9646350916746
 20
-100.736810372739
 30
0.0
 11
4544.6064492369733
 21
-89.246143725954326
 31
0.0
  0
LINE
  5
2AC1
  8
0
 62
     0
 10
4590.4651688067643
 20
-401.61366258120847
 30
0.0
 11
4602.4195051838642
 21
-402.65953149418033
 31
0.0
  0
LINE
  5
2AC2
  8
0
 62
     0
 10
4733.9172053319744
 20
-414.16408953687119
 30
0.0
 11
4736.4499999999998
 21
-414.38568035736239
 31
0.0
  0
LINE
  5
2AC3
  8
0
 62
     0
 10
4706.1669386093736
 20
-263.7256627968689
 30
0.0
 11
4718.1212749864753
 21
-264.77153170984081
 31
0.0
  0
LINE
  5
2AC4
  8
0
 62
     0
 10
4534.9646353615626
 20
-100.7368091012037
 30
0.0
 11
4546.9189717386653
 21
-101.7826780141756
 31
0.0
  0
LINE
  5
2AC5
  8
0
 62
     0
 10
4678.4166718867746
 20
-113.2872360568665
 30
0.0
 11
4690.3710082638754
 21
-114.3331049698384
 31
0.0
  0
LINE
  5
2AC6
  8
0
 62
     0
 10
4486.4499999999998
 20
-540.52410746783551
 30
0.0
 11
4486.7177353812531
 21
-540.54753127851984
 31
0.0
  0
LINE
  5
2AC7
  8
0
 62
     0
 10
4618.2154355293633
 20
-552.0520893212107
 30
0.0
 11
4630.1697719064641
 21
-553.09795823418256
 31
0.0
  0
LINE
  5
2AC8
  8
0
 62
     0
 10
4630.169303889299
 20
-553.10158467691895
 30
0.0
 11
4627.8567915191452
 21
-540.56504769945423
 31
0.0
  0
LINE
  5
2AC9
  8
0
 62
     0
 10
4602.4191546493112
 20
-402.66313662034241
 30
0.0
 11
4601.927907633567
 21
-400.00000000000011
 31
0.0
  0
LINE
  5
2ACA
  8
0
 62
     0
 10
4546.9188561693372
 20
-101.78624050718931
 30
0.0
 11
4544.6063437991861
 21
-89.249703529724613
 31
0.0
  0
LINE
  5
2ACB
  8
0
 62
     0
 10
4718.1210309921162
 20
-264.77522820815142
 30
0.0
 11
4715.8085186219641
 21
-252.2386912306867
 31
0.0
  0
LINE
  5
2ACC
  8
0
 62
     0
 10
4690.3708817521292
 20
-114.336780151575
 30
0.0
 11
4688.0583693819772
 21
-101.80024317411031
 31
0.0
  0
LINE
  5
2ACD
  8
0
 62
     0
 10
4486.7172783065071
 20
-540.55104503253381
 30
0.0
 11
4486.4499999999998
 21
-539.10208224382075
 31
0.0
  0
LINE
  5
2ACE
  8
0
 62
     0
 10
4669.3447932626077
 20
-460.35614004055299
 30
0.0
 11
4684.9224923488491
 21
-444.12083002877608
 31
0.0
  0
LINE
  5
2ACF
  8
0
 62
     0
 10
4687.131668986849
 20
-463.11774725853547
 30
0.0
 11
4684.9220320935656
 21
-444.12378527959203
 31
0.0
  0
LINE
  5
2AD0
  8
0
 62
     0
 10
4669.3447934991364
 20
-460.3561387233006
 30
0.0
 11
4687.1321443105344
 21
-463.11478895706392
 31
0.0
  0
LINE
  5
2AD1
  8
0
 62
     0
 10
4521.4880623994104
 20
-516.3407735410625
 30
0.0
 11
4535.4917687968682
 21
-510.96525429788301
 31
0.0
  0
LINE
  5
2AD2
  8
0
 62
     0
 10
4689.5325391689066
 20
-451.83454262290837
 30
0.0
 11
4703.5362455663644
 21
-446.45902337972899
 31
0.0
  0
LINE
  5
2AD3
  8
0
 62
     0
 10
4499.4327846673268
 20
-145.7569773055512
 30
0.0
 11
4513.4364910647837
 21
-140.38145806237171
 31
0.0
  0
LINE
  5
2AD4
  8
0
 62
     0
 10
4668.6000000000004
 20
-80.819767432246067
 30
0.0
 11
4681.4809678342808
 21
-75.875227144217789
 31
0.0
  0
LINE
  5
2AD5
  8
0
 62
     0
 10
4548.0958510131304
 20
-0.7269682543294906
 30
0.0
 11
4549.9896680628644
 21
0.000000000000198
 31
0.0
  0
LINE
  5
2AD6
  8
0
 62
     0
 10
4689.5325405463027
 20
-451.83454215242682
 30
0.0
 11
4699.4809914169628
 21
-458.54485699407581
 31
0.0
  0
LINE
  5
2AD7
  8
0
 62
     0
 10
4499.4327860347694
 20
-145.75697694348131
 30
0.0
 11
4509.3812369054276
 21
-152.4672917851303
 31
0.0
  0
LINE
  5
2AD8
  8
0
 62
     0
 10
4548.0958524190828
 20
-0.7269679341110721
 30
0.0
 11
4554.3000000000011
 21
-4.9117183171869261
 31
0.0
  0
LINE
  5
2AD9
  8
0
 62
     0
 10
4668.6000000000004
 20
-82.008041792275634
 30
0.0
 11
4677.4257137376708
 21
-87.961060875547659
 31
0.0
  0
LINE
  5
2ADA
  8
0
 62
     0
 10
4521.4880637140623
 20
-516.34077306201004
 30
0.0
 11
4531.4365145847214
 21
-523.05108790365898
 31
0.0
  0
LINE
  5
2ADB
  8
0
 62
     0
 10
4531.4360390362372
 20
-523.05461479447672
 30
0.0
 11
4535.4913038755476
 21
-510.96878425071611
 31
0.0
  0
LINE
  5
2ADC
  8
0
 62
     0
 10
4677.4255774504536
 20
-87.964702704781146
 30
0.0
 11
4681.480842289764
 21
-75.878872161020595
 31
0.0
  0
LINE
  5
2ADD
  8
0
 62
     0
 10
4699.4805647525363
 20
-458.54851545248641
 30
0.0
 11
4703.5358295918468
 21
-446.46268490872592
 31
0.0
  0
LINE
  5
2ADE
  8
0
 62
     0
 10
4509.3810517341553
 20
-152.47080204677201
 30
0.0
 11
4513.4363165734658
 21
-140.3849715030114
 31
0.0
  0
LINE
  5
2ADF
  8
0
 62
     0
 10
4683.1960942538153
 20
-224.50381726332
 30
0.0
 11
4683.1960942538153
 21
-224.50381726332
 31
0.0
  0
LINE
  5
2AE0
  8
0
 62
     0
 10
4685.6280653172744
 20
-157.92504649705771
 30
0.0
 11
4685.6280653172744
 21
-157.92504649705771
 31
0.0
  0
LINE
  5
2AE1
  8
0
 62
     0
 10
4688.0600363807316
 20
-91.346275730795426
 30
0.0
 11
4688.0600363807316
 21
-91.346275730795426
 31
0.0
  0
LINE
  5
2AE2
  8
0
 62
     0
 10
4690.4920074441898
 20
-24.767504964533131
 30
0.0
 11
4690.4920074441898
 21
-24.767504964533131
 31
0.0
  0
LINE
  5
2AE3
  8
0
 62
     0
 10
4486.7833564085386
 20
-51.653343118401182
 30
0.0
 11
4486.7833564085386
 21
-51.653343118401182
 31
0.0
  0
LINE
  5
2AE4
  8
0
 62
     0
 10
4680.7641231903572
 20
-291.08258802958233
 30
0.0
 11
4680.7641231903572
 21
-291.08258802958233
 31
0.0
  0
LINE
  5
2AE5
  8
0
 62
     0
 10
4574.8788765529207
 20
-437.04384913858217
 30
0.0
 11
4574.8788765529207
 21
-437.04384913858217
 31
0.0
  0
LINE
  5
2AE6
  8
0
 62
     0
 10
4678.3321521268999
 20
-357.66135879584459
 30
0.0
 11
4678.3321521268999
 21
-357.66135879584459
 31
0.0
  0
LINE
  5
2AE7
  8
0
 62
     0
 10
4572.4469054894644
 20
-503.6226199048445
 30
0.0
 11
4572.4469054894644
 21
-503.6226199048445
 31
0.0
  0
LINE
  5
2AE8
  8
0
 62
     0
 10
4675.9001810634409
 20
-424.24012956210731
 30
0.0
 11
4675.9001810634409
 21
-424.24012956210731
 31
0.0
  0
LINE
  5
2AE9
  8
0
 62
     0
 10
4570.0149344260053
 20
-570.20139067110676
 30
0.0
 11
4570.0149344260053
 21
-570.20139067110676
 31
0.0
  0
LINE
  5
2AEA
  8
0
 62
     0
 10
4673.4682099999827
 20
-490.81890032836969
 30
0.0
 11
4673.4682099999827
 21
-490.81890032836969
 31
0.0
  0
LINE
  5
2AEB
  8
0
 62
     0
 10
4671.0362389365246
 20
-557.39767109463139
 30
0.0
 11
4671.0362389365246
 21
-557.39767109463139
 31
0.0
  0
LINE
  5
2AEC
  8
0
 62
     0
 10
4486.8680624950021
 20
-272.75969380087008
 30
0.0
 11
4486.8680624950021
 21
-272.75969380087008
 31
0.0
  0
LINE
  5
2AED
  8
0
 62
     0
 10
4539.4819699834316
 20
-193.87735142439811
 30
0.0
 11
4539.4819699834316
 21
-193.87735142439811
 31
0.0
  0
LINE
  5
2AEE
  8
0
 62
     0
 10
4715.8600108218343
 20
-170.65674182845089
 30
0.0
 11
4715.8600108218343
 21
-170.65674182845089
 31
0.0
  0
LINE
  5
2AEF
  8
0
 62
     0
 10
4516.3494900629021
 20
-124.967210133538
 30
0.0
 11
4516.3494900629021
 21
-124.967210133538
 31
0.0
  0
LINE
  5
2AF0
  8
0
 62
     0
 10
4718.4059528108846
 20
-98.365972159091513
 30
0.0
 11
4718.4059528108846
 21
-98.365972159091513
 31
0.0
  0
LINE
  5
2AF1
  8
0
 62
     0
 10
4518.8954320519542
 20
-52.676440464178569
 30
0.0
 11
4518.8954320519542
 21
-52.676440464178569
 31
0.0
  0
LINE
  5
2AF2
  8
0
 62
     0
 10
4686.3785832539324
 20
-318.44922549578308
 30
0.0
 11
4686.3785832539324
 21
-318.44922549578308
 31
0.0
  0
LINE
  5
2AF3
  8
0
 62
     0
 10
4507.9503228571657
 20
-413.89534166497958
 30
0.0
 11
4507.9503228571657
 21
-413.89534166497958
 31
0.0
  0
LINE
  5
2AF4
  8
0
 62
     0
 10
4558.0182883565431
 20
-407.30376895786691
 30
0.0
 11
4558.0182883565431
 21
-407.30376895786691
 31
0.0
  0
LINE
  5
2AF5
  8
0
 62
     0
 10
4505.4043808681135
 20
-486.18611133433899
 30
0.0
 11
4505.4043808681135
 21
-486.18611133433899
 31
0.0
  0
LINE
  5
2AF6
  8
0
 62
     0
 10
4581.1507682770743
 20
-476.21391024872719
 30
0.0
 11
4581.1507682770743
 21
-476.21391024872719
 31
0.0
  0
LINE
  5
2AF7
  8
0
 62
     0
 10
4707.460843616097
 20
-459.58487335989258
 30
0.0
 11
4707.460843616097
 21
-459.58487335989258
 31
0.0
  0
LINE
  5
2AF8
  8
0
 62
     0
 10
4528.536860788643
 20
-555.09625262519921
 30
0.0
 11
4528.536860788643
 21
-555.09625262519921
 31
0.0
  0
LINE
  5
2AF9
  8
0
 62
     0
 10
4654.8469361276657
 20
-538.46721573636455
 30
0.0
 11
4654.8469361276657
 21
-538.46721573636455
 31
0.0
  0
LINE
  5
2AFA
  8
0
 62
     0
 10
4704.9149016270439
 20
-531.87564302925205
 30
0.0
 11
4704.9149016270439
 21
-531.87564302925205
 31
0.0
  0
LINE
  5
2AFB
  8
0
 62
     0
 10
4602.233028639238
 20
-617.34955811283658
 30
0.0
 11
4602.233028639238
 21
-617.34955811283658
 31
0.0
  0
LINE
  5
2AFC
  8
0
 62
     0
 10
4506.4826144512081
 20
-295.63366754136013
 30
0.0
 11
4506.4826144512081
 21
-295.63366754136013
 31
0.0
  0
LINE
  5
2AFD
  8
0
 62
     0
 10
4681.0646437344749
 20
-406.85468646915268
 30
0.0
 11
4681.0646437344749
 21
-406.85468646915268
 31
0.0
  0
LINE
  5
2AFE
  8
0
 62
     0
 10
4723.2342160251201
 20
-433.71966688649388
 30
0.0
 11
4723.2342160251201
 21
-433.71966688649388
 31
0.0
  0
LINE
  5
2AFF
  8
0
 62
     0
 10
4546.2729510827166
 20
-193.97189691566649
 30
0.0
 11
4546.2729510827166
 21
-193.97189691566649
 31
0.0
  0
LINE
  5
2B00
  8
0
 62
     0
 10
4720.0115889201707
 20
-304.65561623511229
 30
0.0
 11
4720.0115889201707
 21
-304.65561623511229
 31
0.0
  0
LINE
  5
2B01
  8
0
 62
     0
 10
4695.2070106078436
 20
-225.34785167988329
 30
0.0
 11
4695.2070106078436
 21
-225.34785167988329
 31
0.0
  0
LINE
  5
2B02
  8
0
 62
     0
 10
4691.9843835028942
 20
-96.283801028501443
 30
0.0
 11
4691.9843835028942
 21
-96.283801028501443
 31
0.0
  0
LINE
  5
2B03
  8
0
 62
     0
 10
4574.300156499994
 20
-402.34371212227683
 30
0.0
 11
4574.300156499994
 21
-402.34371212227683
 31
0.0
  0
LINE
  5
2B04
  8
0
 62
     0
 10
4616.4697287906383
 20
-429.20869253961803
 30
0.0
 11
4616.4697287906383
 21
-429.20869253961803
 31
0.0
  0
LINE
  5
2B05
  8
0
 62
     0
 10
4509.7052415561557
 20
-424.697718192742
 30
0.0
 11
4509.7052415561557
 21
-424.697718192742
 31
0.0
  0
LINE
  5
2B06
  8
0
 62
     0
 10
4641.2743071029672
 20
-508.5164570948466
 30
0.0
 11
4641.2743071029672
 21
-508.5164570948466
 31
0.0
  0
LINE
  5
2B07
  8
0
 62
     0
 10
4534.5098198684846
 20
-504.00548274797058
 30
0.0
 11
4534.5098198684846
 21
-504.00548274797058
 31
0.0
  0
LINE
  5
2B08
  8
0
 62
     0
 10
4602.3273619172714
 20
-610.71552732888699
 30
0.0
 11
4602.3273619172714
 21
-610.71552732888699
 31
0.0
  0
LINE
  5
2B09
  8
0
 62
     0
 10
4529.8161868045518
 20
-276.12755112865761
 30
0.0
 11
4529.8161868045518
 21
-276.12755112865761
 31
0.0
  0
LINE
  5
2B0A
  8
0
 62
     0
 10
4714.5778874091702
 20
-445.4304571571422
 30
0.0
 11
4714.5778874091702
 21
-445.4304571571422
 31
0.0
  0
LINE
  5
2B0B
  8
0
 62
     0
 10
4490.1506252692852
 20
-112.88143064767431
 30
0.0
 11
4490.1506252692852
 21
-112.88143064767431
 31
0.0
  0
LINE
  5
2B0C
  8
0
 62
     0
 10
4722.8353527665586
 20
-326.09770017117683
 30
0.0
 11
4722.8353527665586
 21
-326.09770017117683
 31
0.0
  0
LINE
  5
2B0D
  8
0
 62
     0
 10
4530.4059270442322
 20
-22.869288672228262
 30
0.0
 11
4530.4059270442322
 21
-22.869288672228262
 31
0.0
  0
LINE
  5
2B0E
  8
0
 62
     0
 10
4715.1676276488479
 20
-192.17219470071279
 30
0.0
 11
4715.1676276488479
 21
-192.17219470071279
 31
0.0
  0
LINE
  5
2B0F
  8
0
 62
     0
 10
4723.4250930062381
 20
-72.83943771474722
 30
0.0
 11
4723.4250930062381
 21
-72.83943771474722
 31
0.0
  0
LINE
  5
2B10
  8
0
 62
     0
 10
4489.5608850296048
 20
-366.13969310410369
 30
0.0
 11
4489.5608850296048
 21
-366.13969310410369
 31
0.0
  0
LINE
  5
2B11
  8
0
 62
     0
 10
4597.9406535406933
 20
-465.45145362360569
 30
0.0
 11
4597.9406535406933
 21
-465.45145362360569
 31
0.0
  0
LINE
  5
2B12
  8
0
 62
     0
 10
4645.8636804333501
 20
-509.36481711862359
 30
0.0
 11
4645.8636804333501
 21
-509.36481711862359
 31
0.0
  0
LINE
  5
2B13
  8
0
 62
     0
 10
4722.2456125268791
 20
-579.355962627606
 30
0.0
 11
4722.2456125268791
 21
-579.355962627606
 31
0.0
  0
LINE
  5
2B14
  8
0
 62
     0
 10
4529.2264465648732
 20
-529.38581358508691
 30
0.0
 11
4529.2264465648732
 21
-529.38581358508691
 31
0.0
  0
LINE
  5
2B15
  8
0
 62
     0
 10
4605.6083786584022
 20
-599.37695909406955
 30
0.0
 11
4605.6083786584022
 21
-599.37695909406955
 31
0.0
  0
ENDBLK
  5
2B17
  8
0
  0
BLOCK
  8
0
  2
*D24
 70
     1
 10
0.0
 20
0.0
 30
0.0
  3
*D24
  1

  0
LINE
  5
5B44
  8
SUNPOU
 10
4974.778613731266
 20
2801.7132462170539
 30
0.0
 11
4974.778613731266
 21
2542.7767976291129
 31
0.0
  0
LINE
  5
5B45
  8
SUNPOU
 10
5274.778613731266
 20
2801.7132462170539
 30
0.0
 11
5274.778613731266
 21
2542.7767976291129
 31
0.0
  0
LINE
  5
5B46
  8
SUNPOU
 10
5024.778613731266
 20
2567.7767976291129
 30
0.0
 11
5224.778613731266
 21
2567.7767976291129
 31
0.0
  0
TEXT
  8
SUNPOU
  40
60
  5
5CC1
  72
0
  71
0
 10
5004.78
 20
2523.18
 30
0.000000
  1
300
  7
EXT08
  0
SOLID
  5
5B48
  8
SUNPOU
 10
5024.778613731266
 20
2576.110130962446
 30
0.0
 11
5024.778613731266
 21
2559.443464295779
 31
0.0
 12
4974.778613731266
 22
2567.7767976291129
 32
0.0
 13
4974.778613731266
 23
2567.7767976291129
 33
0.0
  0
SOLID
  5
5B49
  8
SUNPOU
 10
5224.778613731266
 20
2576.110130962446
 30
0.0
 11
5224.778613731266
 21
2559.443464295779
 31
0.0
 12
5274.778613731266
 22
2567.7767976291129
 32
0.0
 13
5274.778613731266
 23
2567.7767976291129
 33
0.0
  0
POINT
  5
5B4A
  8
DEFPOINTS
 62
     0
 10
4974.778613731266
 20
2826.7132462170539
 30
0.0
  0
POINT
  5
5B4B
  8
DEFPOINTS
 62
     0
 10
5274.778613731266
 20
2826.7132462170539
 30
0.0
  0
POINT
  5
5B4C
  8
DEFPOINTS
 62
     0
 10
5274.778613731266
 20
2567.7767976291129
 30
0.0
  0
ENDBLK
  5
356F
  8
0
  0
BLOCK
  8
0
  2
*D25
 70
     1
 10
0.0
 20
0.0
 30
0.0
  3
*D25
  1

  0
LINE
  5
5B4D
  8
SUNPOU
 10
1410.989141771855
 20
529.15785410716683
 30
0.0
 11
1410.989141771855
 21
332.41355193404343
 31
0.0
  0
LINE
  5
5B4E
  8
SUNPOU
 10
953.78914177185516
 20
529.15785410716785
 30
0.0
 11
953.78914177185516
 21
332.41355193404343
 31
0.0
  0
LINE
  5
5B4F
  8
SUNPOU
 10
1360.989141771855
 20
357.41355193404343
 30
0.0
 11
1003.789141771855
 21
357.41355193404343
 31
0.0
  0
SOLID
  5
5B50
  8
SUNPOU
 10
1360.989141771855
 20
365.74688526737668
 30
0.0
 11
1360.989141771855
 21
349.08021860071011
 31
0.0
 12
1410.989141771855
 22
357.41355193404343
 32
0.0
 13
1410.989141771855
 23
357.41355193404343
 33
0.0
  0
SOLID
  5
5B51
  8
SUNPOU
 10
1003.789141771855
 20
365.74688526737668
 30
0.0
 11
1003.789141771855
 21
349.08021860071011
 31
0.0
 12
953.78914177185516
 22
357.41355193404343
 32
0.0
 13
953.78914177185516
 23
357.41355193404343
 33
0.0
  0
TEXT
  8
SUNPOU
  40
60
  5
5CC2
  72
0
  71
0
 10
1062.39
 20
311.214
 30
0.000000
  1
%%C114.3
  7
EXT08
  0
POINT
  5
5B53
  8
DEFPOINTS
 62
     0
 10
1410.989141771855
 20
554.15785410716683
 30
0.0
  0
POINT
  5
5B54
  8
DEFPOINTS
 62
     0
 10
953.78914177185516
 20
554.15785410716785
 30
0.0
  0
POINT
  5
5B55
  8
DEFPOINTS
 62
     0
 10
953.78914177185516
 20
357.41355193404343
 30
0.0
  0
ENDBLK
  5
35DA
  8
0
  0
BLOCK
  8
0
  2
*D26
 70
     1
 10
0.0
 20
0.0
 30
0.0
  3
*D26
  1

  0
LINE
  5
5B62
  8
SUNPOU
 10
6421.3267469451239
 20
3416.7132462170539
 30
0.0
 11
6566.064153958705
 21
3416.7132462170539
 31
0.0
  0
LINE
  5
5B63
  8
SUNPOU
 10
6222.4436043411006
 20
3286.7132462170539
 30
0.0
 11
6566.064153958705
 21
3286.7132462170539
 31
0.0
  0
LINE
  5
5B64
  8
SUNPOU
 10
6541.0641539587041
 20
3366.7132462170548
 30
0.0
 11
6541.0641539587041
 21
3336.7132462170539
 31
0.0
  0
TEXT
  8
SUNPOU
  40
60
  5
5CC3
  72
0
  71
0
 10
6367.06
 20
3245.51
 30
0.000000
  1
130
  7
EXT08
  0
SOLID
  5
5B66
  8
SUNPOU
 10
6532.730820625372
 20
3366.7132462170548
 30
0.0
 11
6549.3974872920371
 21
3366.7132462170548
 31
0.0
 12
6541.0641539587041
 22
3416.7132462170539
 32
0.0
 13
6541.0641539587041
 23
3416.7132462170539
 33
0.0
  0
SOLID
  5
5B67
  8
SUNPOU
 10
6532.730820625372
 20
3336.7132462170539
 30
0.0
 11
6549.3974872920371
 21
3336.7132462170539
 31
0.0
 12
6541.0641539587041
 22
3286.7132462170539
 32
0.0
 13
6541.0641539587041
 23
3286.7132462170539
 33
0.0
  0
POINT
  5
5B68
  8
DEFPOINTS
 62
     0
 10
6396.3267469451239
 20
3416.7132462170539
 30
0.0
  0
POINT
  5
5B69
  8
DEFPOINTS
 62
     0
 10
6197.4436043411006
 20
3286.7132462170539
 30
0.0
  0
POINT
  5
5B6A
  8
DEFPOINTS
 62
     0
 10
6541.0641539587041
 20
3286.7132462170539
 30
0.0
  0
ENDBLK
  5
454D
  8
0
  0
BLOCK
  8
0
  2
*D27
 70
     1
 10
0.0
 20
0.0
 30
0.0
  3
*D27
  1

  0
LINE
  5
5B6B
  8
SUNPOU
 10
6441.8212534573167
 20
3476.7132462170539
 30
0.0
 11
6716.0641539587041
 21
3476.7132462170539
 31
0.0
  0
LINE
  5
5B6C
  8
SUNPOU
 10
6222.4436043411006
 20
3286.7132462170539
 30
0.0
 11
6716.0641539587041
 21
3286.7132462170539
 31
0.0
  0
LINE
  5
5B6D
  8
SUNPOU
 10
6691.064153958705
 20
3426.7132462170539
 30
0.0
 11
6691.064153958705
 21
3336.7132462170539
 31
0.0
  0
SOLID
  5
5B6E
  8
SUNPOU
 10
6682.730820625372
 20
3426.7132462170539
 30
0.0
 11
6699.397487292038
 21
3426.7132462170539
 31
0.0
 12
6691.064153958705
 22
3476.7132462170539
 32
0.0
 13
6691.064153958705
 23
3476.7132462170539
 33
0.0
  0
SOLID
  5
5B6F
  8
SUNPOU
 10
6682.730820625372
 20
3336.7132462170539
 30
0.0
 11
6699.397487292038
 21
3336.7132462170539
 31
0.0
 12
6691.064153958705
 22
3286.7132462170539
 32
0.0
 13
6691.064153958705
 23
3286.7132462170539
 33
0.0
  0
TEXT
  8
SUNPOU
  40
60
  5
5CC4
  72
0
  71
0
 10
6511.06
 20
3275.51
 30
0.000000
  1
190
  7
EXT08
  0
POINT
  5
5B71
  8
DEFPOINTS
 62
     0
 10
6416.8212534573167
 20
3476.7132462170539
 30
0.0
  0
POINT
  5
5B72
  8
DEFPOINTS
 62
     0
 10
6197.4436043411006
 20
3286.7132462170539
 30
0.0
  0
POINT
  5
5B73
  8
DEFPOINTS
 62
     0
 10
6691.064153958705
 20
3286.7132462170539
 30
0.0
  0
ENDBLK
  5
4559
  8
0
  0
BLOCK
  8
0
  2
*D28
 70
     1
 10
0.0
 20
0.0
 30
0.0
  3
*D28
  1

  0
LINE
  5
5B8F
  8
SUNPOU
 10
6421.8212534573177
 20
3476.7132462170539
 30
0.0
 11
6566.064153958705
 21
3476.7132462170539
 31
0.0
  0
LINE
  5
5B90
  8
SUNPOU
 10
6421.3267469451239
 20
3416.7132462170539
 30
0.0
 11
6566.064153958705
 21
3416.7132462170539
 31
0.0
  0
LINE
  5
5B91
  8
SUNPOU
 10
6541.0641539587041
 20
3526.7132462170539
 30
0.0
 11
6541.0641539587041
 21
3576.7132462170539
 31
0.0
  0
LINE
  5
5B92
  8
SUNPOU
 10
6541.0641539587041
 20
3366.7132462170548
 30
0.0
 11
6541.0641539587041
 21
3316.7132462170539
 31
0.0
  0
TEXT
  8
SUNPOU
  40
60
  5
5CC5
  72
0
  71
0
 10
6361.02
 20
3427.90
 30
0.000000
  1
60
  7
EXT08
  0
LINE
  5
5B94
  8
SUNPOU
 10
6541.0641539587041
 20
3476.7132462170539
 30
0.0
 11
6541.0641539587041
 21
3416.7132462170539
 31
0.0
  0
SOLID
  5
5B95
  8
SUNPOU
 10
6532.730820625372
 20
3526.7132462170539
 30
0.0
 11
6549.3974872920371
 21
3526.7132462170539
 31
0.0
 12
6541.0641539587041
 22
3476.7132462170539
 32
0.0
 13
6541.0641539587041
 23
3476.7132462170539
 33
0.0
  0
SOLID
  5
5B96
  8
SUNPOU
 10
6532.730820625372
 20
3366.7132462170548
 30
0.0
 11
6549.3974872920371
 21
3366.7132462170548
 31
0.0
 12
6541.0641539587041
 22
3416.7132462170539
 32
0.0
 13
6541.0641539587041
 23
3416.7132462170539
 33
0.0
  0
POINT
  5
5B97
  8
DEFPOINTS
 62
     0
 10
6396.8212534573177
 20
3476.7132462170539
 30
0.0
  0
POINT
  5
5B98
  8
DEFPOINTS
 62
     0
 10
6396.3267469451239
 20
3416.7132462170539
 30
0.0
  0
POINT
  5
5B99
  8
DEFPOINTS
 62
     0
 10
6541.0641539587041
 20
3416.7132462170539
 30
0.0
  0
ENDBLK
  5
4567
  8
0
  0
BLOCK
  8
0
  2
*D29
 70
     1
 10
0.0
 20
0.0
 30
0.0
  3
*D29
  1

  0
LINE
  5
5BB5
  8
SUNPOU
 10
4272.4089294976602
 20
1051.0376563746961
 30
0.0
 11
4272.4089294976602
 21
833.1073742951362
 31
0.0
  0
LINE
  5
5BB6
  8
SUNPOU
 10
4212.4089294976602
 20
1036.0376563746961
 30
0.0
 11
4212.4089294976602
 21
833.1073742951362
 31
0.0
  0
LINE
  5
5BB7
  8
SUNPOU
 10
4322.4089294976602
 20
858.1073742951362
 30
0.0
 11
4372.4089294976602
 21
858.1073742951362
 31
0.0
  0
LINE
  5
5BB8
  8
SUNPOU
 10
4162.4089294976611
 20
858.1073742951362
 30
0.0
 11
4112.4089294976602
 21
858.1073742951362
 31
0.0
  0
TEXT
  8
SUNPOU
  40
60
  5
5CC6
  72
0
  71
0
 10
4018.90
 20
814.079
 30
0.000000
  1
30
  7
EXT08
  0
LINE
  5
5BBA
  8
SUNPOU
 10
4272.4089294976602
 20
858.1073742951362
 30
0.0
 11
4212.4089294976602
 21
858.1073742951362
 31
0.0
  0
SOLID
  5
5BBB
  8
SUNPOU
 10
4322.4089294976602
 20
866.44070762846957
 30
0.0
 11
4322.4089294976602
 21
849.77404096180283
 31
0.0
 12
4272.4089294976602
 22
858.1073742951362
 32
0.0
 13
4272.4089294976602
 23
858.1073742951362
 33
0.0
  0
SOLID
  5
5BBC
  8
SUNPOU
 10
4162.4089294976611
 20
866.44070762846957
 30
0.0
 11
4162.4089294976611
 21
849.77404096180283
 31
0.0
 12
4212.4089294976602
 22
858.1073742951362
 32
0.0
 13
4212.4089294976602
 23
858.1073742951362
 33
0.0
  0
POINT
  5
5BBD
  8
DEFPOINTS
 62
     0
 10
4272.4089294976602
 20
1076.0376563746961
 30
0.0
  0
POINT
  5
5BBE
  8
DEFPOINTS
 62
     0
 10
4212.4089294976602
 20
1061.0376563746961
 30
0.0
  0
POINT
  5
5BBF
  8
DEFPOINTS
 62
     0
 10
4212.4089294976602
 20
858.1073742951362
 30
0.0
  0
ENDBLK
  5
47DA
  8
0
  0
BLOCK
  8
0
  2
*D30
 70
     1
 10
0.0
 20
0.0
 30
0.0
  3
*D30
  1

  0
LINE
  5
5BC0
  8
SUNPOU
 10
4212.4089294976602
 20
1036.0376563746961
 30
0.0
 11
4212.4089294976602
 21
687.82938406024914
 31
0.0
  0
LINE
  5
5BC1
  8
SUNPOU
 10
4612.4089294976602
 20
1036.0376563746961
 30
0.0
 11
4612.4089294976602
 21
687.82938406024914
 31
0.0
  0
LINE
  5
5BC2
  8
SUNPOU
 10
4262.4089294976602
 20
712.82938406024914
 30
0.0
 11
4562.4089294976602
 21
712.82938406024914
 31
0.0
  0
SOLID
  5
5BC3
  8
SUNPOU
 10
4262.4089294976602
 20
721.1627173935824
 30
0.0
 11
4262.4089294976602
 21
704.49605072691566
 31
0.0
 12
4212.4089294976602
 22
712.82938406024914
 32
0.0
 13
4212.4089294976602
 23
712.82938406024914
 33
0.0
  0
SOLID
  5
5BC4
  8
SUNPOU
 10
4562.4089294976602
 20
721.1627173935824
 30
0.0
 11
4562.4089294976602
 21
704.49605072691566
 31
0.0
 12
4612.4089294976602
 22
712.82938406024914
 32
0.0
 13
4612.4089294976602
 23
712.82938406024914
 33
0.0
  0
TEXT
  8
SUNPOU
  40
60
  5
5CC7
  72
0
  71
0
 10
4292.41
 20
666.629
 30
0.000000
  1
200
  7
EXT08
  0
POINT
  5
5BC6
  8
DEFPOINTS
 62
     0
 10
4212.4089294976602
 20
1061.0376563746961
 30
0.0
  0
POINT
  5
5BC7
  8
DEFPOINTS
 62
     0
 10
4612.4089294976602
 20
1061.0376563746961
 30
0.0
  0
POINT
  5
5BC8
  8
DEFPOINTS
 62
     0
 10
4612.4089294976602
 20
712.82938406024914
 30
0.0
  0
ENDBLK
  5
47F4
  8
0
  0
BLOCK
  8
0
  2
*D31
 70
     1
 10
0.0
 20
0.0
 30
0.0
  3
*D31
  1

  0
LINE
  5
5BC9
  8
SUNPOU
 10
4272.4089294976602
 20
1051.0376563746961
 30
0.0
 11
4272.4089294976602
 21
833.1073742951362
 31
0.0
  0
LINE
  5
5BCA
  8
SUNPOU
 10
4552.4089294976602
 20
1051.0376563746961
 30
0.0
 11
4552.4089294976602
 21
833.1073742951362
 31
0.0
  0
LINE
  5
5BCB
  8
SUNPOU
 10
4322.4089294976602
 20
858.1073742951362
 30
0.0
 11
4502.4089294976611
 21
858.1073742951362
 31
0.0
  0
SOLID
  5
5BCC
  8
SUNPOU
 10
4322.4089294976602
 20
866.44070762846957
 30
0.0
 11
4322.4089294976602
 21
849.77404096180283
 31
0.0
 12
4272.4089294976602
 22
858.1073742951362
 32
0.0
 13
4272.4089294976602
 23
858.1073742951362
 33
0.0
  0
SOLID
  5
5BCD
  8
SUNPOU
 10
4502.4089294976611
 20
866.44070762846957
 30
0.0
 11
4502.4089294976611
 21
849.77404096180283
 31
0.0
 12
4552.4089294976602
 22
858.1073742951362
 32
0.0
 13
4552.4089294976602
 23
858.1073742951362
 33
0.0
  0
TEXT
  8
SUNPOU
  40
60
  5
5CC8
  72
0
  71
0
 10
4292.41
 20
811.907
 30
0.000000
  1
140
  7
EXT08
  0
POINT
  5
5BCF
  8
DEFPOINTS
 62
     0
 10
4272.4089294976602
 20
1076.0376563746961
 30
0.0
  0
POINT
  5
5BD0
  8
DEFPOINTS
 62
     0
 10
4552.4089294976602
 20
1076.0376563746961
 30
0.0
  0
POINT
  5
5BD1
  8
DEFPOINTS
 62
     0
 10
4552.4089294976602
 20
858.1073742951362
 30
0.0
  0
ENDBLK
  5
4800
  8
0
  0
BLOCK
  8
0
  2
*D32
 70
     1
 10
0.0
 20
0.0
 30
0.0
  3
*D32
  1

  0
LINE
  5
5BD2
  8
SUNPOU
 10
4552.4089294976602
 20
1051.0376563746961
 30
0.0
 11
4552.4089294976602
 21
833.1073742951362
 31
0.0
  0
LINE
  5
5BD3
  8
SUNPOU
 10
4612.4089294976602
 20
1036.0376563746961
 30
0.0
 11
4612.4089294976602
 21
833.1073742951362
 31
0.0
  0
LINE
  5
5BD4
  8
SUNPOU
 10
4502.4089294976611
 20
858.1073742951362
 30
0.0
 11
4452.4089294976602
 21
858.1073742951362
 31
0.0
  0
LINE
  5
5BD5
  8
SUNPOU
 10
4662.4089294976611
 20
858.1073742951362
 30
0.0
 11
4712.4089294976602
 21
858.1073742951362
 31
0.0
  0
TEXT
  8
SUNPOU
  40
60
  5
5CC9
  72
0
  71
0
 10
4565.92
 20
814.079
 30
0.000000
  1
30
  7
EXT08
  0
LINE
  5
5BD7
  8
SUNPOU
 10
4552.4089294976602
 20
858.1073742951362
 30
0.0
 11
4612.4089294976602
 21
858.1073742951362
 31
0.0
  0
SOLID
  5
5BD8
  8
SUNPOU
 10
4502.4089294976611
 20
866.44070762846957
 30
0.0
 11
4502.4089294976611
 21
849.77404096180283
 31
0.0
 12
4552.4089294976602
 22
858.1073742951362
 32
0.0
 13
4552.4089294976602
 23
858.1073742951362
 33
0.0
  0
SOLID
  5
5BD9
  8
SUNPOU
 10
4662.4089294976611
 20
866.44070762846957
 30
0.0
 11
4662.4089294976611
 21
849.77404096180283
 31
0.0
 12
4612.4089294976602
 22
858.1073742951362
 32
0.0
 13
4612.4089294976602
 23
858.1073742951362
 33
0.0
  0
POINT
  5
5BDA
  8
DEFPOINTS
 62
     0
 10
4552.4089294976602
 20
1076.0376563746961
 30
0.0
  0
POINT
  5
5BDB
  8
DEFPOINTS
 62
     0
 10
4612.4089294976602
 20
1061.0376563746961
 30
0.0
  0
POINT
  5
5BDC
  8
DEFPOINTS
 62
     0
 10
4612.4089294976602
 20
858.1073742951362
 30
0.0
  0
ENDBLK
  5
4B4A
  8
0
  0
BLOCK
  8
0
  2
*D33
 70
     1
 10
0.0
 20
0.0
 30
0.0
  3
*D33
  1

  0
LINE
  5
5BFA
  8
SUNPOU
 10
4622.4089294976602
 20
1401.0376563746961
 30
0.0
 11
4952.263658917529
 21
1401.0376563746961
 31
0.0
  0
LINE
  5
5BFB
  8
SUNPOU
 10
4637.4089294976602
 20
1461.0376563746961
 30
0.0
 11
4952.263658917529
 21
1461.0376563746961
 31
0.0
  0
LINE
  5
5BFC
  8
SUNPOU
 10
4927.263658917529
 20
1351.037656374695
 30
0.0
 11
4927.263658917529
 21
1301.0376563746961
 31
0.0
  0
LINE
  5
5BFD
  8
SUNPOU
 10
4927.263658917529
 20
1511.0376563746961
 30
0.0
 11
4927.263658917529
 21
1561.0376563746961
 31
0.0
  0
TEXT
  8
SUNPOU
  40
60
  5
5CCA
  72
0
  71
0
 10
4745.09
 20
1428.35
 30
0.000000
  1
30
  7
EXT08
  0
LINE
  5
5BFF
  8
SUNPOU
 10
4927.263658917529
 20
1401.0376563746961
 30
0.0
 11
4927.263658917529
 21
1461.0376563746961
 31
0.0
  0
SOLID
  5
5C00
  8
SUNPOU
 10
4918.930325584196
 20
1351.037656374695
 30
0.0
 11
4935.5969922508621
 21
1351.037656374695
 31
0.0
 12
4927.263658917529
 22
1401.0376563746961
 32
0.0
 13
4927.263658917529
 23
1401.0376563746961
 33
0.0
  0
SOLID
  5
5C01
  8
SUNPOU
 10
4918.930325584196
 20
1511.0376563746961
 30
0.0
 11
4935.5969922508621
 21
1511.0376563746961
 31
0.0
 12
4927.263658917529
 22
1461.0376563746961
 32
0.0
 13
4927.263658917529
 23
1461.0376563746961
 33
0.0
  0
POINT
  5
5C02
  8
DEFPOINTS
 62
     0
 10
4597.4089294976593
 20
1401.0376563746961
 30
0.0
  0
POINT
  5
5C03
  8
DEFPOINTS
 62
     0
 10
4612.4089294976602
 20
1461.0376563746961
 30
0.0
  0
POINT
  5
5C04
  8
DEFPOINTS
 62
     0
 10
4927.263658917529
 20
1461.0376563746961
 30
0.0
  0
ENDBLK
  5
4B67
  8
0
  0
BLOCK
  8
0
  2
*D34
 70
     1
 10
0.0
 20
0.0
 30
0.0
  3
*D34
  1

  0
LINE
  5
5BE8
  8
SUNPOU
 10
4637.4089294976602
 20
1461.0376563746961
 30
0.0
 11
5097.5416491524147
 21
1461.0376563746961
 31
0.0
  0
LINE
  5
5BE9
  8
SUNPOU
 10
4637.4089294976602
 20
1061.0376563746961
 30
0.0
 11
5097.5416491524147
 21
1061.0376563746961
 31
0.0
  0
LINE
  5
5BEA
  8
SUNPOU
 10
5072.5416491524156
 20
1411.0376563746961
 30
0.0
 11
5072.5416491524156
 21
1111.0376563746961
 31
0.0
  0
SOLID
  5
5BEB
  8
SUNPOU
 10
5064.2083158190826
 20
1411.0376563746961
 30
0.0
 11
5080.8749824857487
 21
1411.0376563746961
 31
0.0
 12
5072.5416491524156
 22
1461.0376563746961
 32
0.0
 13
5072.5416491524156
 23
1461.0376563746961
 33
0.0
  0
SOLID
  5
5BEC
  8
SUNPOU
 10
5064.2083158190826
 20
1111.0376563746961
 30
0.0
 11
5080.8749824857487
 21
1111.0376563746961
 31
0.0
 12
5072.5416491524156
 22
1061.0376563746961
 32
0.0
 13
5072.5416491524156
 23
1061.0376563746961
 33
0.0
  0
TEXT
  8
SUNPOU
  40
60
  5
5CCB
  72
0
  71
0
 10
4892.54
 20
1154.84
 30
0.000000
  1
200
  7
EXT08
  0
POINT
  5
5BEE
  8
DEFPOINTS
 62
     0
 10
4612.4089294976602
 20
1461.0376563746961
 30
0.0
  0
POINT
  5
5BEF
  8
DEFPOINTS
 62
     0
 10
4612.4089294976602
 20
1061.0376563746961
 30
0.0
  0
POINT
  5
5BF0
  8
DEFPOINTS
 62
     0
 10
5072.5416491524156
 20
1061.0376563746961
 30
0.0
  0
ENDBLK
  5
4B73
  8
0
  0
BLOCK
  8
0
  2
*D35
 70
     1
 10
0.0
 20
0.0
 30
0.0
  3
*D35
  1

  0
LINE
  5
5BF1
  8
SUNPOU
 10
4622.4089294976602
 20
1401.0376563746961
 30
0.0
 11
4952.263658917529
 21
1401.0376563746961
 31
0.0
  0
LINE
  5
5BF2
  8
SUNPOU
 10
4622.4089294976602
 20
1121.037656374695
 30
0.0
 11
4952.263658917529
 21
1121.037656374695
 31
0.0
  0
LINE
  5
5BF3
  8
SUNPOU
 10
4927.263658917529
 20
1351.037656374695
 30
0.0
 11
4927.263658917529
 21
1171.0376563746961
 31
0.0
  0
SOLID
  5
5BF4
  8
SUNPOU
 10
4918.930325584196
 20
1351.037656374695
 30
0.0
 11
4935.5969922508621
 21
1351.037656374695
 31
0.0
 12
4927.263658917529
 22
1401.0376563746961
 32
0.0
 13
4927.263658917529
 23
1401.0376563746961
 33
0.0
  0
SOLID
  5
5BF5
  8
SUNPOU
 10
4918.930325584196
 20
1171.0376563746961
 30
0.0
 11
4935.5969922508621
 21
1171.0376563746961
 31
0.0
 12
4927.263658917529
 22
1121.037656374695
 32
0.0
 13
4927.263658917529
 23
1121.037656374695
 33
0.0
  0
TEXT
  8
SUNPOU
  40
60
  5
5CCC
  72
0
  71
0
 10
4747.26
 20
1154.84
 30
0.000000
  1
140
  7
EXT08
  0
POINT
  5
5BF7
  8
DEFPOINTS
 62
     0
 10
4597.4089294976593
 20
1401.0376563746961
 30
0.0
  0
POINT
  5
5BF8
  8
DEFPOINTS
 62
     0
 10
4597.4089294976593
 20
1121.0376563746961
 30
0.0
  0
POINT
  5
5BF9
  8
DEFPOINTS
 62
     0
 10
4927.263658917529
 20
1121.037656374695
 30
0.0
  0
ENDBLK
  5
4B7F
  8
0
  0
BLOCK
  8
0
  2
*D36
 70
     1
 10
0.0
 20
0.0
 30
0.0
  3
*D36
  1

  0
LINE
  5
5BDD
  8
SUNPOU
 10
4622.4089294976602
 20
1121.037656374695
 30
0.0
 11
4952.263658917529
 21
1121.037656374695
 31
0.0
  0
LINE
  5
5BDE
  8
SUNPOU
 10
4637.4089294976602
 20
1061.0376563746961
 30
0.0
 11
4952.263658917529
 21
1061.0376563746961
 31
0.0
  0
LINE
  5
5BDF
  8
SUNPOU
 10
4927.263658917529
 20
1171.0376563746961
 30
0.0
 11
4927.263658917529
 21
1221.0376563746961
 31
0.0
  0
LINE
  5
5BE0
  8
SUNPOU
 10
4927.263658917529
 20
1011.037656374696
 30
0.0
 11
4927.263658917529
 21
961.03765637469576
 31
0.0
  0
TEXT
  8
SUNPOU
  40
60
  5
5CCD
  72
0
  71
0
 10
4745.09
 20
881.326
 30
0.000000
  1
30
  7
EXT08
  0
LINE
  5
5BE2
  8
SUNPOU
 10
4927.263658917529
 20
1121.037656374695
 30
0.0
 11
4927.263658917529
 21
1061.0376563746961
 31
0.0
  0
SOLID
  5
5BE3
  8
SUNPOU
 10
4918.930325584196
 20
1171.0376563746961
 30
0.0
 11
4935.5969922508621
 21
1171.0376563746961
 31
0.0
 12
4927.263658917529
 22
1121.037656374695
 32
0.0
 13
4927.263658917529
 23
1121.037656374695
 33
0.0
  0
SOLID
  5
5BE4
  8
SUNPOU
 10
4918.930325584196
 20
1011.037656374696
 30
0.0
 11
4935.5969922508621
 21
1011.037656374696
 31
0.0
 12
4927.263658917529
 22
1061.0376563746961
 32
0.0
 13
4927.263658917529
 23
1061.0376563746961
 33
0.0
  0
POINT
  5
5BE5
  8
DEFPOINTS
 62
     0
 10
4597.4089294976593
 20
1121.0376563746961
 30
0.0
  0
POINT
  5
5BE6
  8
DEFPOINTS
 62
     0
 10
4612.4089294976602
 20
1061.0376563746961
 30
0.0
  0
POINT
  5
5BE7
  8
DEFPOINTS
 62
     0
 10
4927.263658917529
 20
1061.0376563746961
 30
0.0
  0
ENDBLK
  5
4B8D
  8
0
  0
BLOCK
  8
0
  2
_NONE
 70
     0
 10
0.0
 20
0.0
 30
0.0
  3
_NONE
  1

  0
ENDBLK
  5
4E36
  8
0
  0
BLOCK
  8
0
  2
*D38
 70
     1
 10
0.0
 20
0.0
 30
0.0
  3
*D38
  1

  0
LINE
  5
5C85
  8
SUNPOU
 10
2435.1051872024741
 20
1037.421587798274
 30
0.0
 11
2967.5460220111781
 21
1037.421587798274
 31
0.0
  0
LINE
  5
5C86
  8
SUNPOU
 10
2942.5460220111768
 20
987.421587798274
 30
0.0
 11
2942.5460220111768
 21
656.08424922401798
 31
0.0
  0
SOLID
  5
5C87
  8
SUNPOU
 10
2934.2126886778442
 20
987.421587798274
 30
0.0
 11
2950.8793553445112
 21
987.421587798274
 31
0.0
 12
2942.5460220111781
 22
1037.421587798274
 32
0.0
 13
2942.5460220111781
 23
1037.421587798274
 33
0.0
  0
TEXT
  8
SUNPOU
  40
60
  5
5CCE
  72
0
  71
0
 10
2762.55
 20
715.553
 30
0.000000
  1
300
  7
EXT08
  0
POINT
  5
5C89
  8
DEFPOINTS
 62
     0
 10
2410.1051872024741
 20
1037.421587798274
 30
0.0
  0
POINT
  5
5C8A
  8
DEFPOINTS
 62
     0
 10
2546.1047518072642
 20
656.08424922401809
 30
0.0
  0
POINT
  5
5C8B
  8
DEFPOINTS
 62
     0
 10
2942.5460220111768
 20
656.08424922401798
 30
0.0
  0
ENDBLK
  5
501C
  8
0
  0
BLOCK
  8
0
  2
*D39
 70
     1
 10
0.0
 20
0.0
 30
0.0
  3
*D39
  1

  0
LINE
  5
5C8C
  8
SUNPOU
 10
2887.1499756728431
 20
4567.7757462170539
 30
0.0
 11
2887.1499756728431
 21
4911.7132462170539
 31
0.0
  0
LINE
  5
5C8D
  8
SUNPOU
 10
2937.1499756728431
 20
4886.7132462170539
 30
0.0
 11
4264.7941593933874
 21
4886.7132462170539
 31
0.0
  0
SOLID
  5
5C8E
  8
SUNPOU
 10
2937.1499756728431
 20
4895.0465795503869
 30
0.0
 11
2937.1499756728431
 21
4878.3799128837209
 31
0.0
 12
2887.1499756728431
 22
4886.7132462170539
 32
0.0
 13
2887.1499756728431
 23
4886.7132462170539
 33
0.0
  0
TEXT
  8
SUNPOU
  40
60
  5
5CCF
  72
0
  71
0
 10
3480.97
 20
4840.51
 30
0.000000
  1
2000
  7
EXT08
  0
POINT
  5
5C90
  8
DEFPOINTS
 62
     0
 10
2887.1499756728431
 20
4542.7757462170539
 30
0.0
  0
POINT
  5
5C91
  8
DEFPOINTS
 62
     0
 10
4264.7941593933874
 20
4588.7132462170539
 30
0.0
  0
POINT
  5
5C92
  8
DEFPOINTS
 62
     0
 10
4264.7941593933874
 20
4886.7132462170539
 30
0.0
  0
ENDBLK
  5
505A
  8
0
  0
BLOCK
  8
0
  2
*D40
 70
     1
 10
0.0
 20
0.0
 30
0.0
  3
*D40
  1

  0
LINE
  5
5CA3
  8
SUNPOU
 10
1147.050122682143
 20
4299.0136783341677
 30
0.0
 11
1147.050122682143
 21
4741.7132634672671
 31
0.0
  0
LINE
  5
5CA4
  8
SUNPOU
 10
1019.050122682143
 20
4299.0136783341677
 30
0.0
 11
1019.050122682143
 21
4741.8636303757266
 31
0.0
  0
LINE
  5
5CA5
  8
SUNPOU
 10
1097.050157182545
 20
4716.7719832501434
 30
0.0
 11
1019.050122682143
 21
4716.8636131255134
 31
0.0
  0
TEXT
  8
SUNPOU
  40
60
  5
5CD0
  72
0
  71
0
 10
1006.38
 20
4676.11
 30
0.000000
  1
128
  7
EXT08
  0
SOLID
  5
5CA7
  8
SUNPOU
 10
1097.0599466880601
 20
4725.1053108334081
 30
0.0
 11
1097.04036767703
 21
4708.4386556668769
 31
0.0
 12
1147.050122682143
 22
4716.7132462170539
 32
0.0
 13
1147.050122682143
 23
4716.7132462170539
 33
0.0
  0
POINT
  5
5CA8
  8
DEFPOINTS
 62
     0
 10
1147.050122682143
 20
4274.0136610839554
 30
0.0
  0
POINT
  5
5CA9
  8
DEFPOINTS
 62
     0
 10
1019.050122682143
 20
4274.0136610839554
 30
0.0
  0
POINT
  5
5CAA
  8
DEFPOINTS
 62
     0
 10
1019.050122682143
 20
4716.8636131255134
 30
0.0
  0
ENDBLK
  5
518D
  8
0
  0
BLOCK
  8
0
  2
*U41
 70
     1
 10
0.0
 20
0.0
 30
0.0
  3
*U41
  1

  0
SOLID
  5
5AD6
  8
MOJI
 10
2717.493356748274
 20
3663.8426956885478
 30
0.0
 11
2737.4288120397109
 21
3710.44765322278
 31
0.0
 12
2733.6860702886429
 22
3659.8963295147969
 32
0.0
 13
2733.6860702886429
 23
3659.8963295147969
 33
0.0
  0
POLYLINE
  5
5AD7
  8
MOJI
 66
     1
 10
0.0
 20
0.0
 30
0.0
  0
VERTEX
  5
5AD8
  8
MOJI
 10
2725.5897135184591
 20
3661.8695126016719
 30
0.0
  0
VERTEX
  5
5AD9
  8
MOJI
 10
2632.6936210105641
 20
3280.698645841896
 30
0.0
  0
VERTEX
  5
5ADA
  8
MOJI
 10
2218.0650495819918
 20
3280.698645841896
 30
0.0
  0
SEQEND
  5
5ADB
  8
MOJI
  0
ENDBLK
  5
5ADD
  8
0
  0
BLOCK
  8
0
  2
*U42
 70
     1
 10
0.0
 20
0.0
 30
0.0
  3
*U42
  1

  0
TEXT
  5
5ADF
  8
MOJI
 10
2233.6650495819922
 20
3304.698645841896
 30
0.0
 40
60.0
  1
\U+220534×t2.3
 41
0.8
  7
EXT08
  0
ENDBLK
  5
5AE1
  8
0
  0
BLOCK
  8
0
  2
*U43
 70
     1
 10
0.0
 20
0.0
 30
0.0
  3
*U43
  1

  0
TEXT
  5
5AE3
  8
MOJI
 10
2021.749368606298
 20
4593.1329256728841
 30
0.0
 40
60.0
  1
\U+220521.7×t1.9
 41
0.8
  7
EXT08
  0
ENDBLK
  5
5AE5
  8
0
  0
BLOCK
  8
0
  2
*U44
 70
     1
 10
0.0
 20
0.0
 30
0.0
  3
*U44
  1

  0
SOLID
  5
5B5B
  8
MOJI
 10
6002.2093184072801
 20
3317.8670040399761
 30
0.0
 11
6039.9436043410969
 21
3351.7132462170539
 31
0.0
 12
6015.2261691638359
 22
3307.4583838547969
 32
0.0
 13
6015.2261691638359
 23
3307.4583838547969
 33
0.0
  0
POLYLINE
  5
5B5C
  8
MOJI
 66
     1
 10
0.0
 20
0.0
 30
0.0
  0
VERTEX
  5
5B5D
  8
MOJI
 10
6008.717743785558
 20
3312.6626939473872
 30
0.0
  0
VERTEX
  5
5B5E
  8
MOJI
 10
5788.9055095585318
 20
3037.7690964778299
 30
0.0
  0
SEQEND
  5
5B5F
  8
MOJI
  0
ENDBLK
  5
5B61
  8
0
  0
BLOCK
  8
0
  2
*U45
 70
     1
 10
0.0
 20
0.0
 30
0.0
  3
*U45
  1

  0
SOLID
  5
5C06
  8
MOJI
 10
3397.3389575413489
 20
3516.8662121474381
 30
0.0
 11
3388.1338019251448
 21
3566.713073177255
 31
0.0
 12
3413.0079310852789
 22
3522.5460929434939
 32
0.0
 13
3413.0079310852789
 23
3522.5460929434939
 33
0.0
  0
POLYLINE
  5
5C07
  8
MOJI
 66
     1
 10
0.0
 20
0.0
 30
0.0
  0
VERTEX
  5
5C08
  8
MOJI
 10
3405.1734443133141
 20
3519.706152545466
 30
0.0
  0
VERTEX
  5
5C09
  8
MOJI
 10
3491.731324755498
 20
3280.920659087762
 30
0.0
  0
SEQEND
  5
5C0A
  8
MOJI
  0
ENDBLK
  5
5C0C
  8
0
  0
BLOCK
  8
0
  2
*U46
 70
     1
 10
0.0
 20
0.0
 30
0.0
  3
*U46
  1

  0
SOLID
  5
5C0E
  8
MOJI
 10
1547.517649134031
 20
3516.1524406761409
 30
0.0
 11
1551.132463863958
 21
3566.713073177255
 31
0.0
 12
1564.1110874981721
 22
3517.713075493521
 32
0.0
 13
1564.1110874981721
 23
3517.713075493521
 33
0.0
  0
POLYLINE
  5
5C0F
  8
MOJI
 66
     1
 10
0.0
 20
0.0
 30
0.0
  0
VERTEX
  5
5C10
  8
MOJI
 10
1555.8143683161011
 20
3516.9327580848312
 30
0.0
  0
VERTEX
  5
5C11
  8
MOJI
 10
1578.4625293175679
 20
3276.1263506834798
 30
0.0
  0
SEQEND
  5
5C12
  8
MOJI
  0
ENDBLK
  5
5C14
  8
0
  0
BLOCK
  8
0
  2
*U47
 70
     1
 10
0.0
 20
0.0
 30
0.0
  3
*U47
  1

  0
SOLID
  5
5C16
  8
MOJI
 10
948.57575608675256
 20
3493.131164764347
 30
0.0
 11
944.29997567284306
 21
3543.6401951083999
 31
0.0
 12
964.72593995974762
 22
3497.248122214482
 32
0.0
 13
964.72593995974762
 23
3497.248122214482
 33
0.0
  0
POLYLINE
  5
5C17
  8
MOJI
 66
     1
 10
0.0
 20
0.0
 30
0.0
  0
VERTEX
  5
5C18
  8
MOJI
 10
956.65084802325009
 20
3495.1896434894138
 30
0.0
  0
VERTEX
  5
5C19
  8
MOJI
 10
1013.159398676784
 20
3273.515386588615
 30
0.0
  0
SEQEND
  5
5C1A
  8
MOJI
  0
ENDBLK
  5
5C1C
  8
0
  0
BLOCK
  8
0
  2
*U48
 70
     1
 10
0.0
 20
0.0
 30
0.0
  3
*U48
  1

  0
SOLID
  5
5C1E
  8
MOJI
 10
3092.0538961375719
 20
4553.8320296615648
 30
0.0
 11
3057.533751873043
 21
4516.7132462170539
 31
0.0
 12
3078.149418033162
 22
4563.0213313990062
 32
0.0
 13
3078.149418033162
 23
4563.0213313990062
 33
0.0
  0
POLYLINE
  5
5C1F
  8
MOJI
 66
     1
 10
0.0
 20
0.0
 30
0.0
  0
VERTEX
  5
5C20
  8
MOJI
 10
3085.1016570853672
 20
4558.426680530285
 30
0.0
  0
VERTEX
  5
5C21
  8
MOJI
 10
3129.7397067004572
 20
4625.9692208919432
 30
0.0
  0
SEQEND
  5
5C22
  8
MOJI
  0
ENDBLK
  5
5C24
  8
0
  0
BLOCK
  8
0
  2
*U49
 70
     1
 10
0.0
 20
0.0
 30
0.0
  3
*U49
  1

  0
SOLID
  5
5C26
  8
MOJI
 10
4303.0790124889372
 20
1466.7094954973561
 30
0.0
 11
4279.3646658097359
 21
1421.9091137353321
 31
0.0
 12
4287.2673023672432
 22
1471.978992703474
 32
0.0
 13
4287.2673023672432
 23
1471.978992703474
 33
0.0
  0
POLYLINE
  5
5C27
  8
MOJI
 66
     1
 10
0.0
 20
0.0
 30
0.0
  0
VERTEX
  5
5C28
  8
MOJI
 10
4295.1731574280911
 20
1469.3442441004161
 30
0.0
  0
VERTEX
  5
5C29
  8
MOJI
 10
4329.9634209935311
 20
1573.7362839928439
 30
0.0
  0
SEQEND
  5
5C2A
  8
MOJI
  0
ENDBLK
  5
5C2C
  8
0
  0
BLOCK
  8
0
  2
*U50
 70
     1
 10
0.0
 20
0.0
 30
0.0
  3
*U50
  1

  0
SOLID
  5
5C2E
  8
MOJI
 10
2667.3351138164971
 20
1767.560739326635
 30
0.0
 11
2683.1064844444791
 21
1719.387008798896
 31
0.0
 12
2652.5637077333372
 22
1759.841714770115
 32
0.0
 13
2652.5637077333372
 23
1759.841714770115
 33
0.0
  0
POLYLINE
  5
5C2F
  8
MOJI
 66
     1
 10
0.0
 20
0.0
 30
0.0
  0
VERTEX
  5
5C30
  8
MOJI
 10
2659.9494107749169
 20
1763.7012270483749
 30
0.0
  0
VERTEX
  5
5C31
  8
MOJI
 10
2595.1064844444791
 20
1887.7870087988961
 30
0.0
  0
SEQEND
  5
5C32
  8
MOJI
  0
ENDBLK
  5
5C34
  8
0
  0
BLOCK
  8
0
  2
*U51
 70
     1
 10
0.0
 20
0.0
 30
0.0
  3
*U51
  1

  0
SOLID
  5
5C36
  8
MOJI
 10
1570.9149319881769
 20
852.45772090894059
 30
0.0
 11
1547.5130305249479
 21
897.42210072618866
 31
0.0
 12
1584.233006444407
 22
862.47803380605535
 32
0.0
 13
1584.233006444407
 23
862.47803380605535
 33
0.0
  0
POLYLINE
  5
5C37
  8
MOJI
 66
     1
 10
0.0
 20
0.0
 30
0.0
  0
VERTEX
  5
5C38
  8
MOJI
 10
1577.573969216292
 20
857.46787735749797
 30
0.0
  0
VERTEX
  5
5C39
  8
MOJI
 10
1682.3461468467619
 20
718.21437530111507
 30
0.0
  0
SEQEND
  5
5C3A
  8
MOJI
  0
ENDBLK
  5
5C3C
  8
0
  0
BLOCK
  8
0
  2
*U52
 70
     1
 10
0.0
 20
0.0
 30
0.0
  3
*U52
  1

  0
SOLID
  5
5C3E
  8
MOJI
 10
1426.865208596018
 20
1626.1834015406951
 30
0.0
 11
1410.989141771855
 21
1674.322730022084
 31
0.0
 12
1441.619798004893
 22
1633.934522050228
 32
0.0
 13
1441.619798004893
 23
1633.934522050228
 33
0.0
  0
POLYLINE
  5
5C3F
  8
MOJI
 66
     1
 10
0.0
 20
0.0
 30
0.0
  0
VERTEX
  5
5C40
  8
MOJI
 10
1434.2425033004561
 20
1630.0589617954611
 30
0.0
  0
VERTEX
  5
5C41
  8
MOJI
 10
1524.0210561980959
 20
1459.1616464849419
 30
0.0
  0
SEQEND
  5
5C42
  8
MOJI
  0
ENDBLK
  5
5C44
  8
0
  0
BLOCK
  8
0
  2
*U53
 70
     1
 10
0.0
 20
0.0
 30
0.0
  3
*U53
  1

  0
SOLID
  5
5C46
  8
MOJI
 10
1238.9056911739351
 20
2119.6843317952848
 30
0.0
 11
1210.3891417718551
 21
2161.5919785276319
 31
0.0
 12
1250.9559252816109
 22
2131.1982206139241
 32
0.0
 13
1250.9559252816109
 23
2131.1982206139241
 33
0.0
  0
POLYLINE
  5
5C47
  8
MOJI
 66
     1
 10
0.0
 20
0.0
 30
0.0
  0
VERTEX
  5
5C48
  8
MOJI
 10
1244.930808227773
 20
2125.441276204604
 30
0.0
  0
VERTEX
  5
5C49
  8
MOJI
 10
1518.3891417718551
 20
1839.2445802137061
 30
0.0
  0
SEQEND
  5
5C4A
  8
MOJI
  0
ENDBLK
  5
5C4C
  8
0
  0
BLOCK
  8
0
  2
*U54
 70
     1
 10
0.0
 20
0.0
 30
0.0
  3
*U54
  1

  0
SOLID
  5
5C4E
  8
MOJI
 10
1433.7086645331119
 20
2131.324251554925
 30
0.0
 11
1403.7604711460231
 21
2172.2210748703601
 31
0.0
 12
1445.353677857735
 22
2143.2478182380578
 32
0.0
 13
1445.353677857735
 23
2143.2478182380578
 33
0.0
  0
POLYLINE
  5
5C4F
  8
MOJI
 66
     1
 10
0.0
 20
0.0
 30
0.0
  0
VERTEX
  5
5C50
  8
MOJI
 10
1439.5311711954239
 20
2137.2860348964909
 30
0.0
  0
VERTEX
  5
5C51
  8
MOJI
 10
1526.6309189582721
 20
2052.2210748703601
 30
0.0
  0
SEQEND
  5
5C52
  8
MOJI
  0
ENDBLK
  5
5C54
  8
0
  0
BLOCK
  8
0
  2
*U55
 70
     1
 10
0.0
 20
0.0
 30
0.0
  3
*U55
  1

  0
SOLID
  5
5C56
  8
MOJI
 10
1983.363090776714
 20
2553.5361239223021
 30
0.0
 11
1947.7941763088761
 21
2517.4210748703608
 31
0.0
 12
1969.727457869714
 22
2563.1198232604138
 32
0.0
 13
1969.727457869714
 23
2563.1198232604138
 33
0.0
  0
POLYLINE
  5
5C57
  8
MOJI
 66
     1
 10
0.0
 20
0.0
 30
0.0
  0
VERTEX
  5
5C58
  8
MOJI
 10
1976.545274323214
 20
2558.3279735913579
 30
0.0
  0
VERTEX
  5
5C59
  8
MOJI
 10
2024.001426171711
 20
2625.8483165148418
 30
0.0
  0
SEQEND
  5
5C5A
  8
MOJI
  0
ENDBLK
  5
5C5C
  8
0
  0
BLOCK
  8
0
  2
*U56
 70
     1
 10
0.0
 20
0.0
 30
0.0
  3
*U56
  1

  0
SOLID
  5
5C5E
  8
MOJI
 10
1346.168735943412
 20
2531.3116033390402
 30
0.0
 11
1314.3891417718551
 21
2491.82107487036
 31
0.0
 12
1331.643181079432
 22
2539.4838755855621
 32
0.0
 13
1331.643181079432
 23
2539.4838755855621
 33
0.0
  0
POLYLINE
  5
5C5F
  8
MOJI
 66
     1
 10
0.0
 20
0.0
 30
0.0
  0
VERTEX
  5
5C60
  8
MOJI
 10
1338.9059585114221
 20
2535.3977394623012
 30
0.0
  0
VERTEX
  5
5C61
  8
MOJI
 10
1438.3891417718551
 20
2712.2210748703601
 30
0.0
  0
SEQEND
  5
5C62
  8
MOJI
  0
ENDBLK
  5
5C64
  8
0
  0
BLOCK
  8
0
  2
*U57
 70
     1
 10
0.0
 20
0.0
 30
0.0
  3
*U57
  1

  0
SOLID
  5
5C66
  8
MOJI
 10
1159.4877358657261
 20
2589.8709721505938
 30
0.0
 11
1174.389141771856
 21
2541.4210748703599
 31
0.0
 12
1144.5797370670621
 22
2582.419170382107
 32
0.0
 13
1144.5797370670621
 23
2582.419170382107
 33
0.0
  0
POLYLINE
  5
5C67
  8
MOJI
 66
     1
 10
0.0
 20
0.0
 30
0.0
  0
VERTEX
  5
5C68
  8
MOJI
 10
1152.033736466394
 20
2586.1450712663509
 30
0.0
  0
VERTEX
  5
5C69
  8
MOJI
 10
1071.090730619916
 20
2748.0788251971721
 30
0.0
  0
SEQEND
  5
5C6A
  8
MOJI
  0
ENDBLK
  5
5C6C
  8
0
  0
BLOCK
  8
0
  2
*U58
 70
     1
 10
0.0
 20
0.0
 30
0.0
  3
*U58
  1

  0
SOLID
  5
5C6E
  8
MOJI
 10
1158.485259944194
 20
2444.6497710166
 30
0.0
 11
1177.3926986219219
 21
2397.6183644132202
 31
0.0
 12
1144.25385448784
 22
2435.9753905479652
 32
0.0
 13
1144.25385448784
 23
2435.9753905479652
 33
0.0
  0
POLYLINE
  5
5C6F
  8
MOJI
 66
     1
 10
0.0
 20
0.0
 30
0.0
  0
VERTEX
  5
5C70
  8
MOJI
 10
1151.369557216017
 20
2440.3125807822821
 30
0.0
  0
VERTEX
  5
5C71
  8
MOJI
 10
1054.3891417718551
 20
2599.4210748703599
 30
0.0
  0
SEQEND
  5
5C72
  8
MOJI
  0
ENDBLK
  5
5C74
  8
0
  0
BLOCK
  8
0
  2
*U59
 70
     1
 10
0.0
 20
0.0
 30
0.0
  3
*U59
  1

  0
SOLID
  5
5C76
  8
MOJI
 10
883.13073879687386
 20
2156.3167306469791
 30
0.0
 11
914.38914177185575
 21
2196.2210748703601
 31
0.0
 12
897.76233167878024
 22
2148.335861802303
 32
0.0
 13
897.76233167878024
 23
2148.335861802303
 33
0.0
  0
POLYLINE
  5
5C77
  8
MOJI
 66
     1
 10
0.0
 20
0.0
 30
0.0
  0
VERTEX
  5
5C78
  8
MOJI
 10
890.44653523782699
 20
2152.3262962246408
 30
0.0
  0
VERTEX
  5
5C79
  8
MOJI
 10
818.38914177185575
 20
2020.2210748703601
 30
0.0
  0
SEQEND
  5
5C7A
  8
MOJI
  0
ENDBLK
  5
5C7C
  8
0
  0
BLOCK
  8
0
  2
*U60
 70
     1
 10
0.0
 20
0.0
 30
0.0
  3
*U60
  1

  0
SOLID
  5
5C7E
  8
MOJI
 10
781.20407408268113
 20
1228.5641149144201
 30
0.0
 11
815.34437766427834
 21
1191.0956733161779
 31
0.0
 12
770.89756889306761
 22
1215.466262855618
 32
0.0
 13
770.89756889306761
 23
1215.466262855618
 33
0.0
  0
POLYLINE
  5
5C7F
  8
MOJI
 66
     1
 10
0.0
 20
0.0
 30
0.0
  0
VERTEX
  5
5C80
  8
MOJI
 10
776.05082148787426
 20
1222.0151888850189
 30
0.0
  0
VERTEX
  5
5C81
  8
MOJI
 10
480.83921263516061
 20
1454.312817917265
 30
0.0
  0
SEQEND
  5
5C82
  8
MOJI
  0
ENDBLK
  5
5C84
  8
0
  0
BLOCK
  8
0
  2
*U61
 70
     1
 10
0.0
 20
0.0
 30
0.0
  3
*U61
  1

  0
SOLID
  5
5C94
  8
MOJI
 10
1480.995093674599
 20
4223.4530285828414
 30
0.0
 11
1484.609908404527
 21
4274.0136610839554
 31
0.0
 12
1497.5885320387411
 22
4225.013663400221
 32
0.0
 13
1497.5885320387411
 23
4225.013663400221
 33
0.0
  0
POLYLINE
  5
5C95
  8
MOJI
 66
     1
 10
0.0
 20
0.0
 30
0.0
  0
VERTEX
  5
5C96
  8
MOJI
 10
1489.29181285667
 20
4224.2333459915308
 30
0.0
  0
VERTEX
  5
5C97
  8
MOJI
 10
1578.4625293175679
 20
3276.1263506834798
 30
0.0
  0
SEQEND
  5
5C98
  8
MOJI
  0
ENDBLK
  5
5C9A
  8
0
  0
BLOCK
  8
0
  2
*U62
 70
     1
 10
0.0
 20
0.0
 30
0.0
  3
*U62
  1

  0
SOLID
  5
5C9C
  8
MOJI
 10
1919.5484679717331
 20
4217.6256471953257
 30
0.0
 11
1897.9001226821431
 21
4171.7912322795983
 31
0.0
 12
1903.513071496925
 22
4222.1691962127206
 32
0.0
 13
1903.513071496925
 23
4222.1691962127206
 33
0.0
  0
POLYLINE
  5
5C9D
  8
MOJI
 66
     1
 10
0.0
 20
0.0
 30
0.0
  0
VERTEX
  5
5C9E
  8
MOJI
 10
1911.5307697343289
 20
4219.8974217040241
 30
0.0
  0
VERTEX
  5
5C9F
  8
MOJI
 10
2011.8822756711861
 20
4574.0646549352969
 30
0.0
  0
SEQEND
  5
5CA0
  8
MOJI
  0
ENDBLK
  5
5CA2
  8
0
  0
ENDSEC
  0
SECTION
  2
ENTITIES
  0
DIMENSION
  5
1F4
  8
SUNPOU
  2
*D2
 10
887.14997567284252
 20
4886.7132462170539
 30
0.0
 11
812.14997567284252
 21
4946.7132462170539
 31
0.0
 70
   128
 13
737.14997567284263
 23
4508.5632462170543
 33
0.0
 14
887.14997567284252
 24
4542.713246217053
 34
0.0
1001
ACAD
1000
DSTYLE
1002
{
1070
   287
1070
     5
1070
   287
1070
     5
1070
   287
1070
     5
1070
    40
1040
25.0
1070
    41
1040
2.0
1070
    42
1040
1.0
1070
    43
1040
6.0
1070
    44
1040
1.0
1070
    45
1040
0.1
1070
    73
1070
     0
1070
    74
1070
     0
1070
    77
1070
     1
1070
    78
1070
     8
1070
   140
1040
2.399999999999999
1070
   147
1040
0.5
1070
   172
1070
     1
1070
   176
1070
   256
1070
   177
1070
   256
1070
   178
1070
   256
1070
   271
1070
     2
1070
   272
1070
     2
1070
   279
1070
     2
1070
   340
1005
5F2
1002
}
  0
DIMENSION
  5
1F5
  8
SUNPOU
  2
*D1
 10
2887.1499756728431
 20
4886.7132462170539
 30
0.0
 11
1887.1499756728419
 21
4946.7132462170539
 31
0.0
 70
     0
 13
887.14997567284252
 23
4542.7757462170539
 33
0.0
 14
2887.1499756728431
 24
4542.713246217053
 34
0.0
1001
ACAD
1000
DSTYLE
1002
{
1070
   287
1070
     5
1070
   287
1070
     5
1070
   287
1070
     5
1070
    40
1040
25.0
1070
    41
1040
2.0
1070
    42
1040
1.0
1070
    43
1040
6.0
1070
    44
1040
1.0
1070
    45
1040
0.1
1070
    73
1070
     0
1070
    74
1070
     0
1070
    77
1070
     1
1070
    78
1070
     8
1070
   140
1040
2.399999999999999
1070
   147
1040
1.1999999999999991
1070
   172
1070
     1
1070
   176
1070
   256
1070
   177
1070
   256
1070
   178
1070
   256
1070
   271
1070
     2
1070
   272
1070
     2
1070
   279
1070
     2
1070
   340
1005
5F2
1002
}
  0
DIMENSION
  5
1F6
  8
SUNPOU
  2
*D4
 10
4577.1034463399783
 20
3416.7132462170539
 30
0.0
 11
4517.1034463399774
 21
3966.7132462170539
 31
0.0
 70
     0
 13
4277.1034463399783
 23
4516.7132462170539
 33
0.0
 14
4277.1034463399783
 24
3416.7132462170539
 34
0.0
 50
90.0
1001
ACAD
1000
DSTYLE
1002
{
1070
   287
1070
     5
1070
   287
1070
     5
1070
   287
1070
     5
1070
    40
1040
25.0
1070
    41
1040
2.0
1070
    42
1040
1.0
1070
    43
1040
6.0
1070
    44
1040
1.0
1070
    45
1040
0.1
1070
    73
1070
     0
1070
    74
1070
     0
1070
    77
1070
     1
1070
    78
1070
     8
1070
   140
1040
2.399999999999999
1070
   147
1040
1.1999999999999991
1070
   172
1070
     1
1070
   176
1070
   256
1070
   177
1070
   256
1070
   178
1070
   256
1070
   271
1070
     2
1070
   272
1070
     2
1070
   279
1070
     2
1070
   340
1005
5F2
1002
}
  0
DIMENSION
  5
1F7
  8
SUNPOU
  2
*D6
 10
4437.1034463399774
 20
4316.7132462170539
 30
0.0
 11
4377.1034463399792
 21
4416.7132462170539
 31
0.0
 70
   128
 13
4277.1659463399783
 23
4516.7132462170539
 33
0.0
 14
4277.1268838399783
 24
4316.7132462170539
 34
0.0
 50
90.0
1001
ACAD
1000
DSTYLE
1002
{
1070
   287
1070
     5
1070
   287
1070
     5
1070
   287
1070
     5
1070
    40
1040
25.0
1070
    41
1040
2.0
1070
    42
1040
1.0
1070
    43
1040
6.0
1070
    44
1040
1.0
1070
    45
1040
0.1
1070
    73
1070
     0
1070
    74
1070
     0
1070
    77
1070
     1
1070
    78
1070
     8
1070
   140
1040
2.399999999999999
1070
   147
1040
1.1999999999999991
1070
   172
1070
     1
1070
   176
1070
   256
1070
   177
1070
   256
1070
   178
1070
   256
1070
   271
1070
     2
1070
   272
1070
     2
1070
   279
1070
     2
1070
   340
1005
5F2
1002
}
  0
DIMENSION
  5
1F8
  8
SUNPOU
  2
*D3
 10
4437.1034463399774
 20
3566.7132462170539
 30
0.0
 11
4377.1034463399774
 21
3941.7132462170539
 31
0.0
 70
     0
 13
4277.2572924938249
 23
4316.7132462170539
 33
0.0
 14
4277.077004032285
 24
3566.7132462170539
 34
0.0
 50
90.0
1001
ACAD
1000
DSTYLE
1002
{
1070
   287
1070
     5
1070
   287
1070
     5
1070
   287
1070
     5
1070
    40
1040
25.0
1070
    41
1040
2.0
1070
    42
1040
1.0
1070
    43
1040
6.0
1070
    44
1040
1.0
1070
    45
1040
0.1
1070
    73
1070
     0
1070
    74
1070
     0
1070
    77
1070
     1
1070
    78
1070
     8
1070
   140
1040
2.399999999999999
1070
   147
1040
1.1999999999999991
1070
   172
1070
     1
1070
   176
1070
   256
1070
   177
1070
   256
1070
   178
1070
   256
1070
   271
1070
     2
1070
   272
1070
     2
1070
   279
1070
     2
1070
   340
1005
5F2
1002
}
  0
DIMENSION
  5
1F9
  8
SUNPOU
  2
*D5
 10
4437.1034463399774
 20
3416.7132462170539
 30
0.0
 11
4376.849136116286
 21
3491.7132462170548
 31
0.0
 70
   128
 13
4277.1659463399783
 23
3566.7132462170539
 33
0.0
 14
4277.1659463399783
 24
3416.7132462170539
 34
0.0
 50
90.0
1001
ACAD
1000
DSTYLE
1002
{
1070
   287
1070
     5
1070
   287
1070
     5
1070
   287
1070
     5
1070
    40
1040
25.0
1070
    41
1040
2.0
1070
    42
1040
1.0
1070
    43
1040
6.0
1070
    44
1040
1.0
1070
    45
1040
0.1
1070
    73
1070
     0
1070
    74
1070
     0
1070
    77
1070
     1
1070
    78
1070
     8
1070
   140
1040
2.399999999999999
1070
   147
1040
0.5
1070
   172
1070
     1
1070
   176
1070
   256
1070
   177
1070
   256
1070
   178
1070
   256
1070
   271
1070
     2
1070
   272
1070
     2
1070
   279
1070
     2
1070
   340
1005
5F2
1002
}
  0
LINE
  5
1FA
  8
MOJI
 10
3129.7397067004572
 20
4625.9692208919432
 30
0.0
 11
3563.764943560418
 21
4625.9692208919423
 31
0.0
  0
TEXT
  5
1FB
  8
MOJI
 10
3149.1033462480809
 20
4643.1684856448064
 30
0.0
 40
60.0
  1
%%C76.3×t3.2
 41
0.8
  7
EXT08
 11
3149.1033462480809
 21
4673.1684856448064
 31
0.0
 73
     2
  0
LINE
  5
1FE
  8
MOJI
 10
1013.159398676785
 20
3273.515386588615
 30
0.0
 11
1498.254600603846
 21
3273.515386588615
 31
0.0
  0
TEXT
  5
1FF
  8
MOJI
 10
995.85021871300353
 20
3294.9815538704302
 30
0.0
 40
60.0
  1
 %%C114.3×t4.5
 41
0.8
  7
EXT08
 11
995.85021871300353
 21
3324.9815538704302
 31
0.0
 73
     2
  0
DIMENSION
  5
200
  8
SUNPOU
  2
*D8
 10
5481.9286137312638
 20
3416.7132462170539
 30
0.0
 11
5421.9286137312638
 21
3966.7132462170539
 31
0.0
 70
     0
 13
5164.778613731266
 23
4516.7132462170539
 33
0.0
 14
5359.1432719410614
 24
3416.7132462170539
 34
0.0
 50
90.0
1001
ACAD
1000
DSTYLE
1002
{
1070
   287
1070
     5
1070
   287
1070
     5
1070
   287
1070
     5
1070
    40
1040
25.0
1070
    41
1040
2.0
1070
    42
1040
1.0
1070
    43
1040
6.0
1070
    44
1040
1.0
1070
    45
1040
0.1
1070
    73
1070
     0
1070
    74
1070
     0
1070
    77
1070
     1
1070
    78
1070
     8
1070
   140
1040
2.399999999999999
1070
   147
1040
1.1999999999999991
1070
   172
1070
     1
1070
   176
1070
   256
1070
   177
1070
   256
1070
   178
1070
   256
1070
   271
1070
     2
1070
   272
1070
     2
1070
   279
1070
     2
1070
   340
1005
5F2
1002
}
  0
DIMENSION
  5
201
  8
SUNPOU
  2
*D9
 10
5481.9286137312638
 20
3016.7132462170539
 30
0.0
 11
5421.9286137312638
 21
3216.7132462170548
 31
0.0
 70
     0
 13
5359.1432719410614
 23
3416.7132462170539
 33
0.0
 14
5294.778613731266
 24
3016.7132462170539
 34
0.0
 50
90.0
1001
ACAD
1000
DSTYLE
1002
{
1070
   287
1070
     5
1070
   287
1070
     5
1070
   287
1070
     5
1070
    40
1040
25.0
1070
    41
1040
2.0
1070
    42
1040
1.0
1070
    43
1040
6.0
1070
    44
1040
1.0
1070
    45
1040
0.1
1070
    73
1070
     0
1070
    74
1070
     0
1070
    77
1070
     1
1070
    78
1070
     8
1070
   140
1040
2.399999999999999
1070
   147
1040
1.1999999999999991
1070
   172
1070
     1
1070
   176
1070
   256
1070
   177
1070
   256
1070
   178
1070
   256
1070
   271
1070
     2
1070
   272
1070
     2
1070
   279
1070
     2
1070
   340
1005
5F2
1002
}
  0
DIMENSION
  5
202
  8
SUNPOU
  2
*D10
 10
6776.4137261037222
 20
3416.7132462170539
 30
0.0
 11
6716.4137261037213
 21
3966.7132462170562
 31
0.0
 70
     0
 13
6159.1767469451243
 23
4516.7132462170539
 33
0.0
 14
6691.064153958705
 24
3416.7132462170539
 34
0.0
 50
90.0
1001
ACAD
1000
DSTYLE
1002
{
1070
   287
1070
     5
1070
   287
1070
     5
1070
   287
1070
     5
1070
    40
1040
25.0
1070
    41
1040
2.0
1070
    42
1040
1.0
1070
    43
1040
6.0
1070
    44
1040
1.0
1070
    45
1040
0.1
1070
    73
1070
     0
1070
    74
1070
     0
1070
    77
1070
     1
1070
    78
1070
     8
1070
   140
1040
2.399999999999999
1070
   147
1040
1.1999999999999991
1070
   172
1070
     1
1070
   176
1070
   256
1070
   177
1070
   256
1070
   178
1070
   256
1070
   271
1070
     2
1070
   272
1070
     2
1070
   279
1070
     2
1070
   340
1005
5F2
1002
}
  0
CIRCLE
  5
204
  8
MOJI
 10
3542.9186522839368
 20
3340.9206590877629
 30
0.0
 40
48.0
  0
TEXT
  5
205
  8
MOJI
 10
3521.4593013909948
 20
3310.920659087762
 30
0.0
 40
60.0
  1
2
 41
0.8
  7
EXT08
 72
     4
 11
3544.316444248137
 21
3340.9206590877629
 31
0.0
  0
LINE
  5
20A
  8
SJC2
 10
4264.7941593933874
 20
4036.713246217053
 30
0.0
 11
4264.7941593933874
 21
4588.7132462170539
 31
0.0
  0
LINE
  5
20B
  8
SJC
 10
2867.1499756728431
 20
4475.4132462170537
 30
0.0
 11
2867.1499756728431
 21
4519.7132462170539
 31
0.0
  0
LINE
  5
20C
  8
SJC
 10
2907.1499756728431
 20
4475.4132462170537
 30
0.0
 11
2907.1499756728431
 21
4519.7132462170539
 31
0.0
  0
LINE
  5
20D
  8
SJC
 10
907.14997567284263
 20
4475.4132462170537
 30
0.0
 11
907.14997567284263
 21
4519.7132462170539
 31
0.0
  0
LINE
  5
20E
  8
SJC
 10
867.14997567284263
 20
4475.4132462170537
 30
0.0
 11
867.14997567284263
 21
4519.7132462170539
 31
0.0
  0
ARC
  5
20F
  8
SJC
 10
775.29997567284306
 20
4478.5632462170552
 30
0.0
 40
38.150000000000091
 50
90.0
 51
270.0
  0
LINE
  5
210
  8
SJC
 10
2816.1499756728431
 20
4440.4132462170537
 30
0.0
 11
958.14997567280443
 21
4440.4132462170601
 31
0.0
  0
LINE
  5
215
  8
SJC
 10
496.86722722131162
 20
3416.7132462170539
 30
0.0
 11
4264.7941593933874
 21
3416.7132462170539
 31
0.0
  0
LINE
  5
216
  8
SJC
 10
916.3207460181419
 20
4434.7173605855614
 30
0.0
 11
913.54275432329439
 21
4416.660414569058
 31
0.0
  0
ARC
  5
217
  8
SJC
 10
918.29748941344315
 20
4434.4132462170537
 30
0.0
 40
2.0
 50
90.0
 51
171.2538377374448
  0
LINE
  5
218
  8
SJC
 10
934.29997567284306
 20
4362.4132462170528
 30
0.0
 11
908.89314237779297
 21
4407.3314045287443
 31
0.0
  0
ARC
  5
219
  8
SJC
 10
887.14997567284252
 20
4295.7099468645247
 30
0.0
 40
179.703299352529
 50
68.452524104724972
 51
111.547475895275
  0
LINE
  5
21A
  8
SJC
 10
827.99997567284288
 20
4362.4132462170528
 30
0.0
 11
946.29997567284317
 21
4362.4132462170528
 31
0.0
  0
LINE
  5
21B
  8
SJC
 10
825.99997567284288
 20
4348.4132462170528
 30
0.0
 11
948.29997567284317
 21
4348.4132462170519
 31
0.0
  0
LINE
  5
21C
  8
SJC
 10
829.99997567284299
 20
3416.7132462170539
 30
0.0
 11
829.99997567284299
 21
4348.4132462170528
 31
0.0
  0
LINE
  5
21F
  8
SJC
 10
816.14997567284263
 20
4440.4132462170537
 30
0.0
 11
775.29997567284306
 21
4440.4132462170537
 31
0.0
  0
LINE
  5
220
  8
SJC
 10
839.99997567284299
 20
4362.4132462170528
 30
0.0
 11
865.40680896789308
 21
4407.3314045287443
 31
0.0
  0
LINE
  5
221
  8
SJC
 10
825.99997567284288
 20
4348.4132462170528
 30
0.0
 11
825.99997567284288
 21
4360.4132462170537
 31
0.0
  0
ARC
  5
222
  8
SJC
 10
827.99997567284288
 20
4360.4132462170537
 30
0.0
 40
2.0
 50
89.999999999999986
 51
180.0
  0
LINE
  5
223
  8
SJC
 10
856.00246193224302
 20
4436.4132462170528
 30
0.0
 11
820.14997567284252
 21
4436.4132462170528
 31
0.0
  0
ARC
  5
224
  8
SJC
 10
820.14997567284252
 20
4440.4132462170537
 30
0.0
 40
4.0
 50
180.0
 51
270.0
  0
LINE
  5
225
  8
SJC
 10
816.14997567284263
 20
4440.4132462170537
 30
0.0
 11
821.14997567284252
 21
4462.854422687642
 31
0.0
  0
LINE
  5
226
  8
SJC
 10
887.14997567284252
 20
4475.4132462170537
 30
0.0
 11
907.14997567284263
 21
4475.4132462170537
 31
0.0
  0
ARC
  5
227
  8
SJC
 10
907.71208716427645
 20
4417.4993560015009
 30
0.0
 40
5.8907132205125974
 50
284.21309489527289
 51
351.81223151543742
  0
LINE
  5
228
  8
SJC
 10
904.91376605936409
 20
4411.7889618729178
 30
0.0
 11
908.89314237779297
 21
4407.3314045287443
 31
0.0
  0
LINE
  5
229
  8
SJC
 10
857.97920532754506
 20
4434.7173605855614
 30
0.0
 11
860.75719702239167
 21
4416.660414569058
 31
0.0
  0
LINE
  5
22A
  8
SJC
 10
869.38618528632196
 20
4411.7889618729178
 30
0.0
 11
865.40680896789308
 21
4407.3314045287443
 31
0.0
  0
ARC
  5
22B
  8
SJC
 10
866.58786418140983
 20
4417.4993560015009
 30
0.0
 40
5.8907132205125974
 50
188.18776848456261
 51
255.786905104727
  0
ARC
  5
22C
  8
SJC
 10
856.00246193224302
 20
4434.4132462170537
 30
0.0
 40
2.0
 50
8.7461622625551776
 51
90.0
  0
LINE
  5
22D
  8
SJC
 10
865.14152357747753
 20
4411.7889618729178
 30
0.0
 11
909.15842776833949
 21
4411.7889618729178
 31
0.0
  0
LINE
  5
22E
  8
SJC
 10
887.14997567284252
 20
4475.4132462170537
 30
0.0
 11
867.14997567284263
 21
4475.4132462170537
 31
0.0
  0
LINE
  5
22F
  8
SJC
 10
944.29997567284306
 20
3416.7132462170539
 30
0.0
 11
944.29997567284306
 21
4348.4132462170528
 31
0.0
  0
ARC
  5
24E
  8
SJC
 10
946.29997567284317
 20
4360.4132462170537
 30
0.0
 40
2.0
 50
0.0
 51
90.000000000000028
  0
LINE
  5
24F
  8
SJC
 10
948.29997567284317
 20
4348.4132462170528
 30
0.0
 11
948.29997567284317
 21
4360.4132462170537
 31
0.0
  0
ARC
  5
250
  8
SJC
 10
954.14997567284252
 20
4440.4132462170537
 30
0.0
 40
4.0
 50
270.0
 51
0.0
  0
LINE
  5
251
  8
SJC
 10
958.14997567284263
 20
4440.4132462170537
 30
0.0
 11
953.14997567284252
 21
4462.854422687642
 31
0.0
  0
LINE
  5
252
  8
SJC
 10
918.29748941344315
 20
4436.4132462170528
 30
0.0
 11
954.14997567284252
 21
4436.4132462170528
 31
0.0
  0
LINE
  5
258
  8
SJC
 10
2944.2999756728432
 20
3416.7132462170539
 30
0.0
 11
2944.2999756728432
 21
4348.4132462170528
 31
0.0
  0
LINE
  5
259
  8
SJC
 10
2829.999975672843
 20
3416.7132462170539
 30
0.0
 11
2829.999975672843
 21
4348.4132462170528
 31
0.0
  0
LINE
  5
27C
  8
SJC
 10
2856.002461932243
 20
4436.4132462170528
 30
0.0
 11
2820.1499756728431
 21
4436.4132462170528
 31
0.0
  0
LINE
  5
27D
  8
SJC
 10
2839.999975672843
 20
4362.4132462170528
 30
0.0
 11
2865.4068089678931
 21
4407.3314045287443
 31
0.0
  0
ARC
  5
27E
  8
SJC
 10
2887.1499756728431
 20
4295.7099468645247
 30
0.0
 40
179.703299352529
 50
68.452524104724972
 51
111.547475895275
  0
LINE
  5
27F
  8
SJC
 10
2825.999975672843
 20
4348.4132462170528
 30
0.0
 11
2948.2999756728432
 21
4348.4132462170519
 31
0.0
  0
LINE
  5
280
  8
SJC
 10
2827.999975672843
 20
4362.4132462170528
 30
0.0
 11
2946.2999756728432
 21
4362.4132462170528
 31
0.0
  0
ARC
  5
281
  8
SJC
 10
2827.999975672843
 20
4360.4132462170537
 30
0.0
 40
2.0
 50
89.999999999999986
 51
180.0
  0
LINE
  5
282
  8
SJC
 10
2825.999975672843
 20
4348.4132462170528
 30
0.0
 11
2825.999975672843
 21
4360.4132462170537
 31
0.0
  0
ARC
  5
283
  8
SJC
 10
2820.1499756728431
 20
4440.4132462170537
 30
0.0
 40
4.0
 50
180.0
 51
270.0
  0
LINE
  5
284
  8
SJC
 10
2816.1499756728431
 20
4440.4132462170537
 30
0.0
 11
2821.1499756728431
 21
4462.854422687642
 31
0.0
  0
LINE
  5
285
  8
SJC
 10
2934.2999756728432
 20
4362.4132462170528
 30
0.0
 11
2908.8931423777931
 21
4407.3314045287443
 31
0.0
  0
LINE
  5
286
  8
SJC
 10
2948.2999756728432
 20
4348.4132462170528
 30
0.0
 11
2948.2999756728432
 21
4360.4132462170537
 31
0.0
  0
ARC
  5
287
  8
SJC
 10
2946.2999756728432
 20
4360.4132462170537
 30
0.0
 40
2.0
 50
0.0
 51
90.000000000000028
  0
LINE
  5
288
  8
SJC
 10
2916.320746018142
 20
4434.7173605855614
 30
0.0
 11
2913.542754323295
 21
4416.660414569058
 31
0.0
  0
ARC
  5
289
  8
SJC
 10
2907.7120871642769
 20
4417.4993560015009
 30
0.0
 40
5.8907132205125974
 50
284.21309489527289
 51
351.81223151543742
  0
LINE
  5
28A
  8
SJC
 10
2887.1499756728431
 20
4475.4132462170537
 30
0.0
 11
2867.1499756728431
 21
4475.4132462170537
 31
0.0
  0
LINE
  5
28B
  8
SJC
 10
2887.1499756728431
 20
4475.4132462170537
 30
0.0
 11
2907.1499756728431
 21
4475.4132462170537
 31
0.0
  0
LINE
  5
28C
  8
SJC
 10
2904.9137660593642
 20
4411.7889618729178
 30
0.0
 11
2908.8931423777931
 21
4407.3314045287443
 31
0.0
  0
LINE
  5
28D
  8
SJC
 10
2857.9792053275451
 20
4434.7173605855614
 30
0.0
 11
2860.7571970223921
 21
4416.660414569058
 31
0.0
  0
ARC
  5
28E
  8
SJC
 10
2866.5878641814102
 20
4417.4993560015009
 30
0.0
 40
5.8907132205125974
 50
188.18776848456261
 51
255.786905104727
  0
LINE
  5
28F
  8
SJC
 10
2869.386185286322
 20
4411.7889618729178
 30
0.0
 11
2865.4068089678931
 21
4407.3314045287443
 31
0.0
  0
ARC
  5
290
  8
SJC
 10
2856.002461932243
 20
4434.4132462170537
 30
0.0
 40
2.0
 50
8.7461622625551776
 51
90.0
  0
LINE
  5
291
  8
SJC
 10
2865.141523577478
 20
4411.7889618729178
 30
0.0
 11
2909.1584277683392
 21
4411.7889618729178
 31
0.0
  0
ARC
  5
292
  8
SJC
 10
2954.1499756728431
 20
4440.4132462170537
 30
0.0
 40
4.0
 50
270.0
 51
0.0
  0
LINE
  5
293
  8
SJC
 10
2958.1499756728431
 20
4440.4132462170537
 30
0.0
 11
2953.1499756728431
 21
4462.854422687642
 31
0.0
  0
ARC
  5
294
  8
SJC
 10
2918.2974894134431
 20
4434.4132462170537
 30
0.0
 40
2.0
 50
90.0
 51
171.2538377374448
  0
LINE
  5
295
  8
SJC
 10
2918.2974894134431
 20
4436.4132462170528
 30
0.0
 11
2954.1499756728431
 21
4436.4132462170528
 31
0.0
  0
LINE
  5
296
  8
SJC2
 10
4234.7941593933874
 20
3836.7132462170539
 30
0.0
 11
4294.7941593933874
 21
4036.713246217053
 31
0.0
  0
LINE
  5
2A4
  8
SJC2
 10
4264.7941593933874
 20
3344.7132462170539
 30
0.0
 11
4264.7941593933874
 21
3836.7132462170539
 31
0.0
  0
LINE
  5
2A5
  8
SJC2
 10
4264.7941593933874
 20
3836.7132462170539
 30
0.0
 11
4234.7941593933874
 21
3836.7132462170539
 31
0.0
  0
LINE
  5
2B3
  8
SJC2
 10
4264.7941593933874
 20
4036.713246217053
 30
0.0
 11
4294.7941593933874
 21
4036.713246217053
 31
0.0
  0
LINE
  5
2B4
  8
SJC
 10
907.14997567284263
 20
4516.7132462170539
 30
0.0
 11
2867.1499756728431
 21
4516.7132462170539
 31
0.0
  0
LINE
  5
2B5
  8
SJC
 10
775.29997567284306
 20
4516.7132462170539
 30
0.0
 11
867.14997567284263
 21
4516.7132462170539
 31
0.0
  0
LINE
  5
2B6
  8
SJC
 10
907.14997567284263
 20
4519.7132462170539
 30
0.0
 11
897.14997567284274
 21
4522.7132462170539
 31
0.0
  0
LINE
  5
2B7
  8
SJC
 10
867.14997567284263
 20
4519.7132462170539
 30
0.0
 11
877.14997567284263
 21
4522.7132462170539
 31
0.0
  0
LINE
  5
2B8
  8
SJC
 10
877.14997567284263
 20
4522.7132462170539
 30
0.0
 11
897.14997567284274
 21
4522.7132462170539
 31
0.0
  0
LINE
  5
2B9
  8
SJC
 10
4264.7941593933874
 20
4516.7132462170539
 30
0.0
 11
2907.1499756728431
 21
4516.7132462170539
 31
0.0
  0
LINE
  5
2BA
  8
SJC
 10
2907.1499756728431
 20
4519.7132462170539
 30
0.0
 11
2897.1499756728431
 21
4522.7132462170539
 31
0.0
  0
LINE
  5
2BB
  8
SJC
 10
2867.1499756728431
 20
4519.7132462170539
 30
0.0
 11
2877.1499756728431
 21
4522.7132462170539
 31
0.0
  0
LINE
  5
2BC
  8
SJC
 10
2877.1499756728431
 20
4522.7132462170539
 30
0.0
 11
2897.1499756728431
 21
4522.7132462170539
 31
0.0
  0
CIRCLE
  5
2BD
  8
SJC
 10
6119.1767469451243
 20
4478.5632462170552
 30
0.0
 40
38.149999999999999
  0
CIRCLE
  5
2BE
  8
SJC
 10
5124.7786137312651
 20
4478.5632462170552
 30
0.0
 40
38.149999999999999
  0
LINE
  5
2BF
  8
SJC
 10
5181.9286137312647
 20
3016.7132462170539
 30
0.0
 11
5181.9286137312647
 21
4348.4132462170528
 31
0.0
1001
ACAD
1000
ASC_BOUNDS
1002
{
1070
    19
1002
}
  0
LINE
  5
2C0
  8
SJC
 10
5067.6286137312663
 20
3016.7132462170539
 30
0.0
 11
5067.6286137312654
 21
4348.4132462170528
 31
0.0
1001
ACAD
1000
ASC_BOUNDS
1002
{
1070
    19
1002
}
  0
LINE
  5
2C9
  8
SJC
 10
5067.6286137312654
 20
3016.7132462170539
 30
0.0
 11
5181.9286137312647
 21
3016.7132462170539
 31
0.0
1001
ACAD
1000
ASC_BOUNDS
1002
{
1070
    19
1002
}
  0
LINE
  5
2CA
  8
SJC
 10
5181.9286137312647
 20
3416.7132462170539
 30
0.0
 11
5359.1432719410614
 21
3416.7132462170539
 31
0.0
1001
ACAD
1000
ASC_BOUNDS
1002
{
1070
    19
1002
}
  0
LINE
  5
2CD
  8
SJC
 10
4807.6286137312663
 20
3416.7132462170539
 30
0.0
 11
5067.6286137312663
 21
3416.7132462170539
 31
0.0
1001
ACAD
1000
ASC_BOUNDS
1002
{
1070
    19
1002
}
  0
LINE
  5
2DE
  8
SJC
 10
5102.7701616359
 20
4411.7889618729178
 30
0.0
 11
5146.787065826763
 21
4411.7889618729178
 31
0.0
  0
LINE
  5
2DF
  8
SJC
 10
5065.6286137312663
 20
4362.4132462170528
 30
0.0
 11
5183.9286137312647
 21
4362.4132462170528
 31
0.0
  0
LINE
  5
2E0
  8
SJC
 10
5063.6286137312654
 20
4348.4132462170528
 30
0.0
 11
5185.9286137312656
 21
4348.4132462170519
 31
0.0
  0
LINE
  5
2E1
  8
SJC
 10
5077.6286137312654
 20
4362.4132462170528
 30
0.0
 11
5103.0354470263146
 21
4407.3314045287443
 31
0.0
  0
LINE
  5
2E2
  8
SJC
 10
5063.6286137312654
 20
4348.4132462170528
 30
0.0
 11
5063.6286137312654
 21
4360.4132462170537
 31
0.0
  0
ARC
  5
2E3
  8
SJC
 10
5065.6286137312663
 20
4360.4132462170537
 30
0.0
 40
2.0
 50
89.999999999999986
 51
180.0
  0
LINE
  5
2E4
  8
SJC
 10
5107.0148233447444
 20
4411.7889618729178
 30
0.0
 11
5103.0354470263146
 21
4407.3314045287443
 31
0.0
  0
ARC
  5
2E5
  8
SJC
 10
5104.2165022398322
 20
4417.4993560015009
 30
0.0
 40
5.8907132205125974
 50
188.18776848456261
 51
255.786905104727
  0
LINE
  5
2E6
  8
SJC
 10
5091.8175821986124
 20
4459.3540583033528
 30
0.0
 11
5098.3858350808141
 21
4416.660414569058
 31
0.0
  0
LINE
  5
2E7
  8
SJC
 10
5171.9286137312656
 20
4362.4132462170528
 30
0.0
 11
5146.5217804362146
 21
4407.3314045287443
 31
0.0
  0
ARC
  5
2E8
  8
SJC
 10
5183.9286137312647
 20
4360.4132462170537
 30
0.0
 40
2.0
 50
0.0
 51
90.000000000000028
  0
LINE
  5
2E9
  8
SJC
 10
5185.9286137312656
 20
4348.4132462170528
 30
0.0
 11
5185.9286137312656
 21
4360.4132462170537
 31
0.0
  0
ARC
  5
2EA
  8
SJC
 10
5145.340725222698
 20
4417.4993560015009
 30
0.0
 40
5.8907132205125974
 50
284.21309489527289
 51
351.81223151543742
  0
LINE
  5
2EB
  8
SJC
 10
5142.5424041177857
 20
4411.7889618729178
 30
0.0
 11
5146.5217804362146
 21
4407.3314045287443
 31
0.0
  0
LINE
  5
2EC
  8
SJC
 10
5157.739645263915
 20
4459.3540583033464
 30
0.0
 11
5151.1713923817169
 21
4416.660414569058
 31
0.0
  0
LINE
  5
2ED
  8
SJC
 10
5842.0267469451246
 20
3416.7132462170539
 30
0.0
 11
6396.3267469451239
 21
3416.7132462170539
 31
0.0
  0
LINE
  5
2EE
  8
SJC
 10
6176.3267469451248
 20
3432.7132462170539
 30
0.0
 11
6176.3267469451239
 21
4348.4132462170528
 31
0.0
  0
LINE
  5
2EF
  8
SJC
 10
6062.0267469451246
 20
3432.7132462170539
 30
0.0
 11
6062.0267469451228
 21
4348.4132462170528
 31
0.0
  0
ARC
  5
2F5
  8
SJC
 10
6139.7388584365572
 20
4417.4993560015009
 30
0.0
 40
5.8907132205125974
 50
284.21309489527289
 51
351.81223151543742
  0
LINE
  5
2F6
  8
SJC
 10
6166.3267469451239
 20
4362.4132462170528
 30
0.0
 11
6140.9199136500738
 21
4407.3314045287443
 31
0.0
  0
LINE
  5
2F7
  8
SJC
 10
6058.0267469451237
 20
4348.4132462170528
 30
0.0
 11
6180.3267469451239
 21
4348.4132462170519
 31
0.0
  0
LINE
  5
2F8
  8
SJC
 10
6060.0267469451237
 20
4362.4132462170528
 30
0.0
 11
6178.3267469451239
 21
4362.4132462170528
 31
0.0
  0
LINE
  5
2F9
  8
SJC
 10
6072.0267469451228
 20
4362.4132462170528
 30
0.0
 11
6097.4335802401738
 21
4407.3314045287443
 31
0.0
  0
ARC
  5
2FA
  8
SJC
 10
6060.0267469451237
 20
4360.4132462170537
 30
0.0
 40
2.0
 50
89.999999999999986
 51
180.0
  0
LINE
  5
2FB
  8
SJC
 10
6058.0267469451237
 20
4348.4132462170528
 30
0.0
 11
6058.0267469451237
 21
4360.4132462170537
 31
0.0
  0
LINE
  5
2FC
  8
SJC
 10
6136.9405373316449
 20
4411.7889618729178
 30
0.0
 11
6140.9199136500738
 21
4407.3314045287443
 31
0.0
  0
ARC
  5
2FD
  8
SJC
 10
6098.6146354536904
 20
4417.4993560015009
 30
0.0
 40
5.8907132205125974
 50
188.18776848456261
 51
255.786905104727
  0
LINE
  5
2FE
  8
SJC
 10
6101.4129565586018
 20
4411.7889618729178
 30
0.0
 11
6097.4335802401738
 21
4407.3314045287443
 31
0.0
  0
LINE
  5
2FF
  8
SJC
 10
6086.2157154124707
 20
4459.3540583033528
 30
0.0
 11
6092.7839682946724
 21
4416.660414569058
 31
0.0
  0
LINE
  5
300
  8
SJC
 10
6097.1682948497582
 20
4411.7889618729178
 30
0.0
 11
6141.1851990406212
 21
4411.7889618729178
 31
0.0
  0
LINE
  5
301
  8
SJC
 10
6180.3267469451239
 20
4348.4132462170528
 30
0.0
 11
6180.3267469451239
 21
4360.4132462170537
 31
0.0
  0
ARC
  5
302
  8
SJC
 10
6178.3267469451239
 20
4360.4132462170537
 30
0.0
 40
2.0
 50
0.0
 51
90.000000000000028
  0
LINE
  5
303
  8
SJC
 10
6152.1377784777733
 20
4459.3540583033464
 30
0.0
 11
6145.5695255955761
 21
4416.660414569058
 31
0.0
  0
CIRCLE
  5
324
  8
SJC
 10
5124.7786137312651
 20
4292.4132462170537
 30
0.0
 40
24.300000000000001
  0
CIRCLE
  5
325
  8
SJC
 10
5124.7786137312651
 20
3591.0132462170541
 30
0.0
 40
24.300000000000001
  0
LINE
  5
326
  8
SJC
 10
5135.6286137312663
 20
3612.7564635502831
 30
0.0
 11
5135.6286137312663
 21
4270.6700288838247
 31
0.0
  0
LINE
  5
327
  8
SJC
 10
5113.9286137312656
 20
3612.7564635502822
 30
0.0
 11
5113.9286137312638
 21
4270.6700288838247
 31
0.0
  0
CIRCLE
  5
328
  8
SJC
 10
6119.1767469451233
 20
4292.4132462170537
 30
0.0
 40
24.300000000000001
  0
CIRCLE
  5
329
  8
SJC
 10
6119.1767469451243
 20
3591.0132462170541
 30
0.0
 40
24.300000000000001
  0
LINE
  5
32A
  8
SJC
 10
6108.3267469451239
 20
3612.7564635502822
 30
0.0
 11
6108.326746945123
 21
4270.6700288838256
 31
0.0
  0
LINE
  5
32B
  8
SJC
 10
6130.0267469451228
 20
3612.7564635502831
 30
0.0
 11
6130.0267469451228
 21
4270.6700288838247
 31
0.0
  0
LINE
  5
335
  8
MOJI
 10
3491.731324755498
 20
3280.920659087762
 30
0.0
 11
3884.5215283759412
 21
3280.920659087762
 31
0.0
  0
TEXT
  5
336
  8
MOJI
 10
3617.4864125669051
 20
3310.920659087762
 30
0.0
 40
60.0
  1
格子パネル
 41
0.8
  7
EXT08
 11
3617.4864125669051
 21
3340.9206590877629
 31
0.0
 73
     2
  0
ARC
  5
33C
  8
SJC
 10
914.38914177185575
 20
2212.221074870361
 30
0.0
 40
16.0
 50
180.0
 51
270.0
  0
LINE
  5
33D
  8
SJC
 10
898.38914177185541
 20
2212.221074870361
 30
0.0
 11
918.38914177185575
 21
2301.9857807527128
 31
0.0
  0
LINE
  5
33E
  8
SJC
 10
351.3891417718558
 20
2517.4210748703599
 30
0.0
 11
1102.389141771856
 21
2517.4210748703599
 31
0.0
  0
LINE
  5
375
  8
SJC
 10
351.3891417718558
 20
2376.4210748703608
 30
0.0
 11
387.38914177185569
 21
2366.6210748703602
 31
0.0
  0
LINE
  5
376
  8
SJC
 10
387.38914177185569
 20
2366.6210748703602
 30
0.0
 11
315.3891417718558
 21
2347.0210748703612
 31
0.0
  0
LINE
  5
377
  8
SJC
 10
898.38914177185541
 20
2212.221074870361
 30
0.0
 11
351.3891417718558
 21
2212.2210748703619
 31
0.0
  0
LINE
  5
378
  8
SJC
 10
351.3891417718558
 20
2376.4210748703608
 30
0.0
 11
351.3891417718558
 21
2541.4210748703599
 31
0.0
  0
LINE
  5
379
  8
SJC
 10
351.3891417718558
 20
2164.2210748703619
 30
0.0
 11
351.3891417718558
 21
2337.221074870361
 31
0.0
  0
LINE
  5
37A
  8
SJC
 10
351.3891417718558
 20
2337.221074870361
 30
0.0
 11
315.3891417718558
 21
2347.0210748703612
 31
0.0
  0
LINE
  5
380
  8
SJC
 10
953.78914177185516
 20
554.15785410716785
 30
0.0
 11
953.78914177185516
 21
1844.2210748703601
 31
0.0
  0
LINE
  5
381
  8
SJC
 10
1410.989141771855
 20
554.15785410716694
 30
0.0
 11
1410.989141771855
 21
1392.2210748703601
 31
0.0
  0
LINE
  5
382
  8
CENTER
 10
1182.3891417718551
 20
503.99021584095499
 30
0.0
 11
1182.389141771856
 21
2565.4210748703599
 31
0.0
  0
LINE
  5
383
  8
SJC
 10
1392.989141771855
 20
554.15785410716694
 30
0.0
 11
1392.989141771855
 21
1392.2210748703601
 31
0.0
  0
LINE
  5
3A1
  8
SJC
 10
1402.389141771856
 20
2212.221074870361
 30
0.0
 11
2013.389141771856
 21
2212.221074870361
 31
0.0
  0
LINE
  5
3A2
  8
SJC
 10
1194.3891417718551
 20
2504.6210748703602
 30
0.0
 11
2013.389141771856
 21
2504.6210748703602
 31
0.0
  0
LINE
  5
3A3
  8
SJC
 10
1182.389141771856
 20
2517.4210748703599
 30
0.0
 11
2013.389141771856
 21
2517.4210748703599
 31
0.0
  0
LINE
  5
3A4
  8
SJC
 10
1422.389141771856
 20
2225.0210748703598
 30
0.0
 11
2013.389141771856
 21
2225.0210748703589
 31
0.0
  0
LINE
  5
3A5
  8
SJC2
 10
1206.389141771856
 20
2044.2210748703601
 30
0.0
 11
1206.389141771856
 21
2144.2210748703601
 31
0.0
  0
LINE
  5
3A6
  8
SJC
 10
1370.989141771855
 20
1900.2210748703601
 30
0.0
 11
1270.2079877929559
 21
2078.3977006894079
 31
0.0
  0
LINE
  5
3A7
  8
SJC
 10
1359.359792991437
 20
1888.282465917873
 30
0.0
 11
1257.114565442959
 21
2069.0475090975042
 31
0.0
  0
LINE
  5
3A8
  8
SJC
 10
993.78914177185504
 20
1900.2210748703601
 30
0.0
 11
1095.4164749520539
 21
2079.8937081171221
 31
0.0
  0
ARC
  5
3A9
  8
SJC
 10
1418.989141771855
 20
1892.2210748703601
 30
0.0
 40
8.0
 50
360.0
 51
89.999999999999872
  0
LINE
  5
3AA
  8
SJC
 10
1410.989141771855
 20
1844.2210748703601
 30
0.0
 11
1426.989141771855
 21
1844.2210748703601
 31
0.0
  0
LINE
  5
3B5
  8
SJC
 10
945.78914177185516
 20
1900.2210748703601
 30
0.0
 11
1182.389141771856
 21
1900.2210748703601
 31
0.0
  0
LINE
  5
3B6
  8
SJC
 10
937.78914177185516
 20
1844.2210748703601
 30
0.0
 11
1182.389141771856
 21
1844.2210748703601
 31
0.0
  0
LINE
  5
3B7
  8
SJC
 10
937.78914177185516
 20
1844.2210748703601
 30
0.0
 11
937.78914177185516
 21
1892.2210748703601
 31
0.0
  0
ARC
  5
3B8
  8
SJC
 10
945.78914177185516
 20
1892.2210748703601
 30
0.0
 40
8.0
 50
89.999999999999986
 51
180.0
  0
LINE
  5
3B9
  8
SJC2
 10
1182.389141771856
 20
2044.2210748703601
 30
0.0
 11
1206.389141771856
 21
2044.2210748703601
 31
0.0
  0
ARC
  5
3BA
  8
SJC
 10
1366.3230795372699
 20
1892.2210748703601
 30
0.0
 40
8.0
 50
209.4935856297333
 51
269.99999999999949
  0
LINE
  5
3BB
  8
SJC
 10
1418.989141771855
 20
1900.2210748703601
 30
0.0
 11
1370.989141771855
 21
1900.2210748703601
 31
0.0
  0
LINE
  5
3BC
  8
SJC
 10
1410.989141771855
 20
1884.2210748703601
 30
0.0
 11
1366.3230795372699
 21
1884.2210748703601
 31
0.0
  0
LINE
  5
3E2
  8
SJC
 10
1426.989141771855
 20
1844.2210748703601
 30
0.0
 11
1426.989141771855
 21
1892.2210748703601
 31
0.0
  0
LINE
  5
3E3
  8
SJC
 10
1306.9791967342539
 20
2196.2210748703601
 30
0.0
 11
1466.389141771856
 21
2196.2210748703601
 31
0.0
  0
LINE
  5
3E4
  8
SJC
 10
1182.389141771856
 20
2491.82107487036
 30
0.0
 11
1482.389141771856
 21
2491.82107487036
 31
0.0
  0
LINE
  5
3E5
  8
SJC
 10
1182.389141771856
 20
2479.0210748703598
 30
0.0
 11
1482.389141771856
 21
2479.0210748703598
 31
0.0
  0
LINE
  5
3E6
  8
SJC
 10
1422.389141771856
 20
2237.82107487036
 30
0.0
 11
1482.389141771856
 21
2237.82107487036
 31
0.0
  0
LINE
  5
3E7
  8
SJC
 10
1142.389141771856
 20
2352.2210748703601
 30
0.0
 11
1142.389141771856
 21
2541.4210748703599
 31
0.0
  0
LINE
  5
3E8
  8
SJC
 10
1102.389141771856
 20
2352.2210748703601
 30
0.0
 11
1102.389141771856
 21
2529.4210748703599
 31
0.0
  0
LINE
  5
3E9
  8
SJC
 10
1182.389141771856
 20
2352.2210748703601
 30
0.0
 11
1102.389141771856
 21
2352.2210748703601
 31
0.0
  0
LINE
  5
3EA
  8
SJC
 10
1094.355333390394
 20
2097.7239374938222
 30
0.0
 11
1182.389141771856
 21
2097.7239374938222
 31
0.0
  0
ARC
  5
3EB
  8
SJC
 10
1182.3891417718551
 20
2029.7085748703571
 30
0.0
 40
208.11250000000319
 50
89.999999999999943
 51
118.7186730884888
  0
ARC
  5
3EC
  8
SJC
 10
1182.389141771856
 20
1633.407877460246
 30
0.0
 40
718.81319741011396
 50
90.0
 51
111.5474758952751
  0
LINE
  5
3ED
  8
SJC
 10
1057.799086809456
 20
2196.2210748703601
 30
0.0
 11
914.38914177185575
 21
2196.2210748703601
 31
0.0
  0
ARC
  5
3EE
  8
SJC2
 10
982.38914177185586
 20
2201.2210748703601
 30
0.0
 40
29.000000000000039
 50
226.39718102729651
 51
313.6028189727038
  0
LINE
  5
3EF
  8
SJC2
 10
1012.389141771856
 20
2172.2210748703601
 30
0.0
 11
952.38914177185586
 21
2172.2210748703601
 31
0.0
  0
LINE
  5
3F0
  8
SJC2
 10
962.38914177185575
 20
2180.2210748703601
 30
0.0
 11
962.38914177185575
 21
2196.2210748703601
 31
0.0
  0
LINE
  5
3F1
  8
SJC2
 10
942.38914177185575
 20
2180.2210748703601
 30
0.0
 11
942.38914177185575
 21
2196.2210748703601
 31
0.0
  0
ARC
  5
3F2
  8
SJC2
 10
952.38914177185586
 20
2182.4710748703601
 30
0.0
 40
10.249999999999989
 50
192.68038349181981
 51
347.3196165081788
  0
LINE
  5
3F3
  8
SJC2
 10
1022.389141771856
 20
2180.2210748703601
 30
0.0
 11
1022.389141771856
 21
2196.2210748703601
 31
0.0
  0
LINE
  5
3F4
  8
SJC2
 10
1002.389141771856
 20
2180.2210748703601
 30
0.0
 11
1002.389141771856
 21
2196.2210748703601
 31
0.0
  0
ARC
  5
3F5
  8
SJC2
 10
1012.389141771856
 20
2182.4710748703601
 30
0.0
 40
10.25
 50
192.68038349181981
 51
347.31961650818022
  0
LINE
  5
3F6
  8
SJC
 10
1065.7060603906621
 20
2189.4375323443919
 30
0.0
 11
1076.8180271700489
 21
2117.2097482783761
 31
0.0
  0
ARC
  5
3F7
  8
SJC
 10
1100.1406958061209
 20
2120.565514008149
 30
0.0
 40
23.5628528820504
 50
188.18776848456261
 51
255.786905104727
  0
LINE
  5
3F8
  8
SJC
 10
1111.3339802257699
 20
2097.7239374938222
 30
0.0
 11
1095.4164749520539
 21
2079.8937081171221
 31
0.0
  0
ARC
  5
3F9
  8
SJC
 10
1057.799086809456
 20
2188.2210748703601
 30
0.0
 40
8.0
 50
8.7461622625551776
 51
90.0
  0
ARC
  5
3FA
  8
SJC
 10
1422.389141771856
 20
2247.0460748703599
 30
0.0
 40
22.025000000000059
 50
204.7615138576094
 51
270.0
  0
ARC
  5
3FB
  8
SJC
 10
1342.389141771856
 20
2247.0460748703599
 30
0.0
 40
22.025000000000059
 50
270.0
 51
335.2384861423879
  0
LINE
  5
3FC
  8
SJC2
 10
1362.389141771856
 20
2180.2210748703601
 30
0.0
 11
1362.389141771856
 21
2312.2210748703601
 31
0.0
  0
LINE
  5
3FD
  8
SJC2
 10
1402.389141771856
 20
2180.2210748703601
 30
0.0
 11
1402.389141771856
 21
2312.2210748703601
 31
0.0
  0
ARC
  5
3FE
  8
SJC
 10
1293.252493425988
 20
2204.221074870361
 30
0.0
 40
8.0
 50
90.0
 51
171.2538377374448
  0
LINE
  5
3FF
  8
SJC
 10
1299.072223153049
 20
2189.4375323443919
 30
0.0
 11
1287.9602563736621
 21
2117.2097482783761
 31
0.0
  0
LINE
  5
400
  8
SJC
 10
1182.389141771856
 20
2225.0210748703589
 30
0.0
 11
1342.389141771856
 21
2225.0210748703598
 31
0.0
  0
LINE
  5
401
  8
SJC
 10
1362.389141771856
 20
2212.221074870361
 30
0.0
 11
1182.389141771856
 21
2212.221074870361
 31
0.0
  0
LINE
  5
402
  8
SJC
 10
1285.345519844783
 20
2205.4375323443919
 30
0.0
 11
1272.1463092112519
 21
2119.6426632264379
 31
0.0
  0
POLYLINE
  5
403
  8
SJC
 66
     1
 10
0.0
 20
0.0
 30
0.0
  0
VERTEX
  5
5A81
  8
SJC
 10
1260.317245712987
 20
2113.8865164034728
 30
0.0
 42
0.0564104387286638
  0
VERTEX
  5
5A82
  8
SJC
 10
1249.63702576827
 20
2125.9520647295121
 30
0.0
 42
0.0564104387286657
  0
VERTEX
  5
5A83
  8
SJC
 10
1236.530332418278
 20
2135.3253855873932
 30
0.0
 42
0.0553406447254363
  0
VERTEX
  5
5A84
  8
SJC
 10
1221.953542597555
 20
2141.4463873411928
 30
0.0
 42
0.0553406447254385
  0
VERTEX
  5
5A85
  8
SJC
 10
1206.389141771856
 20
2144.2210748703592
 30
0.0
  0
SEQEND
  5
5A86
  8
SJC
  0
POLYLINE
  5
40A
  8
SJC
 66
     1
 10
0.0
 20
0.0
 30
0.0
  0
VERTEX
  5
5A87
  8
SJC
 10
1247.2200128248439
 20
2104.6961687128928
 30
0.0
 42
0.0564104387286642
  0
VERTEX
  5
5A88
  8
SJC
 10
1238.925132644194
 20
2114.066975512414
 30
0.0
 42
0.0564104387286657
  0
VERTEX
  5
5A89
  8
SJC
 10
1228.7457120456049
 20
2121.3468418272801
 30
0.0
 42
0.0553406447254363
  0
VERTEX
  5
5A8A
  8
SJC
 10
1217.4245289981329
 20
2126.1007679070931
 30
0.0
 42
0.050583167928897
  0
VERTEX
  5
5A8B
  8
SJC
 10
1206.389141771856
 20
2128.1762831161568
 30
0.0
 42
0.0553406447254386
  0
SEQEND
  5
5A8C
  8
SJC
  0
POLYLINE
  5
411
  8
SJC
 66
     1
 10
0.0
 20
0.0
 30
0.0
  0
VERTEX
  5
5A8D
  8
SJC
 10
1234.122779936702
 20
2095.5058210223119
 30
0.0
 42
0.0564104387286635
  0
VERTEX
  5
5A8E
  8
SJC
 10
1228.213239520119
 20
2102.181886295316
 30
0.0
 42
0.0564104387286659
  0
VERTEX
  5
5A8F
  8
SJC
 10
1220.9610916729339
 20
2107.3682980671679
 30
0.0
 42
0.0553406447254365
  0
VERTEX
  5
5A90
  8
SJC
 10
1212.8955153987099
 20
2110.755148472992
 30
0.0
 42
0.0419700054284548
  0
VERTEX
  5
5A91
  8
SJC
 10
1206.389141771856
 20
2112.0950391424908
 30
0.0
 42
0.0505831679288969
  0
SEQEND
  5
5A92
  8
SJC
  0
LINE
  5
418
  8
SJC2
 10
1225.7588719705959
 20
2076.2210748703601
 30
0.0
 11
1225.7588719705959
 21
2104.221074870361
 31
0.0
  0
LINE
  5
419
  8
SJC2
 10
1182.389141771856
 20
2076.2210748703601
 30
0.0
 11
1225.7588719705959
 21
2076.2210748703601
 31
0.0
  0
LINE
  5
41A
  8
SJC2
 10
1182.389141771856
 20
2104.221074870361
 30
0.0
 11
1225.7588719705959
 21
2104.221074870361
 31
0.0
  0
ARC
  5
41B
  8
SJC
 10
1264.239335630047
 20
2120.8591207004702
 30
0.0
 40
8.0
 50
240.6422464572089
 51
351.25383773744483
  0
ARC
  5
41C
  8
SJC
 10
1243.187992351292
 20
2061.1702911925281
 30
0.0
 40
16.0
 50
29.493585629733239
 51
41.568712770488709
  0
ARC
  5
41D
  8
SJC
 10
1256.2814147012889
 20
2070.5204827844341
 30
0.0
 40
16.0
 50
29.493585629733289
 51
41.756111216439614
  0
LINE
  5
41E
  8
SJC
 10
1247.2200128248439
 20
2104.6961687128928
 30
0.0
 11
1268.2171962583261
 21
2081.1758625816392
 31
0.0
  0
LINE
  5
41F
  8
SJC
 10
1234.122779936702
 20
2095.5058210223119
 30
0.0
 11
1255.1585607667801
 21
2071.7865754676468
 31
0.0
  0
ARC
  5
420
  8
SJC
 10
1264.637587737589
 20
2120.565514008149
 30
0.0
 40
23.5628528820504
 50
222.33699791037529
 51
351.81223151543742
  0
ARC
  5
421
  8
SJC
 10
1186.3891417718551
 20
2229.0210748703598
 30
0.0
 40
4.0
 50
180.0
 51
270.0
  0
LINE
  5
422
  8
SJC2
 10
1206.389141771856
 20
2194.221074870361
 30
0.0
 11
1206.389141771856
 21
2200.221074870361
 31
0.0
  0
LINE
  5
423
  8
SJC2
 10
1208.389141771856
 20
2144.2210748703601
 30
0.0
 11
1208.389141771856
 21
2152.221074870361
 31
0.0
  0
LINE
  5
424
  8
SJC2
 10
1210.3891417718551
 20
2152.221074870361
 30
0.0
 11
1210.3891417718551
 21
2194.221074870361
 31
0.0
  0
LINE
  5
425
  8
SJC2
 10
1206.389141771856
 20
2152.221074870361
 30
0.0
 11
1206.389141771856
 21
2194.221074870361
 31
0.0
  0
LINE
  5
426
  8
SJC2
 10
1194.3891417718551
 20
2152.221074870361
 30
0.0
 11
1194.3891417718551
 21
2194.221074870361
 31
0.0
  0
LINE
  5
427
  8
SJC2
 10
1182.389141771856
 20
2200.221074870361
 30
0.0
 11
1206.389141771856
 21
2200.221074870361
 31
0.0
  0
LINE
  5
428
  8
SJC2
 10
1182.389141771856
 20
2144.2210748703569
 30
0.0
 11
1208.389141771856
 21
2144.2210748703601
 31
0.0
  0
LINE
  5
429
  8
SJC2
 10
1182.389141771856
 20
2194.221074870361
 30
0.0
 11
1210.3891417718551
 21
2194.221074870361
 31
0.0
  0
LINE
  5
42A
  8
SJC2
 10
1182.389141771856
 20
2152.221074870361
 30
0.0
 11
1210.3891417718551
 21
2152.221074870361
 31
0.0
  0
LINE
  5
42B
  8
SJC
 10
1190.389141771856
 20
2212.221074870361
 30
0.0
 11
1190.389141771856
 21
2225.0210748703598
 31
0.0
  0
LINE
  5
42C
  8
SJC2
 10
1352.389141771856
 20
2172.2210748703601
 30
0.0
 11
1412.3891417718551
 21
2172.2210748703601
 31
0.0
  0
ARC
  5
42D
  8
SJC2
 10
1352.389141771856
 20
2182.4710748703601
 30
0.0
 40
10.25
 50
192.68038349181981
 51
347.31961650818022
  0
LINE
  5
42E
  8
SJC2
 10
1342.389141771856
 20
2180.2210748703601
 30
0.0
 11
1342.389141771856
 21
2212.221074870361
 31
0.0
  0
ARC
  5
42F
  8
SJC
 10
1306.9791967342539
 20
2188.2210748703601
 30
0.0
 40
8.0
 50
90.0
 51
171.2538377374448
  0
LINE
  5
430
  8
SJC2
 10
1422.389141771856
 20
2180.2210748703601
 30
0.0
 11
1422.389141771856
 21
2212.221074870361
 31
0.0
  0
ARC
  5
431
  8
SJC2
 10
1412.3891417718551
 20
2182.4710748703601
 30
0.0
 40
10.249999999999989
 50
192.68038349182109
 51
347.31961650818022
  0
ARC
  5
432
  8
SJC2
 10
1382.389141771856
 20
2201.2210748703601
 30
0.0
 40
29.000000000000039
 50
226.39718102729631
 51
313.60281897270352
  0
LINE
  5
433
  8
SJC
 10
1182.389141771856
 20
2237.82107487036
 30
0.0
 11
1342.389141771856
 21
2237.82107487036
 31
0.0
  0
CIRCLE
  5
434
  8
SJC2
 10
1182.389141771856
 20
2389.4210748703599
 30
0.0
 40
9.6000000000000014
  0
ARC
  5
435
  8
SJC
 10
1342.389141771856
 20
2259.846074870361
 30
0.0
 40
22.025000000000059
 50
270.0
 51
335.2384861423879
  0
LINE
  5
436
  8
SJC2
 10
1362.389141771856
 20
2312.2210748703601
 30
0.0
 11
1402.389141771856
 21
2312.2210748703601
 31
0.0
  0
ARC
  5
437
  8
SJC
 10
1422.389141771856
 20
2259.846074870361
 30
0.0
 40
22.025000000000059
 50
204.7615138576094
 51
270.0
  0
LINE
  5
438
  8
SJC
 10
1142.3891417718551
 20
2541.4210748703599
 30
0.0
 11
1222.3891417718551
 21
2541.4210748703599
 31
0.0
  0
LINE
  5
439
  8
SJC
 10
1102.389141771856
 20
2529.4210748703599
 30
0.0
 11
1142.389141771856
 21
2541.4210748703599
 31
0.0
  0
LINE
  5
43A
  8
SJC
 10
1194.3891417718551
 20
2491.82107487036
 30
0.0
 11
1194.3891417718551
 21
2517.4210748703599
 31
0.0
  0
LINE
  5
43B
  8
SJC
 10
1182.389141771856
 20
2521.4210748703599
 30
0.0
 11
1262.389141771856
 21
2521.4210748703599
 31
0.0
  0
LINE
  5
43C
  8
SJC
 10
1262.389141771856
 20
2529.4210748703599
 30
0.0
 11
1222.389141771856
 21
2541.4210748703599
 31
0.0
  0
LINE
  5
43D
  8
SJC
 10
1262.389141771856
 20
2517.4210748703599
 30
0.0
 11
1262.389141771856
 21
2529.4210748703599
 31
0.0
  0
LINE
  5
43E
  8
SJC
 10
1482.389141771856
 20
2225.0210748703598
 30
0.0
 11
1482.389141771856
 21
2491.82107487036
 31
0.0
  0
LINE
  5
43F
  8
SJC
 10
1466.389141771856
 20
2196.2210748703601
 30
0.0
 11
1466.389141771856
 21
2212.221074870361
 31
0.0
  0
LINE
  5
444
  8
SJC
 10
2013.389141771856
 20
2376.4210748703608
 30
0.0
 11
2013.389141771856
 21
2557.4210748703599
 31
0.0
  0
LINE
  5
445
  8
SJC
 10
2013.389141771856
 20
2188.2210748703601
 30
0.0
 11
2013.389141771856
 21
2337.221074870361
 31
0.0
  0
LINE
  5
446
  8
SJC
 10
2013.389141771856
 20
2376.4210748703608
 30
0.0
 11
2049.389141771856
 21
2366.6210748703602
 31
0.0
  0
LINE
  5
447
  8
SJC
 10
2049.389141771856
 20
2366.6210748703602
 30
0.0
 11
1977.3891417718551
 21
2347.0210748703598
 31
0.0
  0
LINE
  5
448
  8
SJC
 10
2013.389141771856
 20
2337.221074870361
 30
0.0
 11
1977.389141771856
 21
2347.0210748703612
 31
0.0
  0
LINE
  5
478
  8
MOJI
 10
7191.7123579429808
 20
1758.035859788404
 30
0.0
 11
5315.4114585769094
 21
1758.035859788404
 31
0.0
  0
LINE
  5
4B5
  8
SJC2
 10
1206.389141771856
 20
2200.221074870361
 30
0.0
 11
1210.3891417718551
 21
2194.221074870361
 31
0.0
  0
TEXT
  5
4FA
  8
MOJI
 10
4846.2747368258524
 20
4726.7132462170539
 30
0.0
 40
70.0
  1
77HGTK-311W
 41
0.8
  7
EXT08
 72
     1
 11
5154.2747368258524
 21
4726.7132462170539
 31
0.0
  0
LINE
  5
4FF
  8
MOJI
 10
2024.001426171711
 20
2625.8483165148418
 30
0.0
 11
2554.9688453122908
 21
2625.8483165148418
 31
0.0
  0
TEXT
  5
500
  8
MOJI
 10
2148.4251706551991
 20
2643.8483165148418
 30
0.0
 40
60.0
  1
%%C76.3×t3.2
 41
0.8
  7
EXT08
 11
2148.4251706551991
 21
2673.8483165148418
 31
0.0
 73
     2
  0
LINE
  5
501
  8
MOJI
 10
1438.3891417718551
 20
2712.2210748703601
 30
0.0
 11
1995.5019839338561
 21
2712.221074870361
 31
0.0
  0
TEXT
  5
502
  8
MOJI
 10
1534.1033077179741
 20
2730.2210748703601
 30
0.0
 40
60.0
  1
インナースリーブ
 41
0.8
  7
EXT08
 11
1534.1033077179741
 21
2760.2210748703601
 31
0.0
 73
     2
  0
LINE
  5
503
  8
MOJI
 10
1071.090730619916
 20
2748.0788251971721
 30
0.0
 11
466.8371937275187
 21
2748.3173116697999
 31
0.0
  0
TEXT
  5
504
  8
MOJI
 10
536.68531797643072
 20
2766.0788251971712
 30
0.0
 40
60.0
  1
  ジョイントカバー 
 41
0.8
  7
EXT08
 11
536.68531797643072
 21
2796.0788251971712
 31
0.0
 73
     2
  0
LINE
  5
505
  8
MOJI
 10
1054.3891417718551
 20
2599.4210748703599
 30
0.0
 11
419.00789097216688
 21
2599.4210748703599
 31
0.0
  0
TEXT
  5
506
  8
MOJI
 10
535.69029757711542
 20
2617.4210748703599
 30
0.0
 40
60.0
  1
M5×12 止メネジ 
 41
0.8
  7
EXT08
 11
535.69029757711542
 21
2647.4210748703599
 31
0.0
 73
     2
  0
LINE
  5
509
  8
MOJI
 10
1526.6309189582721
 20
2052.2210748703601
 30
0.0
 11
1943.6771083217061
 21
2052.2210748703601
 31
0.0
  0
TEXT
  5
50A
  8
MOJI
 10
1648.1377801434301
 20
2079.9559084969978
 30
0.0
 40
60.0
  1
取付ボルト
 41
0.8
  7
EXT08
 11
1648.1377801434301
 21
2109.9559084969978
 31
0.0
 73
     2
  0
LINE
  5
50B
  8
MOJI
 10
1518.3891417718551
 20
1839.2445802137061
 30
0.0
 11
2010.9014167607379
 21
1839.2445802137061
 31
0.0
  0
TEXT
  5
50C
  8
MOJI
 10
1614.3846879693319
 20
1860.7209421071309
 30
0.0
 40
60.0
  1
六角穴付ボルト
 41
0.8
  7
EXT08
 11
1614.3846879693319
 21
1890.7209421071309
 31
0.0
 73
     2
  0
LINE
  5
50F
  8
MOJI
 10
818.38914177185575
 20
2020.2210748703601
 30
0.0
 11
433.35768422377799
 21
2020.221074870359
 31
0.0
  0
TEXT
  5
510
  8
MOJI
 10
567.29218200404546
 20
2042.23971033521
 30
0.0
 40
60.0
  1
頭部金具
 41
0.8
  7
EXT08
 11
567.29218200404546
 21
2072.23971033521
 31
0.0
 73
     2
  0
DIMENSION
  5
561
  8
SUNPOU
  2
*D7
 10
5657.1466914734583
 20
3016.7132462170539
 30
0.0
 11
5597.1466914734583
 21
3766.7132462170539
 31
0.0
 70
     0
 13
5164.778613731266
 23
4516.7132462170539
 33
0.0
 14
5181.9286137312647
 24
3016.7132462170539
 34
0.0
 50
90.0
1001
ACAD
1000
DSTYLE
1002
{
1070
   287
1070
     5
1070
   287
1070
     5
1070
   287
1070
     5
1070
    40
1040
25.0
1070
    41
1040
2.0
1070
    42
1040
1.0
1070
    43
1040
6.0
1070
    44
1040
1.0
1070
    45
1040
0.1
1070
    73
1070
     0
1070
    74
1070
     0
1070
    77
1070
     1
1070
    78
1070
     8
1070
   140
1040
2.399999999999999
1070
   147
1040
1.1999999999999991
1070
   172
1070
     1
1070
   176
1070
   256
1070
   177
1070
   256
1070
   178
1070
   256
1070
   271
1070
     2
1070
   272
1070
     2
1070
   279
1070
     2
1070
   340
1005
5F2
1002
}
  0
DIMENSION
  5
562
  8
SUNPOU
  2
*D11
 10
6360.3771125841531
 20
3432.7132462170539
 30
0.0
 11
6312.7464051830866
 21
3508.9940945793501
 31
0.0
 70
   128
  1
t16
 13
6396.3267469451239
 23
3416.7132462170539
 33
0.0
 14
6219.1767469451243
 24
3432.7132462170539
 34
0.0
 50
90.0
1001
ACAD
1000
DSTYLE
1002
{
1070
   287
1070
     5
1070
   287
1070
     5
1070
   287
1070
     5
1070
    40
1040
25.0
1070
    41
1040
2.0
1070
    42
1040
1.0
1070
    43
1040
6.0
1070
    44
1040
1.0
1070
    45
1040
0.1
1070
    73
1070
     0
1070
    74
1070
     0
1070
    77
1070
     1
1070
    78
1070
     8
1070
   140
1040
2.399999999999999
1070
   147
1040
1.1999999999999991
1070
   172
1070
     1
1070
   176
1070
   256
1070
   177
1070
   256
1070
   178
1070
   256
1070
   271
1070
     2
1070
   272
1070
     2
1070
   279
1070
     2
1070
   340
1005
5F2
1002
}
  0
TEXT
  5
567
  8
MOJI
 10
5775.383833061368
 20
4726.7132462170539
 30
0.0
 40
70.0
  1
77HGTK-311PL
 41
0.8
  7
EXT08
 72
     1
 11
6103.3838330613689
 21
4726.7132462170539
 31
0.0
  0
TEXT
  5
61F
  8
MOJI
 10
533.44299606091602
 20
3442.32484082568
 30
0.0
 40
60.0
  1
GL
 41
0.8
  7
EXT08
 72
     4
 11
579.15728177520157
 21
3472.3248408256809
 31
0.0
  0
TEXT
  5
620
  8
MOJI
 10
4831.9244920240644
 20
3442.32484082568
 30
0.0
 40
60.0
  1
GL
 41
0.8
  7
EXT08
 11
4831.9244920240644
 21
3472.3248408256809
 31
0.0
 73
     2
  0
TEXT
  5
621
  8
MOJI
 10
5875.5630384504548
 20
3442.32484082568
 30
0.0
 40
60.0
  1
GL
 41
0.8
  7
EXT08
 11
5875.5630384504548
 21
3472.3248408256809
 31
0.0
 73
     2
  0
LINE
  5
12DA
  8
CENTER
 10
973.30006787374168
 20
4200.9367284359541
 30
0.0
 11
973.30006787374168
 21
4092.1728405068538
 31
0.0
  0
LINE
  5
12DC
  8
SJC2
 10
959.35048260104224
 20
4181.7129426058536
 30
0.0
 11
959.35048260104224
 21
4146.7130944114551
 31
0.0
  0
LINE
  5
12DE
  8
SJC2
 10
944.29997567284306
 20
4111.7132462170548
 30
0.0
 11
986.99979047004217
 21
4111.7132462170548
 31
0.0
  0
LINE
  5
12E3
  8
SJC2
 10
986.99979047004217
 20
4146.7130944114551
 30
0.0
 11
986.99979047004217
 21
4111.7132462170548
 31
0.0
  0
LINE
  5
12E5
  8
SJC2
 10
944.29997567284272
 20
4146.7130944114551
 30
0.0
 11
1002.050106663342
 21
4146.7130944114551
 31
0.0
  0
LINE
  5
12E9
  8
SJC2
 10
959.35048260104224
 20
4181.7129426058536
 30
0.0
 11
1002.050106663341
 21
4181.7129426058536
 31
0.0
  0
LINE
  5
12EC
  8
SJC2
 10
959.35048260104304
 20
3881.7132462170548
 30
0.0
 11
959.35048260104304
 21
3846.7133980226558
 31
0.0
  0
LINE
  5
12EE
  8
CENTER
 10
973.30006787374248
 20
3900.9370320471548
 30
0.0
 11
973.30006787374248
 21
3792.173144118055
 31
0.0
  0
LINE
  5
12F1
  8
SJC2
 10
944.29997567284306
 20
3846.7133980226558
 30
0.0
 11
1002.050106663342
 21
3846.7133980226558
 31
0.0
  0
LINE
  5
12F2
  8
SJC2
 10
944.29997567284397
 20
3811.7135498282551
 30
0.0
 11
986.99979047004308
 21
3811.7135498282551
 31
0.0
  0
LINE
  5
12F5
  8
SJC2
 10
986.99979047004308
 20
3846.7133980226558
 30
0.0
 11
986.99979047004308
 21
3811.7135498282551
 31
0.0
  0
LINE
  5
12FA
  8
SJC2
 10
959.35048260104304
 20
3881.7132462170548
 30
0.0
 11
1002.050106663342
 21
3881.7132462170548
 31
0.0
  0
LINE
  5
1303
  8
SJC2
 10
2787.2997794059429
 20
3811.7135498281541
 30
0.0
 11
2787.2997794059429
 21
3846.7133980225531
 31
0.0
  0
LINE
  5
1304
  8
SJC2
 10
2787.2997794059429
 20
3811.7135498281541
 30
0.0
 11
2829.999975672843
 21
3811.7135498281541
 31
0.0
  0
LINE
  5
1306
  8
SJC2
 10
2772.050122682143
 20
3846.7133980225531
 30
0.0
 11
2829.999975672843
 21
3846.7133980225531
 31
0.0
  0
LINE
  5
1307
  8
SJC2
 10
2814.9494687446431
 20
3846.7133980225531
 30
0.0
 11
2814.9494687446431
 21
3881.7132462170539
 31
0.0
  0
LINE
  5
1309
  8
CENTER
 10
2801.2493646786429
 20
3792.4901454678538
 30
0.0
 11
2801.2493646786429
 21
3901.254414866653
 31
0.0
  0
LINE
  5
130B
  8
SJC2
 10
2772.2492724777439
 20
3881.7132462170539
 30
0.0
 11
2814.9494687446431
 21
3881.7132462170539
 31
0.0
  0
LINE
  5
130E
  8
SJC2
 10
2814.9494687446431
 20
4146.7130944114533
 30
0.0
 11
2814.9494687446431
 21
4181.7129426058527
 31
0.0
  0
LINE
  5
1310
  8
CENTER
 10
2801.2493646786429
 20
4092.4894603869539
 30
0.0
 11
2801.2493646786429
 21
4201.2541112555527
 31
0.0
  0
LINE
  5
1313
  8
SJC2
 10
2772.050122682143
 20
4146.7130944114533
 30
0.0
 11
2829.999975672843
 21
4146.7130944114524
 31
0.0
  0
LINE
  5
1314
  8
SJC2
 10
2787.2997794059429
 20
4111.713246217053
 30
0.0
 11
2829.999975672843
 21
4111.713246217053
 31
0.0
  0
LINE
  5
1315
  8
SJC2
 10
2787.2997794059429
 20
4111.713246217053
 30
0.0
 11
2787.2997794059429
 21
4146.7130944114533
 31
0.0
  0
LINE
  5
131B
  8
SJC2
 10
2772.2492724777439
 20
4181.7129426058527
 30
0.0
 11
2814.9494687446431
 21
4181.7129426058527
 31
0.0
  0
LINE
  5
1321
  8
SJC
 10
974.05003737294226
 20
3609.4132694442551
 30
0.0
 11
2800.0500373729419
 21
3609.4132694442569
 31
0.0
  0
LINE
  5
1322
  8
SJC
 10
974.05003737294226
 20
3566.713073177255
 30
0.0
 11
2800.0500373729419
 21
3566.7130731772559
 31
0.0
  0
LINE
  5
1323
  8
SJC
 10
974.05003737294226
 20
4316.7130944114551
 30
0.0
 11
2800.0500373729428
 21
4316.713094411457
 31
0.0
  0
LINE
  5
1324
  8
SJC
 10
2800.0500373729428
 20
4274.0136610839563
 30
0.0
 11
974.05003737294226
 21
4274.0136610839554
 31
0.0
  0
LINE
  5
1339
  8
SJC
 10
1036.050122682143
 20
4274.0136610839554
 30
0.0
 11
1036.050122682143
 21
3609.4132694442551
 31
0.0
  0
LINE
  5
133A
  8
SJC
 10
1002.050106663342
 20
4274.0136610839554
 30
0.0
 11
1002.050106663342
 21
3609.4132694442551
 31
0.0
  0
LINE
  5
133B
  8
SJC
 10
974.05003737294226
 20
4316.7130944114551
 30
0.0
 11
974.05003737294226
 21
4274.0136610839554
 31
0.0
  0
LINE
  5
133C
  8
SJC
 10
978.04993828024226
 20
4316.7130944114551
 30
0.0
 11
978.04993828024226
 21
4274.0136610839554
 31
0.0
  0
LINE
  5
133E
  8
SJC
 10
978.05012901504381
 20
3609.4132694442551
 30
0.0
 11
978.05012901504381
 21
3566.713073177255
 31
0.0
  0
LINE
  5
133F
  8
SJC
 10
974.05003737294226
 20
3609.4132694442551
 30
0.0
 11
974.05003737294226
 21
3566.713073177255
 31
0.0
  0
LINE
  5
1365
  8
SJC
 10
2800.0500373729428
 20
4316.713094411456
 30
0.0
 11
2800.0500373729442
 21
4274.0136610839554
 31
0.0
  0
LINE
  5
1369
  8
SJC
 10
1136.200122682143
 20
4274.0136610839554
 30
0.0
 11
1136.200122682143
 21
3609.4132694442551
 31
0.0
  0
LINE
  5
136A
  8
SJC
 10
1157.9001226821431
 20
4274.0136610839554
 30
0.0
 11
1157.9001226821431
 21
3609.4132694442551
 31
0.0
  0
LINE
  5
136B
  8
SJC
 10
1305.9001226821431
 20
4274.0136610839554
 30
0.0
 11
1305.9001226821431
 21
3609.4132694442551
 31
0.0
  0
LINE
  5
136C
  8
SJC
 10
1284.200122682143
 20
4274.0136610839554
 30
0.0
 11
1284.200122682143
 21
3609.4132694442551
 31
0.0
  0
LINE
  5
136F
  8
SJC
 10
1432.200122682143
 20
4274.0136610839554
 30
0.0
 11
1432.200122682143
 21
3609.4132694442551
 31
0.0
  0
LINE
  5
1370
  8
SJC
 10
1453.9001226821431
 20
4274.0136610839554
 30
0.0
 11
1453.9001226821431
 21
3609.4132694442551
 31
0.0
  0
LINE
  5
1372
  8
SJC
 10
1580.200122682143
 20
4274.0136610839554
 30
0.0
 11
1580.200122682143
 21
3609.4132694442551
 31
0.0
  0
LINE
  5
1373
  8
SJC
 10
1601.9001226821431
 20
4274.0136610839554
 30
0.0
 11
1601.9001226821431
 21
3609.4132694442551
 31
0.0
  0
LINE
  5
1375
  8
SJC
 10
1728.200122682143
 20
4274.0136610839554
 30
0.0
 11
1728.200122682143
 21
3609.4132694442551
 31
0.0
  0
LINE
  5
1376
  8
SJC
 10
1749.9001226821431
 20
4274.0136610839554
 30
0.0
 11
1749.9001226821431
 21
3609.4132694442551
 31
0.0
  0
LINE
  5
1378
  8
SJC
 10
1876.200122682143
 20
4274.0136610839554
 30
0.0
 11
1876.200122682143
 21
3609.4132694442551
 31
0.0
  0
LINE
  5
1379
  8
SJC
 10
1897.9001226821431
 20
4274.0136610839554
 30
0.0
 11
1897.9001226821431
 21
3609.4132694442551
 31
0.0
  0
LINE
  5
137B
  8
SJC
 10
2024.200122682143
 20
4274.0136610839554
 30
0.0
 11
2024.200122682143
 21
3609.4132694442551
 31
0.0
  0
LINE
  5
137C
  8
SJC
 10
2045.9001226821431
 20
4274.0136610839554
 30
0.0
 11
2045.9001226821431
 21
3609.4132694442551
 31
0.0
  0
LINE
  5
137E
  8
SJC
 10
2172.200122682143
 20
4274.0136610839554
 30
0.0
 11
2172.200122682143
 21
3609.4132694442551
 31
0.0
  0
LINE
  5
137F
  8
SJC
 10
2193.9001226821429
 20
4274.0136610839554
 30
0.0
 11
2193.9001226821429
 21
3609.4132694442551
 31
0.0
  0
LINE
  5
1381
  8
SJC
 10
2320.200122682143
 20
4274.0136610839554
 30
0.0
 11
2320.200122682143
 21
3609.4132694442551
 31
0.0
  0
LINE
  5
1382
  8
SJC
 10
2341.9001226821429
 20
4274.0136610839554
 30
0.0
 11
2341.9001226821429
 21
3609.4132694442551
 31
0.0
  0
LINE
  5
1384
  8
SJC
 10
2468.200122682143
 20
4274.0136610839554
 30
0.0
 11
2468.200122682143
 21
3609.4132694442551
 31
0.0
  0
LINE
  5
1385
  8
SJC
 10
2489.9001226821429
 20
4274.0136610839554
 30
0.0
 11
2489.9001226821429
 21
3609.4132694442551
 31
0.0
  0
LINE
  5
1389
  8
SJC
 10
2637.9001226821429
 20
4274.0136610839554
 30
0.0
 11
2637.9001226821429
 21
3609.4132694442551
 31
0.0
  0
LINE
  5
138A
  8
SJC
 10
2616.200122682143
 20
4274.0136610839554
 30
0.0
 11
2616.200122682143
 21
3609.4132694442551
 31
0.0
  0
LINE
  5
138D
  8
SJC
 10
2738.050122682143
 20
4274.0136610839554
 30
0.0
 11
2738.050122682143
 21
3609.4132694442551
 31
0.0
  0
LINE
  5
138E
  8
SJC
 10
2772.050122682143
 20
4274.0136610839554
 30
0.0
 11
2772.050122682143
 21
3609.4132694442551
 31
0.0
  0
LINE
  5
139E
  8
SJC
 10
2796.0500373729428
 20
4316.713094411456
 30
0.0
 11
2796.0500373729428
 21
4274.0136610839554
 31
0.0
  0
LINE
  5
139F
  8
SJC
 10
2800.0500373729419
 20
3609.4132694442569
 30
0.0
 11
2800.0500373729419
 21
3566.7130731772559
 31
0.0
  0
LINE
  5
13A0
  8
SJC
 10
2796.0500373729419
 20
3609.4132694442569
 30
0.0
 11
2796.0500373729419
 21
3566.7130731772559
 31
0.0
  0
DIMENSION
  5
144F
  8
SUNPOU
  2
*D12
 10
1019.050122682143
 20
4716.7132462170539
 30
0.0
 11
941.82537340324404
 21
4791.9171968540886
 31
0.0
 70
   128
  1
(45)
 13
974.05003737294226
 23
4316.7130944114551
 33
0.0
 14
1019.050122682143
 24
4274.0136610839554
 34
0.0
1001
ACAD
1000
DSTYLE
1002
{
1070
   287
1070
     5
1070
   287
1070
     5
1070
   287
1070
     5
1070
    40
1040
25.0
1070
    41
1040
2.0
1070
    42
1040
1.0
1070
    43
1040
6.0
1070
    44
1040
1.0
1070
    45
1040
0.1
1070
    73
1070
     0
1070
    74
1070
     0
1070
    77
1070
     1
1070
    78
1070
     8
1070
   140
1040
2.399999999999999
1070
   147
1040
1.1999999999999991
1070
   172
1070
     1
1070
   176
1070
   256
1070
   177
1070
   256
1070
   178
1070
   256
1070
   271
1070
     2
1070
   272
1070
     2
1070
   279
1070
     2
1070
   340
1005
5F2
1002
}
  0
DIMENSION
  5
146B
  8
SUNPOU
  2
*D13
 10
2627.050122682143
 20
4716.7132462170539
 30
0.0
 11
1887.050122682143
 21
4776.713246217053
 31
0.0
 70
     0
  1
10@148=1480
 13
1147.050122682143
 23
4274.0136610839554
 33
0.0
 14
2627.050122682143
 24
4274.0136610839563
 34
0.0
1001
ACAD
1000
DSTYLE
1002
{
1070
   287
1070
     5
1070
   287
1070
     5
1070
   287
1070
     5
1070
    40
1040
25.0
1070
    41
1040
2.0
1070
    42
1040
1.0
1070
    43
1040
6.0
1070
    44
1040
1.0
1070
    45
1040
0.1
1070
    73
1070
     0
1070
    74
1070
     0
1070
    77
1070
     1
1070
    78
1070
     8
1070
   140
1040
2.399999999999999
1070
   147
1040
1.1999999999999991
1070
   172
1070
     1
1070
   176
1070
   256
1070
   177
1070
   256
1070
   178
1070
   256
1070
   271
1070
     2
1070
   272
1070
     2
1070
   279
1070
     2
1070
   340
1005
5F2
1002
}
  0
DIMENSION
  5
147A
  8
SUNPOU
  2
*D14
 10
2755.050122682143
 20
4716.7132462170539
 30
0.0
 11
2647.799271246196
 21
4781.4181605571148
 31
0.0
 70
   128
 13
2627.050122682143
 23
4274.0136610839563
 33
0.0
 14
2755.050122682143
 24
4274.0136610839563
 34
0.0
1001
ACAD
1000
DSTYLE
1002
{
1070
   287
1070
     5
1070
   287
1070
     5
1070
   287
1070
     5
1070
    40
1040
25.0
1070
    41
1040
2.0
1070
    42
1040
1.0
1070
    43
1040
6.0
1070
    44
1040
1.0
1070
    45
1040
0.1
1070
    73
1070
     0
1070
    74
1070
     0
1070
    77
1070
     1
1070
    78
1070
     8
1070
   140
1040
2.399999999999999
1070
   147
1040
1.1999999999999991
1070
   172
1070
     1
1070
   173
1070
     1
1070
   176
1070
   256
1070
   177
1070
   256
1070
   178
1070
   256
1070
   271
1070
     2
1070
   272
1070
     2
1070
   279
1070
     2
1070
   340
1005
5F2
1070
     7
1000
NONE
1002
}
  0
DIMENSION
  5
1489
  8
SUNPOU
  2
*D15
 10
2800.0500373729428
 20
4716.7132462170539
 30
0.0
 11
2826.761843265991
 21
4794.3618933215093
 31
0.0
 70
   128
  1
(45)
 13
2755.050122682143
 23
4274.0136610839563
 33
0.0
 14
2800.0500373729428
 24
4316.713094411457
 34
0.0
1001
ACAD
1000
DSTYLE
1002
{
1070
   287
1070
     5
1070
   287
1070
     5
1070
   287
1070
     5
1070
    40
1040
25.0
1070
    41
1040
2.0
1070
    42
1040
1.0
1070
    43
1040
6.0
1070
    44
1040
1.0
1070
    45
1040
0.1
1070
    73
1070
     0
1070
    74
1070
     0
1070
    77
1070
     1
1070
    78
1070
     8
1070
   140
1040
2.399999999999999
1070
   147
1040
1.1999999999999991
1070
   172
1070
     1
1070
   176
1070
   256
1070
   177
1070
   256
1070
   178
1070
   256
1070
   271
1070
     2
1070
   272
1070
     2
1070
   279
1070
     2
1070
   340
1005
5F2
1002
}
  0
LINE
  5
14C6
  8
SJC
 10
4264.7941593933883
 20
4274.0136610839563
 30
0.0
 11
2974.0500373729442
 21
4274.0136610839554
 31
0.0
  0
LINE
  5
14C7
  8
SJC
 10
2974.0500373729442
 20
4316.7130944114551
 30
0.0
 11
4264.7941593933883
 21
4316.713094411457
 31
0.0
  0
LINE
  5
14C8
  8
SJC
 10
2974.0500373729442
 20
3566.713073177255
 30
0.0
 11
4264.7941593933874
 21
3566.713073177255
 31
0.0
  0
LINE
  5
14C9
  8
SJC
 10
2974.0500373729442
 20
3609.4132694442551
 30
0.0
 11
4264.7941593933874
 21
3609.4132694442569
 31
0.0
  0
LINE
  5
14D0
  8
SJC
 10
4045.9001226821438
 20
4274.0136610839554
 30
0.0
 11
4045.9001226821438
 21
3609.4132694442551
 31
0.0
  0
LINE
  5
14D1
  8
SJC
 10
4024.200122682144
 20
4274.0136610839554
 30
0.0
 11
4024.200122682144
 21
3609.4132694442551
 31
0.0
  0
LINE
  5
14D3
  8
SJC
 10
3897.9001226821451
 20
4274.0136610839554
 30
0.0
 11
3897.9001226821451
 21
3609.4132694442551
 31
0.0
  0
LINE
  5
14D4
  8
SJC
 10
3876.2001226821449
 20
4274.0136610839554
 30
0.0
 11
3876.2001226821449
 21
3609.4132694442551
 31
0.0
  0
LINE
  5
14D5
  8
SJC
 10
3749.9001226821438
 20
4274.0136610839554
 30
0.0
 11
3749.9001226821438
 21
3609.4132694442551
 31
0.0
  0
LINE
  5
14D6
  8
SJC
 10
3728.2001226821449
 20
4274.0136610839554
 30
0.0
 11
3728.2001226821449
 21
3609.4132694442551
 31
0.0
  0
LINE
  5
14D7
  8
SJC
 10
3601.9001226821438
 20
4274.0136610839554
 30
0.0
 11
3601.9001226821438
 21
3609.4132694442551
 31
0.0
  0
LINE
  5
14D8
  8
SJC
 10
3580.2001226821449
 20
4274.0136610839554
 30
0.0
 11
3580.2001226821449
 21
3609.4132694442551
 31
0.0
  0
LINE
  5
14E1
  8
SJC
 10
3284.2001226821449
 20
4274.0136610839554
 30
0.0
 11
3284.2001226821449
 21
3609.4132694442551
 31
0.0
  0
LINE
  5
14E2
  8
SJC
 10
3305.9001226821451
 20
4274.0136610839554
 30
0.0
 11
3305.9001226821451
 21
3609.4132694442551
 31
0.0
  0
LINE
  5
14E3
  8
SJC
 10
3157.9001226821451
 20
4274.0136610839554
 30
0.0
 11
3157.9001226821451
 21
3609.4132694442551
 31
0.0
  0
LINE
  5
14E4
  8
SJC
 10
3136.200122682144
 20
4274.0136610839554
 30
0.0
 11
3136.200122682144
 21
3609.4132694442551
 31
0.0
  0
LINE
  5
14E6
  8
SJC
 10
3453.9001226821438
 20
4274.0136610839554
 30
0.0
 11
3453.9001226821438
 21
3609.4132694442551
 31
0.0
  0
LINE
  5
14E7
  8
SJC
 10
3432.200122682144
 20
4274.0136610839554
 30
0.0
 11
3432.200122682144
 21
3609.4132694442551
 31
0.0
  0
LINE
  5
14E9
  8
SJC2
 10
2959.350482601044
 20
4181.7129426058536
 30
0.0
 11
2959.350482601044
 21
4146.7130944114551
 31
0.0
  0
LINE
  5
14EA
  8
CENTER
 10
2973.300067873743
 20
4200.9367284359541
 30
0.0
 11
2973.300067873743
 21
4092.1728405068538
 31
0.0
  0
LINE
  5
14ED
  8
SJC2
 10
2944.2999756728441
 20
4146.7130944114551
 30
0.0
 11
3002.0501066633442
 21
4146.7130944114551
 31
0.0
  0
LINE
  5
14EE
  8
SJC2
 10
2944.299975672845
 20
4111.7132462170548
 30
0.0
 11
2986.999790470044
 21
4111.7132462170548
 31
0.0
  0
LINE
  5
14F2
  8
SJC2
 10
2986.999790470044
 20
4146.7130944114551
 30
0.0
 11
2986.999790470044
 21
4111.7132462170548
 31
0.0
  0
LINE
  5
14F7
  8
SJC2
 10
2959.350482601044
 20
4181.7129426058536
 30
0.0
 11
3002.0501066633428
 21
4181.7129426058536
 31
0.0
  0
LINE
  5
14FC
  8
CENTER
 10
2973.300067873744
 20
3900.9370320471548
 30
0.0
 11
2973.300067873744
 21
3792.173144118055
 31
0.0
  0
LINE
  5
14FE
  8
SJC2
 10
2959.3504826010449
 20
3881.7132462170548
 30
0.0
 11
2959.3504826010449
 21
3846.7133980226558
 31
0.0
  0
LINE
  5
14FF
  8
SJC2
 10
2944.2999756728459
 20
3811.7135498282551
 30
0.0
 11
2986.999790470044
 21
3811.7135498282551
 31
0.0
  0
LINE
  5
1500
  8
SJC2
 10
2944.2999756728441
 20
3846.7133980226558
 30
0.0
 11
3002.0501066633442
 21
3846.7133980226549
 31
0.0
  0
LINE
  5
1506
  8
SJC2
 10
2986.999790470044
 20
3846.7133980226558
 30
0.0
 11
2986.999790470044
 21
3811.7135498282551
 31
0.0
  0
LINE
  5
1508
  8
SJC2
 10
2959.3504826010449
 20
3881.7132462170548
 30
0.0
 11
3002.0501066633442
 21
3881.7132462170548
 31
0.0
  0
LINE
  5
150D
  8
SJC
 10
3002.0501066633442
 20
4274.0136610839554
 30
0.0
 11
3002.0501066633442
 21
3609.4132694442551
 31
0.0
  0
LINE
  5
150E
  8
SJC
 10
3036.0501226821448
 20
4274.0136610839554
 30
0.0
 11
3036.0501226821448
 21
3609.4132694442551
 31
0.0
  0
POINT
  5
150F
  8
DEFPOINTS
  6
BYBLOCK
 62
     0
 10
2974.0500373729442
 20
3566.713073177255
 30
0.0
  0
POINT
  5
1510
  8
DEFPOINTS
  6
BYBLOCK
 62
     0
 10
2974.0500373729442
 20
3566.713073177255
 30
0.0
  0
LINE
  5
1511
  8
SJC
 10
2974.0500373729442
 20
3609.4132694442551
 30
0.0
 11
2974.0500373729442
 21
3566.713073177255
 31
0.0
  0
LINE
  5
1512
  8
SJC
 10
2978.0501290150451
 20
3609.4132694442551
 30
0.0
 11
2978.0501290150451
 21
3566.713073177255
 31
0.0
  0
LINE
  5
1513
  8
SJC
 10
2978.0499382802441
 20
4316.7130944114551
 30
0.0
 11
2978.0499382802441
 21
4274.0136610839554
 31
0.0
  0
LINE
  5
1514
  8
SJC
 10
2974.0500373729442
 20
4316.7130944114551
 30
0.0
 11
2974.0500373729442
 21
4274.0136610839554
 31
0.0
  0
INSERT
  5
151B
  8
0
  2
*U41
 10
0.0
 20
0.0
 30
0.0
1001
ACAD
1000
DSTYLE
1002
{
1070
     5
1000

1070
    40
1040
25.0
1070
    41
1040
2.0
1070
    42
1040
1.0
1070
    43
1040
6.0
1070
    44
1040
1.0
1070
    45
1040
0.1
1070
    73
1070
     0
1070
    74
1070
     0
1070
    77
1070
     1
1070
    78
1070
     8
1070
   140
1040
2.399999999999999
1070
   147
1040
1.1999999999999991
1070
   172
1070
     1
1070
   176
1070
   256
1070
   177
1070
   256
1070
   178
1070
   256
1070
   271
1070
     2
1070
   272
1070
     2
1070
   279
1070
     2
1070
   340
1005
5F2
1070
   342
1005
0
1002
}
  0
INSERT
  5
151C
  8
0
  2
*U42
 10
0.0
 20
0.0
 30
0.0
  0
INSERT
  5
151E
  8
0
  2
*U43
 10
0.0
 20
0.0
 30
0.0
  0
LINE
  5
151F
  8
SJC
 10
4264.7941593933874
 20
4440.4132462170537
 30
0.0
 11
2958.1499756728431
 21
4440.4132462170537
 31
0.0
  0
LINE
  5
1844
  8
SJC
 10
1410.989141771855
 20
1884.2210748703601
 30
0.0
 11
1410.989141771855
 21
1392.2210748703601
 31
0.0
  0
LINE
  5
1845
  8
SJC
 10
1392.989141771855
 20
1884.2210748703601
 30
0.0
 11
1392.989141771855
 21
1392.2210748703601
 31
0.0
  0
LINE
  5
1D9A
  8
SJC
 10
782.98893127204906
 20
897.42038905863683
 30
0.0
 11
782.98893127204906
 21
1177.4210748703599
 31
0.0
  0
LINE
  5
1D9B
  8
SJC
 10
893.58661632711426
 20
897.42038905863683
 30
0.0
 11
893.58661632711426
 21
1177.4210748703599
 31
0.0
  0
LINE
  5
1D9C
  8
HASEN
 10
880.85401070311332
 20
1177.4210748703599
 30
0.0
 11
880.85401070311332
 21
897.42038905863683
 31
0.0
  0
LINE
  5
1D9D
  8
HASEN
 10
796.72212882266319
 20
1177.4210748703599
 30
0.0
 11
796.72212882266319
 21
897.42038905863683
 31
0.0
  0
LINE
  5
1D9E
  8
CENTER
 10
838.7880697628874
 20
820.52739363876663
 30
0.0
 11
838.7880697628874
 21
1218.3700480001239
 31
0.0
  0
LINE
  5
1D9F
  8
HASEN
 10
814.75038922559759
 20
1153.383394333071
 30
0.0
 11
814.75038922559759
 21
897.42038905863683
 31
0.0
  0
LINE
  5
1DA0
  8
HASEN
 10
862.82575030017904
 20
1153.383394333071
 30
0.0
 11
862.82575030017904
 21
897.42038905863683
 31
0.0
  0
LINE
  5
1DA3
  8
SJC2
 10
867.58809838514424
 20
858.06059446549898
 30
0.0
 11
809.98608494916812
 21
858.05876053595887
 31
0.0
  0
POLYLINE
  5
1DA4
  8
SJC2
 66
     1
 10
0.0
 20
0.0
 30
0.0
  0
VERTEX
  5
5AE6
  8
SJC2
 10
873.98851228555702
 20
897.42038905863683
 30
0.0
  0
VERTEX
  5
5AE7
  8
SJC2
 10
873.98851228555702
 20
890.06083003789797
 30
0.0
  0
VERTEX
  5
5AE8
  8
SJC2
 10
803.58762724027895
 20
890.06083003789797
 30
0.0
  0
VERTEX
  5
5AE9
  8
SJC2
 10
803.58762724027895
 20
897.42038905863683
 30
0.0
  0
SEQEND
  5
5AEA
  8
SJC2
  0
POLYLINE
  5
1DAA
  8
SJC2
 66
     1
 10
0.0
 20
0.0
 30
0.0
  0
VERTEX
  5
5AEB
  8
SJC2
 10
857.98735527259987
 20
858.05973863172289
 30
0.0
  0
VERTEX
  5
5AEC
  8
SJC2
 10
857.98735527259987
 20
850.05916012524449
 30
0.0
  0
VERTEX
  5
5AED
  8
SJC2
 10
819.58780615747355
 20
850.05916012524449
 30
0.0
  0
VERTEX
  5
5AEE
  8
SJC2
 10
819.58780615747355
 20
858.05973863172289
 30
0.0
  0
SEQEND
  5
5AEF
  8
SJC2
  0
LINE
  5
1DB0
  8
SJC2
 10
816.3874769452799
 20
890.06083003789797
 30
0.0
 11
816.3874769452799
 21
858.05876053595887
 31
0.0
  0
LINE
  5
1DB1
  8
SJC2
 10
805.18485755918357
 20
862.85900983030763
 30
0.0
 11
805.18852541813658
 21
890.06083003789797
 31
0.0
  0
ARC
  5
1DB2
  8
SJC2
 10
809.98488238288246
 20
862.85878521434199
 30
0.0
 40
4.800024828954724
 50
179.9973188582
 51
270.01435450380001
  0
LINE
  5
1DB4
  8
SJC2
 10
872.38736958373045
 20
890.06083003789797
 30
0.0
 11
872.38834767943183
 21
862.86096602177076
 31
0.0
  0
LINE
  5
1DB5
  8
SJC2
 10
861.18768448473122
 20
890.06083003789797
 30
0.0
 11
861.18768448473122
 21
858.06059446549898
 31
0.0
  0
ARC
  5
1DB6
  8
SJC2
 10
867.58832286297388
 20
862.86061928919764
 30
0.0
 40
4.800024828954724
 50
269.9973205069
 51
0.0041387934
  0
LINE
  5
1DB7
  8
SJC
 10
722.7883620187115
 20
1037.4207319644979
 30
0.0
 11
953.78914177185516
 21
1037.4207319644979
 31
0.0
  0
LINE
  5
1DB8
  8
SJC
 10
722.78640582731305
 20
1177.4210748703599
 30
0.0
 11
893.58661632711426
 21
1177.4210748703599
 31
0.0
  0
POLYLINE
  5
1DB9
  8
HASEN
 66
     1
 10
0.0
 20
0.0
 30
0.0
  0
VERTEX
  5
5AF0
  8
HASEN
 10
802.73154895695325
 20
1177.4210748703599
 30
0.0
  0
VERTEX
  5
5AF1
  8
HASEN
 10
802.73154895695325
 20
1153.383394333071
 30
0.0
  0
VERTEX
  5
5AF2
  8
HASEN
 10
874.84459056882156
 20
1153.383394333071
 30
0.0
  0
VERTEX
  5
5AF3
  8
HASEN
 10
874.84459056882156
 20
1177.4210748703599
 30
0.0
  0
SEQEND
  5
5AF4
  8
HASEN
  0
ARC
  5
1DC0
  8
SJC2
 10
838.7880697628874
 20
1159.048695823659
 30
0.0
 40
39.706617403405609
 50
27.561678272000002
 51
152.43832172800001
  0
LINE
  5
1DC2
  8
SJC
 10
834.78796840650296
 20
1717.4261352302101
 30
0.0
 11
470.1667762647686
 21
1717.4261352302101
 31
0.0
  0
LINE
  5
1DC3
  8
SJC
 10
470.1667762647686
 20
1546.6261352302099
 30
0.0
 11
586.7887974139677
 21
1546.6261352302099
 31
0.0
  0
LINE
  5
1DC4
  8
CENTER
 10
428.21796228760491
 20
1632.02613523021
 30
0.0
 11
898.18268813881002
 21
1632.02613523021
 31
0.0
  0
ARC
  5
1DCD
  8
SJC
 10
525.71920829617443
 20
1589.32613523021
 30
0.0
 40
70.066844545790303
 50
142.4525636890335
 51
217.5474363109665
  0
ARC
  5
1DCE
  8
SJC
 10
425.59279976733359
 20
1674.72613523021
 30
0.0
 40
61.726245477874208
 50
316.23008543383901
 51
43.769914566160978
  0
ARC
  5
1DCF
  8
SJC
 10
521.61879285318423
 20
1674.72613523021
 30
0.0
 40
66.862545651607959
 50
140.31073834429651
 51
219.6892616557034
  0
LINE
  5
1DD2
  8
SJC
 10
722.7883620187115
 20
1546.6261352302099
 30
0.0
 11
834.78796840650296
 21
1546.6261352302099
 31
0.0
  0
ARC
  5
1DD3
  8
SJC
 10
654.78857971637035
 20
1508.2003135968459
 30
0.0
 40
78.105788270638641
 50
29.470244963799999
 51
150.52975503619999
  0
LINE
  5
1DD4
  8
SJC
 10
818.78796840650318
 20
1717.4261352302101
 30
0.0
 11
818.78796840650318
 21
1546.6261352302099
 31
0.0
  0
LINE
  5
1DD5
  8
SJC
 10
834.78796840650296
 20
1717.4261352302101
 30
0.0
 11
834.78796840650296
 21
1546.6261352302099
 31
0.0
  0
LINE
  5
1DD6
  8
SJC
 10
722.7883620187115
 20
1546.6261352302099
 30
0.0
 11
722.7883620187115
 21
656.27151231072139
 31
0.0
  0
LINE
  5
1DD7
  8
SJC
 10
586.7887974139677
 20
1546.6261352302099
 30
0.0
 11
586.7887974139677
 21
656.27151231072139
 31
0.0
  0
LINE
  5
1DD8
  8
CENTER
 10
654.78796840650296
 20
1632.02613523021
 30
0.0
 11
654.78796840650296
 21
606.34438082424094
 31
0.0
  0
LINE
  5
1DDA
  8
SJC
 10
782.98893127204906
 20
897.42038905863683
 30
0.0
 11
953.78914177185516
 21
897.42038905863683
 31
0.0
  0
ARC
  5
1DDB
  8
SJC
 10
620.7883829102152
 20
690.30166113099597
 30
0.0
 40
48.104291312175107
 50
225.02574094069999
 51
314.97425905929998
  0
ARC
  5
1DDC
  8
SJC
 10
688.78816521261876
 20
687.77046648787132
 30
0.0
 40
46.348651513392078
 50
222.81308547259999
 51
317.18691452740001
  0
ARC
  5
1DDD
  8
SJC
 10
688.78816521261876
 20
629.16783524504012
 30
0.0
 40
43.481291302538231
 50
38.5605338031
 51
141.43946619690001
  0
LINE
  5
1DE2
  8
SJC
 10
1410.989141771855
 20
641.08803038608778
 30
0.0
 11
1410.989141771855
 21
657.11315074421611
 31
0.0
  0
LINE
  5
1DE3
  8
SJC
 10
1410.989141771855
 20
743.13593618510026
 30
0.0
 11
1410.989141771855
 21
759.1610565432286
 31
0.0
  0
LINE
  5
1DE4
  8
SJC
 10
1410.989141771855
 20
1037.421587798274
 30
0.0
 11
1581.7886186998689
 21
1037.421587798274
 31
0.0
  0
LINE
  5
1DE6
  8
SJC
 10
1410.989141771855
 20
897.42210072618877
 30
0.0
 11
1581.7886186998689
 21
897.42210072618877
 31
0.0
  0
LINE
  5
1DE9
  8
SJC
 10
1471.1916672166581
 20
1037.421587798274
 30
0.0
 11
1471.1916672166581
 21
897.42210072618877
 31
0.0
  0
LINE
  5
1DEA
  8
HASEN
 10
1484.42432427996
 20
1037.421587798274
 30
0.0
 11
1484.42432427996
 21
897.42210072618877
 31
0.0
  0
LINE
  5
1DEE
  8
CENTER
 10
1526.9898276117949
 20
884.71810440213903
 30
0.0
 11
1526.9898276117949
 21
1075.8981619517749
 31
0.0
  0
LINE
  5
1DF0
  8
SJC
 10
1581.7886186998689
 20
1037.421587798274
 30
0.0
 11
1581.7886186998689
 21
897.42210072618877
 31
0.0
  0
LINE
  5
1DF1
  8
HASEN
 10
1569.0557685520209
 20
897.42210072618877
 30
0.0
 11
1569.0557685520209
 21
1037.641903860319
 31
0.0
  0
LINE
  5
1DF2
  8
SJC
 10
2239.3059547983671
 20
1177.4210748703599
 30
0.0
 11
2410.1051872024741
 21
1177.4210748703599
 31
0.0
  0
LINE
  5
1DF5
  8
SJC
 10
2349.902906281643
 20
1177.4210748703599
 30
0.0
 11
2349.902906281643
 21
1037.421587798274
 31
0.0
  0
LINE
  5
1DF6
  8
HASEN
 10
2336.6707382661598
 20
1037.421587798274
 30
0.0
 11
2336.6707382661598
 21
1177.6413909324051
 31
0.0
  0
LINE
  5
1DF8
  8
SJC
 10
2239.3059547983671
 20
1177.4210748703599
 30
0.0
 11
2239.3059547983671
 21
1037.421587798274
 31
0.0
  0
LINE
  5
1DF9
  8
CENTER
 10
2294.20479732593
 20
1191.7433305713889
 30
0.0
 11
2294.20479732593
 21
1009.802487501966
 31
0.0
  0
LINE
  5
1DFA
  8
HASEN
 10
2252.5388563856432
 20
1177.4210748703599
 30
0.0
 11
2252.5388563856432
 21
1037.421587798274
 31
0.0
  0
LINE
  5
1DFE
  8
SJC
 10
2239.3059547983671
 20
1037.421587798274
 30
0.0
 11
2410.1051872024741
 21
1037.421587798274
 31
0.0
  0
LINE
  5
1E02
  8
SJC
 10
2546.1047518072141
 20
1546.6233232050349
 30
0.0
 11
2546.1047518072141
 21
656.08424922407448
 31
0.0
  0
LINE
  5
1E03
  8
SJC
 10
2410.1051872024741
 20
1546.6233232050349
 30
0.0
 11
2410.1051872024741
 21
656.08424922407448
 31
0.0
  0
LINE
  5
1E04
  8
CENTER
 10
2478.1055808146798
 20
579.77207412815574
 30
0.0
 11
2478.1055808146798
 21
1632.023323205035
 31
0.0
  0
ARC
  5
1E07
  8
SJC
 10
2512.1051663109461
 20
721.64539685900957
 30
0.0
 40
73.852798817173593
 50
242.58903852629999
 51
297.41096147370001
  0
ARC
  5
1E08
  8
SJC
 10
2512.1051663109461
 20
622.36164655353173
 30
0.0
 40
47.8872190129361
 50
44.765662349999992
 51
135.23433764999999
  0
ARC
  5
1E09
  8
SJC
 10
2444.10550627053
 20
697.48979341466395
 30
0.0
 40
53.576339542107469
 50
230.60894381270001
 51
309.39105618730002
  0
LINE
  5
1E10
  8
CENTER
 10
2245.5339812854731
 20
1632.023323205035
 30
0.0
 11
2825.0542292385389
 21
1632.023323205035
 31
0.0
  0
LINE
  5
1E12
  8
SJC
 10
2298.1055808146812
 20
1717.4233232050351
 30
0.0
 11
2773.2542796431899
 21
1717.4233232050351
 31
0.0
  0
LINE
  5
1E13
  8
SJC
 10
2298.1055808146812
 20
1546.6233232050349
 30
0.0
 11
2410.1051872024741
 21
1546.6233232050349
 31
0.0
  0
LINE
  5
1E1C
  8
SJC
 10
2314.1055808146798
 20
1546.6233232050349
 30
0.0
 11
2314.1055808146821
 21
1717.4233232050351
 31
0.0
  0
LINE
  5
1E1D
  8
SJC
 10
2298.1055808146798
 20
1546.6233232050349
 30
0.0
 11
2298.1055808146812
 21
1717.4233232050351
 31
0.0
  0
LINE
  5
1E1E
  8
SJC
 10
2410.1054317263788
 20
1368.7182593829939
 30
0.0
 11
2410.1054317263788
 21
1384.7433797411879
 31
0.0
  0
LINE
  5
1E22
  8
SJC
 10
2546.1047518072141
 20
1546.6233232050349
 30
0.0
 11
2773.2542796432908
 21
1546.6233232050561
 31
0.0
  0
ARC
  5
1E23
  8
SJC
 10
2478.104969504875
 20
1508.197501571671
 30
0.0
 40
78.105788270638641
 50
29.470244963799999
 51
150.52975503619999
  0
ARC
  5
1E24
  8
SJC
 10
2697.6531028248191
 20
1589.3233232049561
 30
0.0
 40
86.826424182533032
 50
330.5419771235853
 51
29.458022876549091
  0
ARC
  5
1E25
  8
SJC
 10
2862.9801701169149
 20
1589.32332320515
 30
0.0
 40
99.368130813105523
 50
154.55051019803389
 51
205.44948980210049
  0
ARC
  5
1E26
  8
SJC
 10
2709.3430409058469
 20
1674.7233232050351
 30
0.0
 40
76.863101921203722
 50
326.25255632968828
 51
33.747443670311682
  0
ARC
  5
1EBE
  8
SJC
 10
1287.689141771855
 20
671.8868331225309
 30
0.0
 40
157.94999999999999
 50
228.1896851042213
 51
311.81031489577867
  0
ARC
  5
1EBF
  8
SJC
 10
1296.689141771855
 20
681.94913902127996
 30
0.0
 40
171.44999999999999
 50
228.18968510422141
 51
311.81031489577862
  0
ARC
  5
1EC0
  8
SJC
 10
1068.089141771856
 20
426.36656919305432
 30
0.0
 40
171.44999999999999
 50
48.189685104221368
 51
131.81031489577859
  0
ARC
  5
1EC1
  8
SJC
 10
1068.089141771856
 20
681.94913902127996
 30
0.0
 40
171.44999999999999
 50
228.18968510422141
 51
311.81031489577862
  0
ARC
  5
1EC2
  8
SJC
 10
1077.0891417718551
 20
436.42887509180309
 30
0.0
 40
157.94999999999999
 50
48.189685104221439
 51
131.8103148957785
  0
ARC
  5
1EC3
  8
SJC
 10
1077.0891417718551
 20
671.88683312253147
 30
0.0
 40
157.94999999999999
 50
228.18968510422141
 51
311.8103148957785
  0
LINE
  5
268D
  8
MOJI
 10
411.40954438973222
 20
1336.6754822599901
 30
0.0
 11
411.40954438973222
 21
1224.7257403339311
 31
0.0
  0
POLYLINE
  5
268E
  8
MOJI
 66
     1
 10
0.0
 20
0.0
 30
0.0
  0
VERTEX
  5
5AF5
  8
MOJI
 10
411.40954438973222
 20
1224.7257403339311
 30
0.0
  0
VERTEX
  5
5AF6
  8
MOJI
 10
387.80114089648208
 20
1294.7896790433181
 30
0.0
  0
VERTEX
  5
5AF7
  8
MOJI
 10
415.21724048162099
 20
1306.212958353329
 30
0.0
  0
SEQEND
  5
5AF8
  8
MOJI
  0
TEXT
  5
2693
  8
MOJI
 10
449.33449785370971
 20
1245.7560414564209
 30
0.0
 40
75.0
  1
A
 41
0.8
  7
EXT08
 11
449.33449785370971
 21
1283.2560414564209
 31
0.0
 73
     2
  0
LINE
  5
2694
  8
MOJI
 10
411.40954438973222
 20
1336.6754822599901
 30
0.0
 11
518.02809151160909
 21
1336.6754822599901
 31
0.0
  0
LINE
  5
26BF
  8
MOJI
 10
1811.1188512086569
 20
1336.6754822599901
 30
0.0
 11
1811.1188512086569
 21
1224.7257403339311
 31
0.0
  0
POLYLINE
  5
26C0
  8
MOJI
 66
     1
 10
0.0
 20
0.0
 30
0.0
  0
VERTEX
  5
5AF9
  8
MOJI
 10
1811.1188512086569
 20
1224.7257403339311
 30
0.0
  0
VERTEX
  5
5AFA
  8
MOJI
 10
1834.727254701902
 20
1294.7896790433181
 30
0.0
  0
VERTEX
  5
5AFB
  8
MOJI
 10
1807.3111551167669
 20
1306.212958353329
 30
0.0
  0
SEQEND
  5
5AFC
  8
MOJI
  0
TEXT
  5
26C5
  8
MOJI
 10
1724.700892245713
 20
1245.756041456423
 30
0.0
 40
75.0
  1
A
 41
0.8
  7
EXT08
 11
1724.700892245713
 21
1283.256041456423
 31
0.0
 73
     2
  0
LINE
  5
26C7
  8
MOJI
 10
1811.1188512086569
 20
1336.6754822599901
 30
0.0
 11
1704.5003040867739
 21
1336.6754822599901
 31
0.0
  0
TEXT
  5
26F7
  8
MOJI2
 10
3376.3611430956262
 20
2763.996730847693
 30
0.0
 40
75.0
  1
A-A断面
 41
0.8
  7
EXT08
 11
3376.3611430956262
 21
2801.496730847693
 31
0.0
 73
     2
  0
LINE
  5
26F8
  8
MOJI2
 10
3357.4356665984228
 20
2733.5264542877908
 30
0.0
 11
3691.984604229614
 21
2733.5264542877908
 31
0.0
  0
TEXT
  5
274D
  8
MOJI2
 10
3349.8446987027278
 20
1570.4744743111819
 30
0.0
 40
75.0
  1
B-B断面
 41
0.8
  7
EXT08
 11
3349.8446987027278
 21
1607.9744743111819
 31
0.0
 73
     2
  0
LINE
  5
274E
  8
MOJI2
 10
3346.9886347961292
 20
1545.7801338732741
 30
0.0
 11
3695.1490523549369
 21
1545.7801338732741
 31
0.0
  0
TEXT
  5
2850
  8
MOJI
 10
1789.143708222023
 20
743.37450237611483
 30
0.0
 40
60.0
  1
取付金具
 41
0.8
  7
EXT08
 11
1789.143708222023
 21
773.37450237611483
 31
0.0
 73
     2
  0
LINE
  5
2851
  8
MOJI
 10
1682.3461468467619
 20
718.21437530111507
 30
0.0
 11
2039.290998451118
 21
718.21437530111507
 31
0.0
  0
LINE
  5
2857
  8
MOJI
 10
1524.0210561980959
 20
1459.1616464849419
 30
0.0
 11
2117.2485613264871
 21
1459.1616464849419
 31
0.0
  0
TEXT
  5
2858
  8
MOJI
 10
1641.4791467800901
 20
1491.481663455942
 30
0.0
 40
60.0
  1
%%C114.3×t4.5
 41
0.8
  7
EXT08
 11
1641.4791467800901
 21
1521.481663455942
 31
0.0
 73
     2
  0
TEXT
  5
285E
  8
MOJI
 10
195.6430963022278
 20
1472.3128179172641
 30
0.0
 40
60.0
  1
角根ボルト
 41
0.8
  7
EXT08
 11
195.6430963022278
 21
1502.3128179172641
 31
0.0
 73
     2
  0
LINE
  5
285F
  8
MOJI
 10
480.83921263516061
 20
1454.312817917265
 30
0.0
 11
82.098716770698957
 21
1454.3128179172641
 31
0.0
  0
TEXT
  5
2866
  8
MOJI
 10
2299.1757826172552
 20
1915.9925142349721
 30
0.0
 40
60.0
  1
格子パネル
 41
0.8
  7
EXT08
 11
2299.1757826172552
 21
1945.9925142349721
 31
0.0
 73
     2
  0
LINE
  5
2867
  8
MOJI
 10
2595.1064844444791
 20
1887.7870087988961
 30
0.0
 11
2181.4106827158721
 21
1887.7870087988949
 31
0.0
  0
DIMENSION
  5
2891
  8
SUNPOU
  2
*D16
 10
2942.5460220111768
 20
1037.421587798274
 30
0.0
 11
2882.5460220111768
 21
1377.4224555016549
 31
0.0
 70
     0
 13
2773.2542796432499
 23
1717.4233232050351
 33
0.0
 14
2410.1051872024741
 24
1037.421587798274
 34
0.0
 50
90.0
1001
ACAD
1000
DSTYLE
1002
{
1070
   287
1070
     5
1070
   287
1070
     5
1070
   287
1070
     5
1070
    40
1040
25.0
1070
    41
1040
2.0
1070
    42
1040
1.0
1070
    43
1040
6.0
1070
    44
1040
1.0
1070
    45
1040
0.1
1070
    73
1070
     0
1070
    74
1070
     0
1070
    77
1070
     1
1070
    78
1070
     8
1070
   140
1040
2.399999999999999
1070
   144
1040
0.25
1070
   147
1040
1.1999999999999991
1070
   172
1070
     1
1070
   176
1070
   256
1070
   177
1070
   256
1070
   178
1070
   256
1070
   271
1070
     2
1070
   272
1070
     2
1070
   279
1070
     2
1070
   340
1005
5F2
1002
}
  0
LINE
  5
2953
  8
0
  6
BYBLOCK
 10
2410.1054317263788
 20
1393.7182593829939
 30
0.0
 11
2410.1054317263788
 21
1393.7182593829939
 31
0.0
  0
POINT
  5
2959
  8
DEFPOINTS
  6
BYBLOCK
 62
     0
 10
2410.1054317263788
 20
1368.7182593829939
 30
0.0
  0
POINT
  5
295A
  8
DEFPOINTS
  6
BYBLOCK
 62
     0
 10
2239.3059547983671
 20
1177.4210748703599
 30
0.0
  0
DIMENSION
  5
2976
  8
SUNPOU
  2
*D17
 10
2239.3059547983671
 20
1360.665306987976
 30
0.0
 11
2324.7055710004202
 21
1425.309251015869
 31
0.0
 70
   128
 13
2410.1051872024741
 23
1177.4210748703599
 33
0.0
 14
2239.3059547983671
 24
1177.4210748703599
 34
0.0
1001
ACAD
1000
DSTYLE
1002
{
1070
   287
1070
     5
1070
   287
1070
     5
1070
   287
1070
     5
1070
    40
1040
25.0
1070
    41
1040
2.0
1070
    42
1040
1.0
1070
    43
1040
6.0
1070
    44
1040
1.0
1070
    45
1040
0.1
1070
    73
1070
     0
1070
    74
1070
     0
1070
    77
1070
     1
1070
    78
1070
     8
1070
   140
1040
2.399999999999999
1070
   144
1040
0.25
1070
   147
1040
1.1999999999999991
1070
   172
1070
     1
1070
   176
1070
   256
1070
   177
1070
   256
1070
   178
1070
   256
1070
   271
1070
     2
1070
   272
1070
     2
1070
   279
1070
     2
1070
   340
1005
5F2
1002
}
  0
DIMENSION
  5
2985
  8
SUNPOU
  2
*D18
 10
2294.20479732593
 20
1239.809206493466
 30
0.0
 11
2352.8679235479758
 21
1307.2637723959269
 31
0.0
 70
   128
 13
2410.1051872024741
 23
1177.4210748703599
 33
0.0
 14
2294.20479732593
 24
1191.7433305713889
 34
0.0
1001
ACAD
1000
DSTYLE
1002
{
1070
   287
1070
     5
1070
   287
1070
     5
1070
   287
1070
     5
1070
    40
1040
25.0
1070
    41
1040
2.0
1070
    42
1040
1.0
1070
    43
1040
6.0
1070
    44
1040
1.0
1070
    45
1040
0.1
1070
    73
1070
     0
1070
    74
1070
     0
1070
    77
1070
     0
1070
    78
1070
     8
1070
   140
1040
2.399999999999999
1070
   144
1040
0.25
1070
   145
1040
1.0
1070
   147
1040
0.0
1070
   172
1070
     1
1070
   176
1070
   256
1070
   177
1070
   256
1070
   178
1070
   256
1070
   271
1070
     2
1070
   272
1070
     2
1070
   279
1070
     2
1070
   340
1005
5F2
1002
}
  0
DIMENSION
  5
29D1
  8
SUNPOU
  2
*D19
 10
2158.6513282430719
 20
1037.421587798274
 30
0.0
 11
2098.651328243071
 21
1107.4213313343171
 31
0.0
 70
     0
 13
2252.5388563856432
 23
1177.4210748703599
 33
0.0
 14
2239.3059547983671
 24
1037.421587798274
 34
0.0
 50
90.0
1001
ACAD
1000
DSTYLE
1002
{
1070
   287
1070
     5
1070
   287
1070
     5
1070
   287
1070
     5
1070
    40
1040
25.0
1070
    41
1040
2.0
1070
    42
1040
1.0
1070
    43
1040
6.0
1070
    44
1040
1.0
1070
    45
1040
0.1
1070
    73
1070
     0
1070
    74
1070
     0
1070
    77
1070
     0
1070
    78
1070
     8
1070
   140
1040
2.399999999999999
1070
   144
1040
0.25
1070
   145
1040
1.0
1070
   147
1040
0.0
1070
   172
1070
     1
1070
   176
1070
   256
1070
   177
1070
   256
1070
   178
1070
   256
1070
   271
1070
     2
1070
   272
1070
     2
1070
   279
1070
     2
1070
   340
1005
5F2
1002
}
  0
DIMENSION
  5
29ED
  8
SUNPOU
  2
*D20
 10
1410.989141771855
 20
599.0467471078573
 30
0.0
 11
1496.388880235862
 21
660.31036284672325
 31
0.0
 70
   128
 13
1581.7886186998689
 23
897.42210072618877
 33
0.0
 14
1410.989141771855
 24
897.42210072618877
 34
0.0
1001
ACAD
1000
DSTYLE
1002
{
1070
   287
1070
     5
1070
   287
1070
     5
1070
   287
1070
     5
1070
    40
1040
25.0
1070
    41
1040
2.0
1070
    42
1040
1.0
1070
    43
1040
6.0
1070
    44
1040
1.0
1070
    45
1040
0.1
1070
    73
1070
     0
1070
    74
1070
     0
1070
    77
1070
     1
1070
    78
1070
     8
1070
   140
1040
2.399999999999999
1070
   144
1040
0.25
1070
   147
1040
1.1999999999999991
1070
   172
1070
     1
1070
   176
1070
   256
1070
   177
1070
   256
1070
   178
1070
   256
1070
   271
1070
     2
1070
   272
1070
     2
1070
   279
1070
     2
1070
   340
1005
5F2
1002
}
  0
DIMENSION
  5
29FC
  8
SUNPOU
  2
*D21
 10
1410.989141771855
 20
741.82958675771431
 30
0.0
 11
1468.9894846918251
 21
797.439493948159
 31
0.0
 70
   128
 13
1526.9898276117949
 23
897.42210072618877
 33
0.0
 14
1410.989141771855
 24
897.42210072618877
 34
0.0
1001
ACAD
1000
DSTYLE
1002
{
1070
   287
1070
     5
1070
   287
1070
     5
1070
   287
1070
     5
1070
    40
1040
25.0
1070
    41
1040
2.0
1070
    42
1040
1.0
1070
    43
1040
6.0
1070
    44
1040
1.0
1070
    45
1040
0.1
1070
    73
1070
     0
1070
    74
1070
     0
1070
    77
1070
     0
1070
    78
1070
     8
1070
   140
1040
2.399999999999999
1070
   144
1040
0.25
1070
   145
1040
1.0
1070
   147
1040
0.0
1070
   172
1070
     1
1070
   176
1070
   256
1070
   177
1070
   256
1070
   178
1070
   256
1070
   271
1070
     2
1070
   272
1070
     2
1070
   279
1070
     2
1070
   340
1005
5F2
1002
}
  0
DIMENSION
  5
2A3D
  8
SUNPOU
  2
*D22
 10
1721.3496929633179
 20
1037.421587798274
 30
0.0
 11
1670.684504409342
 21
967.42184426223173
 31
0.0
 70
   128
 13
1581.7886186998689
 23
897.42210072618877
 33
0.0
 14
1581.7886186998689
 24
1037.421587798274
 34
0.0
 50
90.0
1001
ACAD
1000
DSTYLE
1002
{
1070
   287
1070
     5
1070
   287
1070
     5
1070
   287
1070
     5
1070
    40
1040
25.0
1070
    41
1040
2.0
1070
    42
1040
1.0
1070
    43
1040
6.0
1070
    44
1040
1.0
1070
    45
1040
0.1
1070
    73
1070
     0
1070
    74
1070
     0
1070
    77
1070
     0
1070
    78
1070
     8
1070
   140
1040
2.399999999999999
1070
   144
1040
0.25
1070
   145
1040
1.0
1070
   147
1040
0.0
1070
   172
1070
     1
1070
   176
1070
   256
1070
   177
1070
   256
1070
   178
1070
   256
1070
   271
1070
     2
1070
   272
1070
     2
1070
   279
1070
     2
1070
   340
1005
5F2
1002
}
  0
LINE
  5
2A65
  8
MOJI
 10
2027.956160915104
 20
1336.6754822599901
 30
0.0
 11
2027.956160915104
 21
1224.7257403339311
 31
0.0
  0
POLYLINE
  5
2A66
  8
MOJI
 66
     1
 10
0.0
 20
0.0
 30
0.0
  0
VERTEX
  5
5B3C
  8
MOJI
 10
2027.956160915104
 20
1224.7257403339311
 30
0.0
  0
VERTEX
  5
5B3D
  8
MOJI
 10
2004.347757421853
 20
1294.7896790433181
 30
0.0
  0
VERTEX
  5
5B3E
  8
MOJI
 10
2031.7638570069921
 20
1306.212958353329
 30
0.0
  0
SEQEND
  5
5B3F
  8
MOJI
  0
TEXT
  5
2A6B
  8
MOJI
 10
2065.8811143790808
 20
1245.7560414564209
 30
0.0
 40
75.0
  1
B
 41
0.8
  7
EXT08
 11
2065.8811143790808
 21
1283.2560414564209
 31
0.0
 73
     2
  0
LINE
  5
2A6C
  8
MOJI
 10
2027.956160915104
 20
1336.6754822599901
 30
0.0
 11
2134.5747080369802
 21
1336.6754822599901
 31
0.0
  0
LINE
  5
2A6D
  8
MOJI
 10
2728.585515530538
 20
1336.6754822599901
 30
0.0
 11
2728.585515530538
 21
1224.7257403339311
 31
0.0
  0
POLYLINE
  5
2A6E
  8
MOJI
 66
     1
 10
0.0
 20
0.0
 30
0.0
  0
VERTEX
  5
5B40
  8
MOJI
 10
2728.585515530538
 20
1224.7257403339311
 30
0.0
  0
VERTEX
  5
5B41
  8
MOJI
 10
2752.1939190237831
 20
1294.7896790433181
 30
0.0
  0
VERTEX
  5
5B42
  8
MOJI
 10
2724.7778194386478
 20
1306.212958353329
 30
0.0
  0
SEQEND
  5
5B43
  8
MOJI
  0
TEXT
  5
2A73
  8
MOJI
 10
2642.1675565675941
 20
1245.756041456423
 30
0.0
 40
75.0
  1
B
 41
0.8
  7
EXT08
 11
2642.1675565675941
 21
1283.256041456423
 31
0.0
 73
     2
  0
LINE
  5
2A74
  8
MOJI
 10
2728.585515530538
 20
1336.6754822599901
 30
0.0
 11
2621.9669684086548
 21
1336.6754822599901
 31
0.0
  0
CIRCLE
  5
2A7B
  8
MOJI
 10
2077.7248739582142
 20
2681.8092469059052
 30
0.0
 40
48.0
  0
TEXT
  5
2A7C
  8
MOJI
 10
2056.2655230652708
 20
2651.8092469059052
 30
0.0
 40
60.0
  1
3
 41
0.8
  7
EXT08
 72
     4
 11
2079.1226659224139
 21
2681.8092469059052
 31
0.0
  0
CIRCLE
  5
2A7E
  8
MOJI
 10
1477.24579378968
 20
2765.7820052614229
 30
0.0
 40
48.0
  0
TEXT
  5
2A7F
  8
MOJI
 10
1455.7864428967371
 20
2735.7820052614229
 30
0.0
 40
60.0
  1
4
 41
0.8
  7
EXT08
 72
     4
 11
1479.7864428967371
 21
2765.7820052614229
 31
0.0
  0
TEXT
  5
2A81
  8
MOJI
 10
517.02002322955741
 20
2774.0397555882341
 30
0.0
 40
60.0
  1
8
 41
0.8
  7
EXT08
 72
     4
 11
539.87716608670019
 21
2804.0397555882341
 31
0.0
  0
CIRCLE
  5
2A82
  8
MOJI
 10
538.4793741225003
 20
2804.0397555882341
 30
0.0
 40
48.0
  0
CIRCLE
  5
2A83
  8
MOJI
 10
481.00449678410939
 20
2648.0119992028981
 30
0.0
 40
48.0
  0
TEXT
  5
2A84
  8
MOJI
 10
433.67490333896779
 20
2618.0119992028981
 30
0.0
 40
60.0
  1
11
 41
0.8
  7
EXT08
 72
     4
 11
475.96061762468207
 21
2648.0119992028981
 31
0.0
  0
TEXT
  5
2A87
  8
MOJI
 10
1535.47051775824
 20
2079.51153492509
 30
0.0
 40
60.0
  1
10
 41
0.8
  7
EXT08
 72
     4
 11
1584.6133749010969
 21
2109.51153492509
 31
0.0
  0
CIRCLE
  5
2A88
  8
MOJI
 10
1581.562868224795
 20
2109.51153492509
 30
0.0
 40
48.0
  0
CIRCLE
  5
2A89
  8
MOJI
 10
1558.812973877797
 20
1895.5977548834001
 30
0.0
 40
48.0
  0
TEXT
  5
2A8A
  8
MOJI
 10
1537.3536229848539
 20
1865.5977548834001
 30
0.0
 40
60.0
  1
9
 41
0.8
  7
EXT08
 72
     4
 11
1559.0679086991399
 21
1895.5977548834001
 31
0.0
  0
TEXT
  5
2A8B
  8
MOJI
 10
1557.726601132206
 20
1491.047615420892
 30
0.0
 40
60.0
  1
1
 41
0.8
  7
EXT08
 72
     4
 11
1577.1551725607781
 21
1521.047615420892
 31
0.0
  0
CIRCLE
  5
2A8C
  8
MOJI
 10
1579.1859520251489
 20
1521.047615420892
 30
0.0
 40
48.0
  0
CIRCLE
  5
2A8D
  8
MOJI
 10
1727.3226732362059
 20
772.08791451891284
 30
0.0
 40
48.0
  0
TEXT
  5
2A8E
  8
MOJI
 10
1705.863322343263
 20
742.08791451891284
 30
0.0
 40
60.0
  1
6
 41
0.8
  7
EXT08
 72
     4
 11
1729.863322343263
 21
772.08791451891284
 31
0.0
  0
CIRCLE
  5
2A8F
  8
MOJI
 10
133.68259429607491
 20
1509.418983963383
 30
0.0
 40
48.0
  0
TEXT
  5
2A90
  8
MOJI
 10
112.2232434031321
 20
1479.4189839633841
 30
0.0
 40
60.0
  1
7
 41
0.8
  7
EXT08
 72
     4
 11
135.08038626027491
 21
1509.418983963383
 31
0.0
  0
CIRCLE
  5
2A91
  8
MOJI
 10
505.02318861836102
 20
2076.7849836282262
 30
0.0
 40
48.0
  0
TEXT
  5
2A92
  8
MOJI
 10
483.56383772541813
 20
2046.784983628226
 30
0.0
 40
60.0
  1
5
 41
0.8
  7
EXT08
 72
     4
 11
506.42098058256101
 21
2076.7849836282262
 31
0.0
  0
CIRCLE
  5
2A93
  8
MOJI
 10
2240.8362935723198
 20
1945.2459250532449
 30
0.0
 40
48.0
  0
TEXT
  5
2A94
  8
MOJI
 10
2219.376942679377
 20
1915.2459250532449
 30
0.0
 40
60.0
  1
2
 41
0.8
  7
EXT08
 72
     4
 11
2242.2340855365192
 21
1945.2459250532449
 31
0.0
  0
LINE
  5
2A99
  8
MOJI
 10
1578.4625293175679
 20
3276.1263506834798
 30
0.0
 11
1989.680391362966
 21
3276.1263506834798
 31
0.0
  0
TEXT
  5
2A9A
  8
MOJI
 10
1581.2064823461881
 20
3297.592517965295
 30
0.0
 40
60.0
  1
 %%C42.7×t2.3
 41
0.8
  7
EXT08
 11
1581.2064823461881
 21
3327.592517965295
 31
0.0
 73
     2
  0
DIMENSION
  5
2FAB
  8
SUNPOU
  2
*D24
 10
5274.778613731266
 20
2567.7767976291129
 30
0.0
 11
5124.7786137312651
 21
2629.382382147694
 31
0.0
 70
   128
 13
4974.778613731266
 23
2826.7132462170539
 33
0.0
 14
5274.778613731266
 24
2826.7132462170539
 34
0.0
1001
ACAD
1000
DSTYLE
1002
{
1070
   287
1070
     5
1070
   287
1070
     5
1070
   287
1070
     5
1070
    40
1040
25.0
1070
    41
1040
2.0
1070
    42
1040
1.0
1070
    43
1040
6.0
1070
    44
1040
1.0
1070
    45
1040
0.1
1070
    73
1070
     0
1070
    74
1070
     0
1070
    77
1070
     1
1070
    78
1070
     8
1070
   140
1040
2.399999999999999
1070
   147
1040
1.1999999999999991
1070
   172
1070
     1
1070
   176
1070
   256
1070
   177
1070
   256
1070
   178
1070
   256
1070
   271
1070
     2
1070
   272
1070
     2
1070
   279
1070
     2
1070
   340
1005
5F2
1002
}
  0
LINE
  5
3065
  8
SJC
 10
5274.778613731266
 20
2826.7132462170539
 30
0.0
 11
5274.778613731266
 21
3416.7132462170539
 31
0.0
  0
LINE
  5
3066
  8
SJC
 10
4974.778613731266
 20
2826.7132462170539
 30
0.0
 11
4974.778613731266
 21
3416.7132462170539
 31
0.0
  0
INSERT
  5
3067
  8
HATCH
  2
*X23
 10
513.32861373126605
 20
3416.7132462170539
 30
0.0
1001
ACAD
1000
HATCH
1002
{
1070
    16
1000
AR-CONC
1040
20.0
1040
0.0
1002
}
  0
LINE
  5
3068
  8
SJC
 10
5141.4641265353648
 20
2826.7132462170539
 30
0.0
 11
5324.778613731266
 21
2826.7132462170539
 31
0.0
  0
LINE
  5
3069
  8
SJC
 10
4924.778613731266
 20
2826.7132462170539
 30
0.0
 11
5106.414878436427
 21
2826.7132462170539
 31
0.0
  0
LINE
  5
306A
  8
SJC
 10
5106.414878436427
 20
2826.7132462170539
 30
0.0
 11
5118.331620379603
 21
2855.930710493004
 31
0.0
  0
LINE
  5
306B
  8
SJC
 10
5118.331620379603
 20
2855.930710493004
 30
0.0
 11
5130.248362322779
 21
2786.5680372980269
 31
0.0
  0
LINE
  5
306C
  8
SJC
 10
5130.248362322779
 20
2786.5680372980269
 30
0.0
 11
5141.4641265353648
 21
2826.7132462170539
 31
0.0
  0
DIMENSION
  5
35DB
  8
SUNPOU
  2
*D25
 10
953.78914177185516
 20
357.41355193404343
 30
0.0
 11
1182.3891417718551
 21
417.41355193404343
 31
0.0
 70
     0
  1
%%C<>
 13
1410.989141771855
 23
554.15785410716683
 33
0.0
 14
953.78914177185516
 24
554.15785410716785
 34
0.0
1001
ACAD
1000
DSTYLE
1002
{
1070
   287
1070
     5
1070
   287
1070
     5
1070
   287
1070
     5
1070
    40
1040
25.0
1070
    41
1040
2.0
1070
    42
1040
1.0
1070
    43
1040
6.0
1070
    44
1040
1.0
1070
    45
1040
0.1
1070
    73
1070
     0
1070
    74
1070
     0
1070
    77
1070
     1
1070
    78
1070
     8
1070
   140
1040
2.399999999999999
1070
   144
1040
0.25
1070
   147
1040
1.1999999999999991
1070
   172
1070
     1
1070
   176
1070
   256
1070
   177
1070
   256
1070
   178
1070
   256
1070
   271
1070
     2
1070
   272
1070
     2
1070
   279
1070
     2
1070
   340
1005
5F2
1002
}
  0
CIRCLE
  5
3851
  8
SJC2
 10
3544.4666516864531
 20
2340.7869482311471
 30
0.0
 40
228.59999999999999
  0
CIRCLE
  5
3852
  8
SJC2
 10
3544.4666516864531
 20
2340.7869482311471
 30
0.0
 40
210.59999999999999
  0
CIRCLE
  5
3856
  8
SJC2
 10
3016.8654783212191
 20
2340.7869482311471
 30
0.0
 40
68.0
  0
CIRCLE
  5
3857
  8
SJC2
 10
3016.8654783212191
 20
2340.7869482311471
 30
0.0
 40
58.79999999999999
  0
LINE
  5
385B
  8
SJC2
 10
3083.6727049167098
 20
2353.4674243507111
 30
0.0
 11
3141.205368767387
 21
2353.4674243507111
 31
0.0
  0
LINE
  5
385C
  8
SJC2
 10
3083.6727049167098
 20
2328.1064721115849
 30
0.0
 11
3141.2068199271739
 21
2328.1064721115849
 31
0.0
  0
LINE
  5
3861
  8
SJC2
 10
3222.5521672289428
 20
2379.2246825440711
 30
0.0
 11
3238.910586567883
 21
2379.2253063913599
 31
0.0
  0
LINE
  5
3862
  8
SJC2
 10
3238.9091879617522
 20
2302.3547119478649
 30
0.0
 11
3222.5606099299589
 21
2302.3540884184331
 31
0.0
  0
CIRCLE
  5
3863
  8
SJC2
 10
3200.3652837141972
 20
2340.7869482311471
 30
0.0
 40
44.38149636062095
  0
LINE
  5
3864
  8
SJC2
 10
3161.8205447677792
 20
2379.2223664732319
 30
0.0
 11
3178.1754685288652
 21
2379.2229901872138
 31
0.0
  0
LINE
  5
3865
  8
SJC2
 10
3162.2430741271241
 20
2366.5271368958151
 30
0.0
 11
3164.210934787418
 21
2366.5275828948138
 31
0.0
  0
LINE
  5
3866
  8
SJC2
 10
3145.1771931171638
 20
2357.430058021821
 30
0.0
 11
3145.1771931171638
 21
2362.5790148226151
 31
0.0
  0
ARC
  5
3867
  8
SJC2
 10
3141.214559446053
 20
2357.430058021821
 30
0.0
 40
3.9626336711127852
 50
270.0
 51
0.0
  0
LINE
  5
3868
  8
SJC2
 10
3145.1771931171638
 20
2318.995607219571
 30
0.0
 11
3145.1771931171638
 21
2324.1438384404742
 31
0.0
  0
ARC
  5
3869
  8
SJC2
 10
3141.214559446053
 20
2324.1438384404742
 30
0.0
 40
3.9626336711127852
 50
0.0
 51
90.0
  0
LINE
  5
386A
  8
SJC2
 10
3158.2453707610371
 20
2318.9740816826761
 30
0.0
 11
3158.2516518531379
 21
2326.7812625757101
 31
0.0
  0
ARC
  5
386B
  8
SJC2
 10
3162.208004166434
 20
2318.9726305228928
 30
0.0
 40
3.9626336711127852
 50
179.97901765840001
 51
270.00000384200001
  0
ARC
  5
386C
  8
SJC2
 10
3162.2430741271241
 20
2362.5645032247012
 30
0.0
 40
3.9626336711127852
 50
90.0
 51
180.0
  0
ARC
  5
386D
  8
SJC2
 10
3161.8202537619909
 20
2318.9948324643492
 30
0.0
 40
16.643060662831459
 50
179.99733280980001
 51
270.00433235370002
  0
LINE
  5
386E
  8
SJC2
 10
3164.2365230040309
 20
2315.0104110557349
 30
0.0
 11
3162.2080044321478
 21
2315.0099968517789
 31
0.0
  0
LINE
  5
386F
  8
SJC2
 10
3178.1728891964672
 20
2302.3523954852499
 30
0.0
 11
3161.8215122076181
 21
2302.351771849068
 31
0.0
  0
LINE
  5
3870
  8
SJC2
 10
3158.274242275726
 20
2354.8603788659502
 30
0.0
 11
3158.2804404560079
 21
2362.5645032247012
 31
0.0
  0
ARC
  5
3871
  8
SJC2
 10
3161.82025377746
 20
2362.5793058129389
 30
0.0
 40
16.643060662831459
 50
89.9989982301
 51
180.0010017699
  0
LINE
  5
3872
  8
SJC2
 10
3244.746780074855
 20
2340.7869482311471
 30
0.0
 11
3315.866651686451
 21
2340.7869482311471
 31
0.0
  0
LINE
  5
3873
  8
SJC2
 10
3258.5321216436241
 20
2353.4674243507111
 30
0.0
 11
3316.2186165900198
 21
2353.4674243507111
 31
0.0
  0
LINE
  5
3874
  8
SJC2
 10
3258.5347821031828
 20
2328.1064721115849
 30
0.0
 11
3316.2186165900198
 21
2328.1064721115849
 31
0.0
  0
ARC
  5
3876
  8
SJC2
 10
3259.516007982344
 20
2357.430058021821
 30
0.0
 40
3.9626336711127852
 50
180.0
 51
270.0
  0
LINE
  5
3877
  8
SJC2
 10
3255.5533743112319
 20
2357.430058021821
 30
0.0
 11
3255.5533743112319
 21
2362.5790148226151
 31
0.0
  0
ARC
  5
3878
  8
SJC2
 10
3259.516007982344
 20
2324.1438384404742
 30
0.0
 40
3.9626336711127852
 50
90.0
 51
180.0
  0
LINE
  5
3879
  8
SJC2
 10
3255.5533743112319
 20
2318.995607219571
 30
0.0
 11
3255.5533743112319
 21
2324.1438384404742
 31
0.0
  0
LINE
  5
387A
  8
SJC2
 10
3238.014898929101
 20
2315.0254758895921
 30
0.0
 11
3236.504568052555
 21
2315.0251674945721
 31
0.0
  0
ARC
  5
387B
  8
SJC2
 10
3238.014898929101
 20
2318.988109560702
 30
0.0
 40
3.9626336711127852
 50
270.0
 51
0.0
  0
LINE
  5
387C
  8
SJC2
 10
3241.974146560693
 20
2362.5816752822429
 30
0.0
 11
3241.974640188444
 21
2356.2264648365021
 31
0.0
  0
ARC
  5
387D
  8
SJC2
 10
3238.0115128895818
 20
2362.5816754003608
 30
0.0
 40
3.9626336711127852
 50
359.99999829249998
 51
90.013988227599995
  0
LINE
  5
387E
  8
SJC2
 10
3236.5079611323931
 20
2366.5439684053081
 30
0.0
 11
3238.0105454496811
 21
2366.5443089533551
 31
0.0
  0
LINE
  5
387F
  8
SJC2
 10
3241.9770381510202
 20
2325.3538956524349
 30
0.0
 11
3241.9775326002132
 21
2318.988109560702
 31
0.0
  0
ARC
  5
3880
  8
SJC2
 10
3238.9103136664048
 20
2318.9948324643492
 30
0.0
 40
16.643060662831459
 50
269.99566764629998
 51
0.0026671902000056
  0
ARC
  5
3881
  8
SJC2
 10
3238.910313650937
 20
2362.5793058129389
 30
0.0
 40
16.643060662831459
 50
359.99899823010003
 51
90.001001769899986
  0
LINE
  5
3883
  8
SJC2
 10
3850.1763560428299
 20
2379.5782501553749
 30
0.0
 11
3926.9851647599212
 21
2379.581179348354
 31
0.0
  0
LINE
  5
3884
  8
SJC2
 10
3926.9790622746441
 20
2301.998819599281
 30
0.0
 11
3850.1773324404462
 21
2301.9958904063701
 31
0.0
  0
LINE
  5
3885
  8
SJC2
 10
3850.602797713032
 20
2366.7654720965238
 30
0.0
 11
3927.071820050624
 21
2366.782803154676
 31
0.0
  0
LINE
  5
3886
  8
SJC2
 10
3927.0762138400569
 20
2314.7869436177011
 30
0.0
 11
3850.5674032984971
 21
2314.7713212553922
 31
0.0
  0
LINE
  5
3887
  8
SJC2
 10
3773.0666516864549
 20
2340.7869482311471
 30
0.0
 11
3846.5863860120921
 21
2340.7869482311471
 31
0.0
  0
LINE
  5
3888
  8
SJC2
 10
3772.387811225748
 20
2327.9890602363098
 30
0.0
 11
3829.3795744642671
 21
2327.9890602363098
 31
0.0
  0
LINE
  5
3889
  8
SJC2
 10
3772.387811225748
 20
2353.584836225984
 30
0.0
 11
3829.3795744642671
 21
2353.584836225984
 31
0.0
  0
ARC
  5
388B
  8
SJC2
 10
3850.1760623425398
 20
2318.7930535126552
 30
0.0
 40
16.797163154276092
 50
179.99733280980001
 51
270.00433235370002
  0
ARC
  5
388C
  8
SJC2
 10
3850.602797713032
 20
2362.7661473543521
 30
0.0
 40
3.9993247421706819
 50
90.0
 51
180.0
  0
ARC
  5
388D
  8
SJC2
 10
3850.5674030303198
 20
2318.770645997563
 30
0.0
 40
3.9993247421706819
 50
179.97901765840001
 51
270.00000384200001
  0
LINE
  5
388E
  8
SJC2
 10
3846.5680785563241
 20
2318.7721105940182
 30
0.0
 11
3846.603472970859
 21
2362.7661473543521
 31
0.0
  0
ARC
  5
388F
  8
SJC2
 10
3829.3795744642671
 20
2323.9897354941409
 30
0.0
 40
3.9993247421706819
 50
0.0
 51
90.0
  0
LINE
  5
3890
  8
SJC2
 10
3833.3788992064328
 20
2318.7938354415401
 30
0.0
 11
3833.3788992064328
 21
2323.9897354941409
 31
0.0
  0
ARC
  5
3891
  8
SJC2
 10
3829.3795744642671
 20
2357.5841609681538
 30
0.0
 40
3.9993247421706819
 50
270.0
 51
0.0
  0
LINE
  5
3892
  8
SJC2
 10
3833.3788992064328
 20
2357.5841609681538
 30
0.0
 11
3833.3788992064328
 21
2362.7807933189802
 31
0.0
  0
ARC
  5
3893
  8
SJC2
 10
3850.176062358154
 20
2362.7810870036592
 30
0.0
 40
16.797163154276092
 50
89.9989982301
 51
180.0010017699
  0
LINE
  5
3895
  8
SJC2
 10
3943.7826215963141
 20
2362.784210710734
 30
0.0
 11
3943.776519111037
 21
2318.7957882368369
 31
0.0
  0
ARC
  5
3896
  8
SJC2
 10
3926.9793559578502
 20
2318.7959827509981
 30
0.0
 40
16.797163154276092
 50
269.99899823499999
 51
359.99933650460002
  0
ARC
  5
3897
  8
SJC2
 10
3927.0727964483021
 20
2362.7834785317168
 30
0.0
 40
3.9993247421706819
 50
359.99999829249998
 51
90.013988227599995
  0
LINE
  5
3898
  8
SJC2
 10
3931.0721211904752
 20
2362.7834784125062
 30
0.0
 11
3931.0755385822272
 21
2318.786268359871
 31
0.0
  0
ARC
  5
3899
  8
SJC2
 10
3927.0762138400569
 20
2318.786268359871
 30
0.0
 40
3.9993247421706819
 50
270.0
 51
0.0
  0
ARC
  5
389A
  8
SJC2
 10
3926.9854584431268
 20
2362.7840161965742
 30
0.0
 40
16.797163154276092
 50
0.0006634954
 51
90.001001765000012
  0
LINE
  5
3A4E
  8
SJC2
 10
3155.983787353538
 20
2340.7869482311471
 30
0.0
 11
3084.8654783212191
 21
2340.7869482311471
 31
0.0
  0
LINE
  5
3A50
  8
CENTER
 10
2898.8654783212191
 20
2340.7869482311471
 30
0.0
 11
3993.7795704115251
 21
2340.7869482311471
 31
0.0
  0
LINE
  5
3A58
  8
CENTER
 10
3134.8654783212191
 20
2340.7869482311471
 30
0.0
 11
2898.8654783212191
 21
2340.7869482311471
 31
0.0
  0
LINE
  5
3A59
  8
CENTER
 10
3016.8654783212191
 20
2458.7869482311471
 30
0.0
 11
3016.8654783212191
 21
2222.7869482311471
 31
0.0
  0
LINE
  5
3A5C
  8
CENTER
 10
3294.7467837141971
 20
2340.7869482311471
 30
0.0
 11
3105.9837837141959
 21
2340.7869482311471
 31
0.0
  0
LINE
  5
3A5D
  8
CENTER
 10
3200.3652837141972
 20
2435.1684482311471
 30
0.0
 11
3200.3652837141972
 21
2246.4054482311471
 31
0.0
  0
LINE
  5
3A5E
  8
CENTER
 10
3823.066651686453
 20
2340.7869482311471
 30
0.0
 11
3265.8666516864519
 21
2340.7869482311471
 31
0.0
  0
LINE
  5
3A5F
  8
CENTER
 10
3544.4666516864531
 20
2619.386948231147
 30
0.0
 11
3544.4666516864531
 21
2062.1869482311472
 31
0.0
  0
LINE
  5
3A62
  8
CENTER
 10
3888.578853593403
 20
2429.5797147155049
 30
0.0
 11
3888.5788535934021
 21
2251.997354991488
 31
0.0
  0
LINE
  5
3A63
  8
CENTER
 10
3266.5853462934751
 20
1150.6862216971349
 30
0.0
 11
3455.348346293476
 21
1150.6862216971349
 31
0.0
  0
LINE
  5
3A67
  8
CENTER
 10
3426.4666516864531
 20
1150.6862216971349
 30
0.0
 11
3662.4666516864531
 21
1150.6862216971349
 31
0.0
  0
CIRCLE
  5
3A68
  8
SJC2
 10
3544.4666516864531
 20
1150.6862216971349
 30
0.0
 40
68.0
  0
LINE
  5
3A69
  8
CENTER
 10
3360.9668462934751
 20
1245.0677216971351
 30
0.0
 11
3360.9668462934751
 21
1056.3047216971349
 31
0.0
  0
LINE
  5
3A6A
  8
CENTER
 10
3544.4666516864531
 20
1268.6862216971349
 30
0.0
 11
3544.4666516864531
 21
1032.6862216971349
 31
0.0
  0
LINE
  5
3A6B
  8
SJC2
 10
3405.3483426541329
 20
1150.6862216971349
 30
0.0
 11
3476.4666516864531
 21
1150.6862216971349
 31
0.0
  0
LINE
  5
3A6C
  8
SJC2
 10
3477.659425090962
 20
1138.005745577573
 30
0.0
 11
3420.125310080497
 21
1138.005745577573
 31
0.0
  0
LINE
  5
3A6D
  8
SJC2
 10
3477.659425090962
 20
1163.366697816698
 30
0.0
 11
3420.1267612402848
 21
1163.366697816698
 31
0.0
  0
CIRCLE
  5
3A6E
  8
SJC2
 10
3544.4666516864531
 20
1150.6862216971349
 30
0.0
 40
58.79999999999999
  0
ARC
  5
3A70
  8
SJC2
 10
3399.5118762302118
 20
1172.478579278926
 30
0.0
 40
16.643060662831459
 50
359.99899823010003
 51
90.001001769899986
  0
ARC
  5
3A72
  8
SJC2
 10
3420.1175705616188
 20
1167.3293314878081
 30
0.0
 40
3.9626336711127852
 50
180.0
 51
270.0
  0
ARC
  5
3A73
  8
SJC2
 10
3420.1175705616188
 20
1134.043111906461
 30
0.0
 40
3.9626336711127852
 50
90.0
 51
180.0
  0
LINE
  5
3A74
  8
SJC2
 10
3416.1549368905071
 20
1167.3293314878081
 30
0.0
 11
3416.1549368905071
 21
1172.4782882886029
 31
0.0
  0
LINE
  5
3A75
  8
SJC2
 10
3416.1549368905071
 20
1128.8948806855581
 30
0.0
 11
3416.1549368905071
 21
1134.043111906461
 31
0.0
  0
LINE
  5
3A76
  8
SJC2
 10
3399.5115852398922
 20
1189.121639939219
 30
0.0
 11
3322.4227946632041
 21
1189.124579809639
 31
0.0
  0
LINE
  5
3A77
  8
SJC2
 10
3399.0890558805481
 20
1176.426410361802
 30
0.0
 11
3323.3215819579968
 21
1176.4435824198911
 31
0.0
  0
LINE
  5
3A78
  8
SJC2
 10
3403.0867592466352
 20
1128.8733551486639
 30
0.0
 11
3403.051689551552
 21
1172.4637768422911
 31
0.0
  0
ARC
  5
3A79
  8
SJC2
 10
3399.1241258412369
 20
1128.8719039888799
 30
0.0
 40
3.9626336711127852
 50
269.99999615799999
 51
0.0209823415999835
  0
ARC
  5
3A7A
  8
SJC2
 10
3399.0890558805481
 20
1172.463776690689
 30
0.0
 40
3.9626336711127852
 50
0.0
 51
90.0
  0
LINE
  5
3A7B
  8
SJC2
 10
3323.3172303737379
 20
1124.924749355685
 30
0.0
 11
3399.124125575524
 21
1124.909270317766
 31
0.0
  0
LINE
  5
3A7D
  8
SJC2
 10
3322.7340063317561
 20
1112.253973549962
 30
0.0
 11
3399.5106178000542
 21
1112.2510453150551
 31
0.0
  0
ARC
  5
3A7E
  8
SJC2
 10
3399.5118762456809
 20
1128.8941059303361
 30
0.0
 40
16.643060662831459
 50
269.99566764629998
 51
0.0026671902000056
  0
LINE
  5
3A84
  8
SJC2
 10
3305.778755696439
 20
1128.8948799831221
 30
0.0
 11
3305.778755696439
 21
1172.4782882886029
 31
0.0
  0
ARC
  5
3A87
  8
SJC2
 10
3323.3172310785708
 20
1128.8873830266889
 30
0.0
 40
3.9626336711127852
 50
180.0
 51
270.0
  0
LINE
  5
3A88
  8
SJC2
 10
3319.3579834469788
 20
1172.480948748231
 30
0.0
 11
3319.354597407566
 21
1128.887384568834
 31
0.0
  0
ARC
  5
3A89
  8
SJC2
 10
3323.3206171180909
 20
1172.4809488663491
 30
0.0
 40
3.9626336711127852
 50
89.986011772399976
 51
180.00000170749999
  0
ARC
  5
3A8B
  8
SJC2
 10
3322.4218164688509
 20
1172.4815191755581
 30
0.0
 40
16.643060662831459
 50
89.996632445852725
 51
180.0010017699
  0
ARC
  5
3A8D
  8
SJC2
 10
3322.4218163412661
 20
1128.8941059303361
 30
0.0
 40
16.643060662831459
 50
179.99733280980001
 51
270.00433235370002
  0
TEXT
  5
4278
  8
MOJI
 10
6056.0480895201981
 20
3062.3813003542791
 30
0.0
 40
60.0
  1
樹脂カプセル M16用
 41
0.8
  7
EXT08
 11
6056.0480895201981
 21
3092.3813003542782
 31
0.0
 73
     2
  0
LINE
  5
4279
  8
MOJI
 10
5788.9055095585318
 20
3037.7690964778299
 30
0.0
 11
6802.8199788145721
 21
3037.7690964778299
 31
0.0
  0
TEXT
  5
427A
  8
MOJI
 10
5978.3772782244341
 20
2943.4751690511948
 30
0.0
 40
60.0
  1
アンカーボルトM16×190
 41
0.8
  7
EXT08
 11
5978.3772782244341
 21
2973.4751690511948
 31
0.0
 73
     2
  0
TEXT
  5
427B
  8
MOJI
 10
5890.5170338812013
 20
2837.6041213076828
 30
0.0
 40
60.0
  1
(ドリル径%%C19,深さ130mm)
 41
0.8
  7
EXT08
 11
5890.5170338812013
 21
2867.6041213076828
 31
0.0
 73
     2
  0
INSERT
  5
427C
  8
0
  2
*U44
 10
0.0
 20
0.0
 30
0.0
1001
ACAD
1000
DSTYLE
1002
{
1070
     5
1000

1070
    40
1040
25.0
1070
    41
1040
2.0
1070
    42
1040
1.0
1070
    43
1040
6.0
1070
    44
1040
1.0
1070
    45
1040
0.1
1070
    73
1070
     0
1070
    74
1070
     0
1070
    77
1070
     1
1070
    78
1070
     8
1070
   140
1040
2.399999999999999
1070
   147
1040
1.1999999999999991
1070
   172
1070
     1
1070
   176
1070
   256
1070
   177
1070
   256
1070
   178
1070
   256
1070
   271
1070
     2
1070
   272
1070
     2
1070
   279
1070
     2
1070
   340
1005
5F2
1070
   342
1005
0
1002
}
  0
CIRCLE
  5
427D
  8
MOJI
 10
5917.0644548202108
 20
2974.9683220876582
 30
0.0
 40
48.0
  0
TEXT
  5
427E
  8
MOJI
 10
5864.3371006428488
 20
2948.3361659888178
 30
0.0
 40
60.0
  1
12
 41
0.8
  7
EXT08
 72
     4
 11
5913.4799577857066
 21
2978.3361659888178
 31
0.0
  0
TEXT
  5
427F
  8
MOJI
 10
5940.8267391367344
 20
3072.8269812264371
 30
0.0
 40
60.0
  1
13
 41
0.8
  7
EXT08
 72
     4
 11
5989.9695962795904
 21
3102.8269812264371
 31
0.0
  0
CIRCLE
  5
4280
  8
MOJI
 10
5992.8369947288957
 20
3100.2797863966739
 30
0.0
 40
48.0
  0
DIMENSION
  5
4281
  8
SUNPOU
  2
*D26
 10
6541.0641539587041
 20
3286.7132462170539
 30
0.0
 11
6487.064153958705
 21
3351.7132462170562
 31
0.0
 70
   128
 13
6396.3267469451239
 23
3416.7132462170539
 33
0.0
 14
6197.4436043411006
 24
3286.7132462170539
 34
0.0
 50
90.0
1001
ACAD
1000
DSTYLE
1002
{
1070
   287
1070
     5
1070
   287
1070
     5
1070
   287
1070
     5
1070
    40
1040
25.0
1070
    41
1040
2.0
1070
    42
1040
1.0
1070
    43
1040
6.0
1070
    44
1040
1.0
1070
    45
1040
0.1
1070
    73
1070
     0
1070
    74
1070
     0
1070
    77
1070
     1
1070
    78
1070
     8
1070
   140
1040
2.399999999999999
1070
   147
1040
0.5
1070
   172
1070
     1
1070
   176
1070
   256
1070
   177
1070
   256
1070
   178
1070
   256
1070
   271
1070
     2
1070
   272
1070
     2
1070
   279
1070
     2
1070
   340
1005
5F2
1002
}
  0
DIMENSION
  5
4282
  8
SUNPOU
  2
*D27
 10
6691.064153958705
 20
3286.7132462170539
 30
0.0
 11
6631.0641539587032
 21
3381.7132462170548
 31
0.0
 70
     0
 13
6416.8212534573167
 23
3476.7132462170539
 33
0.0
 14
6197.4436043411006
 24
3286.7132462170539
 34
0.0
 50
90.0
1001
ACAD
1000
DSTYLE
1002
{
1070
   287
1070
     5
1070
   287
1070
     5
1070
   287
1070
     5
1070
    40
1040
25.0
1070
    41
1040
2.0
1070
    42
1040
1.0
1070
    43
1040
6.0
1070
    44
1040
1.0
1070
    45
1040
0.1
1070
    73
1070
     0
1070
    74
1070
     0
1070
    77
1070
     1
1070
    78
1070
     8
1070
   140
1040
2.399999999999999
1070
   147
1040
1.1999999999999991
1070
   172
1070
     1
1070
   176
1070
   256
1070
   177
1070
   256
1070
   178
1070
   256
1070
   271
1070
     2
1070
   272
1070
     2
1070
   279
1070
     2
1070
   340
1005
5F2
1002
}
  0
LINE
  5
4283
  8
CENTER
 10
6189.3436043410966
 20
3266.7132462170539
 30
0.0
 11
6189.3436043410966
 21
3496.7132462170539
 31
0.0
  0
LINE
  5
4284
  8
CENTER
 10
6049.3436043410957
 20
3266.7132462170539
 30
0.0
 11
6049.3436043410957
 21
3496.7132462170539
 31
0.0
  0
LINE
  5
4285
  8
SJC2
 10
6041.3436043410929
 20
3286.7132462170539
 30
0.0
 11
6041.3436043410966
 21
3416.7132462170539
 31
0.0
  0
LINE
  5
4286
  8
SJC2
 10
6057.3436043410948
 20
3302.7132462170571
 30
0.0
 11
6057.3436043410957
 21
3416.7132462170539
 31
0.0
  0
LINE
  5
4287
  8
SJC2
 10
6039.8436043410939
 20
3286.7132462170539
 30
0.0
 11
6058.8436043410948
 21
3286.7132462170548
 31
0.0
  0
LINE
  5
4288
  8
SJC
 10
6019.3436043410966
 20
3432.7132462170539
 30
0.0
 11
6219.3436043410966
 21
3432.7132462170539
 31
0.0
  0
LINE
  5
4289
  8
SJC
 10
6019.3436043410966
 20
3416.7132462170539
 30
0.0
 11
6019.3436043410966
 21
3432.7132462170539
 31
0.0
  0
ARC
  5
428A
  8
SJC2
 10
6049.3436043410957
 20
3429.985042986777
 30
0.0
 40
22.928203230277632
 50
72.412046226036352
 51
107.5879537739636
  0
POLYLINE
  5
428B
  8
SJC2
 66
     1
 10
0.0
 20
0.0
 30
0.0
  0
VERTEX
  5
5B74
  8
SJC2
 10
6035.487197880544
 20
3439.9132462170551
 30
0.0
  0
VERTEX
  5
5B75
  8
SJC2
 10
6035.487197880544
 20
3451.84144944733
 30
0.0
  0
VERTEX
  5
5B76
  8
SJC2
 10
6037.3436043410966
 20
3452.9132462170542
 30
0.0
  0
VERTEX
  5
5B77
  8
SJC2
 10
6061.3436043410966
 20
3452.9132462170542
 30
0.0
  0
VERTEX
  5
5B78
  8
SJC2
 10
6063.2000108016446
 20
3451.84144944733
 30
0.0
  0
VERTEX
  5
5B79
  8
SJC2
 10
6063.2000108016446
 20
3439.9132462170551
 30
0.0
  0
VERTEX
  5
5B7A
  8
SJC2
 10
6035.487197880544
 20
3439.9132462170551
 30
0.0
  0
SEQEND
  5
5B7B
  8
SJC2
  0
POLYLINE
  5
428C
  8
SJC2
 66
     1
 10
0.0
 20
0.0
 30
0.0
 70
     1
  0
VERTEX
  5
5B7C
  8
SJC2
 10
6035.3436043410966
 20
3439.9132462170551
 30
0.0
  0
VERTEX
  5
5B7D
  8
SJC2
 10
6035.3436043410966
 20
3435.9132462170551
 30
0.0
  0
VERTEX
  5
5B7E
  8
SJC2
 10
6063.3436043410957
 20
3435.9132462170551
 30
0.0
  0
VERTEX
  5
5B7F
  8
SJC2
 10
6063.3436043410957
 20
3439.9132462170551
 30
0.0
  0
SEQEND
  5
5B80
  8
SJC2
  0
POLYLINE
  5
428D
  8
SJC2
 66
     1
 10
0.0
 20
0.0
 30
0.0
 70
     1
  0
VERTEX
  5
5B81
  8
SJC2
 10
6034.3436043410957
 20
3435.9132462170551
 30
0.0
  0
VERTEX
  5
5B82
  8
SJC2
 10
6034.3436043410957
 20
3432.7132462170539
 30
0.0
  0
VERTEX
  5
5B83
  8
SJC2
 10
6064.3436043410966
 20
3432.7132462170539
 30
0.0
  0
VERTEX
  5
5B84
  8
SJC2
 10
6064.3436043410966
 20
3435.9132462170551
 30
0.0
  0
SEQEND
  5
5B85
  8
SJC2
  0
LINE
  5
428E
  8
SJC2
 10
6042.4154011108212
 20
3451.84144944733
 30
0.0
 11
6042.4154011108212
 21
3439.9132462170551
 31
0.0
  0
ARC
  5
428F
  8
SJC2
 10
6038.951299495684
 20
3446.7792716208392
 30
0.0
 40
6.1339745962158778
 50
55.615752531915483
 51
90.0
  0
LINE
  5
4290
  8
SJC2
 10
6048.3436043410966
 20
3439.6452970246228
 30
0.0
 11
6050.3436043410957
 21
3436.1811954094851
 31
0.0
  0
LINE
  5
4291
  8
SJC2
 10
6056.2718075713728
 20
3451.84144944733
 30
0.0
 11
6056.2718075713728
 21
3439.9132462170551
 31
0.0
  0
ARC
  5
4292
  8
SJC2
 10
6059.7359091865092
 20
3446.7792716208392
 30
0.0
 40
6.1339745962158778
 50
90.0
 51
124.3842474680845
  0
LINE
  5
4293
  8
SJC2
 10
6043.3436043410957
 20
3476.7132462170539
 30
0.0
 11
6055.3436043410929
 21
3476.7132462170539
 31
0.0
  0
LINE
  5
4294
  8
SJC2
 10
6057.3436043410957
 20
3452.9132462170542
 30
0.0
 11
6057.3436043410957
 21
3474.7132462170539
 31
0.0
  0
LINE
  5
4295
  8
SJC2
 10
6041.3436043410966
 20
3452.9132462170542
 30
0.0
 11
6041.3436043410966
 21
3474.7132462170539
 31
0.0
  0
POLYLINE
  5
4296
  8
SJC2
 66
     1
 10
0.0
 20
0.0
 30
0.0
  0
VERTEX
  5
5B86
  8
SJC2
 10
6043.3436043410957
 20
3476.7132462170539
 30
0.0
  0
VERTEX
  5
5B87
  8
SJC2
 10
6043.3436043410957
 20
3452.9132462170542
 30
0.0
  0
SEQEND
  5
5B88
  8
SJC2
  0
POLYLINE
  5
4297
  8
SJC2
 66
     1
 10
0.0
 20
0.0
 30
0.0
  0
VERTEX
  5
5B89
  8
SJC2
 10
6041.3436043410966
 20
3474.7132462170539
 30
0.0
  0
VERTEX
  5
5B8A
  8
SJC2
 10
6057.3436043410957
 20
3474.7132462170539
 30
0.0
  0
SEQEND
  5
5B8B
  8
SJC2
  0
LINE
  5
4298
  8
SJC2
 10
6043.3436043410957
 20
3476.7132462170539
 30
0.0
 11
6041.3436043410966
 21
3474.7132462170539
 31
0.0
  0
LINE
  5
4299
  8
SJC2
 10
6055.3436043410957
 20
3476.7132462170539
 30
0.0
 11
6057.3436043410957
 21
3474.7132462170539
 31
0.0
  0
POLYLINE
  5
429A
  8
SJC2
 66
     1
 10
0.0
 20
0.0
 30
0.0
  0
VERTEX
  5
5B8C
  8
SJC2
 10
6055.3436043410929
 20
3452.9132462170542
 30
0.0
  0
VERTEX
  5
5B8D
  8
SJC2
 10
6055.3436043410957
 20
3476.7132462170539
 30
0.0
  0
SEQEND
  5
5B8E
  8
SJC2
  0
LINE
  5
429B
  8
SJC
 10
6219.3436043410966
 20
3416.7132462170539
 30
0.0
 11
6219.3436043410966
 21
3432.7132462170539
 31
0.0
  0
DIMENSION
  5
429C
  8
SUNPOU
  2
*D28
 10
6541.0641539587041
 20
3416.7132462170539
 30
0.0
 11
6481.0205635656712
 21
3534.0968423021368
 31
0.0
 70
   128
 13
6396.8212534573177
 23
3476.7132462170539
 33
0.0
 14
6396.3267469451239
 24
3416.7132462170539
 34
0.0
 50
90.0
1001
ACAD
1000
DSTYLE
1002
{
1070
   287
1070
     5
1070
   287
1070
     5
1070
   287
1070
     5
1070
    40
1040
25.0
1070
    41
1040
2.0
1070
    42
1040
1.0
1070
    43
1040
6.0
1070
    44
1040
1.0
1070
    45
1040
0.1
1070
    73
1070
     0
1070
    74
1070
     0
1070
    77
1070
     1
1070
    78
1070
     8
1070
   140
1040
2.399999999999999
1070
   147
1040
1.1999999999999991
1070
   172
1070
     1
1070
   176
1070
   256
1070
   177
1070
   256
1070
   178
1070
   256
1070
   271
1070
     2
1070
   272
1070
     2
1070
   279
1070
     2
1070
   340
1005
5F2
1002
}
  0
LINE
  5
42A0
  8
SJC2
 10
6039.8436043410939
 20
3286.7132462170539
 30
0.0
 11
6039.8436043410966
 21
3416.7132462170539
 31
0.0
  0
LINE
  5
42A1
  8
SJC2
 10
6058.8436043410948
 20
3286.7132462170548
 30
0.0
 11
6058.8436043410957
 21
3416.7132462170539
 31
0.0
  0
LINE
  5
42A2
  8
SJC2
 10
6041.3436043410929
 20
3286.7132462170539
 30
0.0
 11
6057.3436043410948
 21
3302.7132462170571
 31
0.0
  0
ARC
  5
42A3
  8
SJC2
 10
6199.7359091865092
 20
3446.7792716208392
 30
0.0
 40
6.1339745962158778
 50
90.0
 51
124.3842474680845
  0
ARC
  5
42A4
  8
SJC2
 10
6178.951299495684
 20
3446.7792716208392
 30
0.0
 40
6.1339745962158778
 50
55.615752531915483
 51
90.0
  0
POLYLINE
  5
42A5
  8
SJC2
 66
     1
 10
0.0
 20
0.0
 30
0.0
  0
VERTEX
  5
5B9A
  8
SJC2
 10
6175.487197880544
 20
3439.9132462170551
 30
0.0
  0
VERTEX
  5
5B9B
  8
SJC2
 10
6175.487197880544
 20
3451.84144944733
 30
0.0
  0
VERTEX
  5
5B9C
  8
SJC2
 10
6177.3436043410957
 20
3452.9132462170542
 30
0.0
  0
VERTEX
  5
5B9D
  8
SJC2
 10
6201.3436043410966
 20
3452.9132462170542
 30
0.0
  0
VERTEX
  5
5B9E
  8
SJC2
 10
6203.2000108016446
 20
3451.84144944733
 30
0.0
  0
VERTEX
  5
5B9F
  8
SJC2
 10
6203.2000108016446
 20
3439.9132462170551
 30
0.0
  0
VERTEX
  5
5BA0
  8
SJC2
 10
6175.487197880544
 20
3439.9132462170551
 30
0.0
  0
SEQEND
  5
5BA1
  8
SJC2
  0
ARC
  5
42A6
  8
SJC2
 10
6189.3436043410966
 20
3429.985042986777
 30
0.0
 40
22.928203230277632
 50
72.412046226036352
 51
107.5879537739636
  0
LINE
  5
42A7
  8
SJC2
 10
6197.3436043410948
 20
3302.7132462170571
 30
0.0
 11
6197.3436043410966
 21
3416.7132462170539
 31
0.0
  0
LINE
  5
42A8
  8
SJC2
 10
6198.8436043410948
 20
3286.7132462170548
 30
0.0
 11
6198.8436043410957
 21
3416.7132462170539
 31
0.0
  0
LINE
  5
42A9
  8
SJC2
 10
6179.8436043410948
 20
3286.7132462170539
 30
0.0
 11
6179.8436043410966
 21
3416.7132462170539
 31
0.0
  0
LINE
  5
42AA
  8
SJC2
 10
6181.3436043410929
 20
3286.7132462170539
 30
0.0
 11
6181.3436043410966
 21
3416.7132462170539
 31
0.0
  0
LINE
  5
42AB
  8
SJC2
 10
6181.3436043410929
 20
3286.7132462170539
 30
0.0
 11
6197.3436043410948
 21
3302.7132462170571
 31
0.0
  0
LINE
  5
42AC
  8
SJC2
 10
6179.8436043410948
 20
3286.7132462170539
 30
0.0
 11
6198.8436043410948
 21
3286.7132462170548
 31
0.0
  0
LINE
  5
42AD
  8
SJC2
 10
6196.2718075713728
 20
3451.84144944733
 30
0.0
 11
6196.2718075713728
 21
3439.9132462170551
 31
0.0
  0
LINE
  5
42AE
  8
SJC2
 10
6188.3436043410957
 20
3439.6452970246228
 30
0.0
 11
6190.3436043410966
 21
3436.1811954094851
 31
0.0
  0
LINE
  5
42AF
  8
SJC2
 10
6182.4154011108203
 20
3451.84144944733
 30
0.0
 11
6182.4154011108203
 21
3439.9132462170551
 31
0.0
  0
POLYLINE
  5
42B0
  8
SJC2
 66
     1
 10
0.0
 20
0.0
 30
0.0
 70
     1
  0
VERTEX
  5
5BA2
  8
SJC2
 10
6174.3436043410957
 20
3435.9132462170551
 30
0.0
  0
VERTEX
  5
5BA3
  8
SJC2
 10
6174.3436043410957
 20
3432.7132462170539
 30
0.0
  0
VERTEX
  5
5BA4
  8
SJC2
 10
6204.3436043410966
 20
3432.7132462170539
 30
0.0
  0
VERTEX
  5
5BA5
  8
SJC2
 10
6204.3436043410966
 20
3435.9132462170551
 30
0.0
  0
SEQEND
  5
5BA6
  8
SJC2
  0
POLYLINE
  5
42B1
  8
SJC2
 66
     1
 10
0.0
 20
0.0
 30
0.0
 70
     1
  0
VERTEX
  5
5BA7
  8
SJC2
 10
6175.3436043410957
 20
3439.9132462170551
 30
0.0
  0
VERTEX
  5
5BA8
  8
SJC2
 10
6175.3436043410957
 20
3435.9132462170551
 30
0.0
  0
VERTEX
  5
5BA9
  8
SJC2
 10
6203.3436043410957
 20
3435.9132462170551
 30
0.0
  0
VERTEX
  5
5BAA
  8
SJC2
 10
6203.3436043410957
 20
3439.9132462170551
 30
0.0
  0
SEQEND
  5
5BAB
  8
SJC2
  0
POLYLINE
  5
42B2
  8
SJC2
 66
     1
 10
0.0
 20
0.0
 30
0.0
  0
VERTEX
  5
5BAC
  8
SJC2
 10
6195.3436043410929
 20
3452.9132462170542
 30
0.0
  0
VERTEX
  5
5BAD
  8
SJC2
 10
6195.3436043410966
 20
3476.7132462170539
 30
0.0
  0
SEQEND
  5
5BAE
  8
SJC2
  0
LINE
  5
42B3
  8
SJC2
 10
6195.3436043410966
 20
3476.7132462170539
 30
0.0
 11
6197.3436043410966
 21
3474.7132462170539
 31
0.0
  0
LINE
  5
42B4
  8
SJC2
 10
6183.3436043410957
 20
3476.7132462170539
 30
0.0
 11
6181.3436043410966
 21
3474.7132462170539
 31
0.0
  0
POLYLINE
  5
42B5
  8
SJC2
 66
     1
 10
0.0
 20
0.0
 30
0.0
  0
VERTEX
  5
5BAF
  8
SJC2
 10
6181.3436043410966
 20
3474.7132462170539
 30
0.0
  0
VERTEX
  5
5BB0
  8
SJC2
 10
6197.3436043410966
 20
3474.7132462170539
 30
0.0
  0
SEQEND
  5
5BB1
  8
SJC2
  0
POLYLINE
  5
42B6
  8
SJC2
 66
     1
 10
0.0
 20
0.0
 30
0.0
  0
VERTEX
  5
5BB2
  8
SJC2
 10
6183.3436043410957
 20
3476.7132462170539
 30
0.0
  0
VERTEX
  5
5BB3
  8
SJC2
 10
6183.3436043410957
 20
3452.9132462170542
 30
0.0
  0
SEQEND
  5
5BB4
  8
SJC2
  0
LINE
  5
42B7
  8
SJC2
 10
6181.3436043410966
 20
3452.9132462170542
 30
0.0
 11
6181.3436043410966
 21
3474.7132462170539
 31
0.0
  0
LINE
  5
42B8
  8
SJC2
 10
6197.3436043410966
 20
3452.9132462170542
 30
0.0
 11
6197.3436043410966
 21
3474.7132462170539
 31
0.0
  0
LINE
  5
42B9
  8
SJC2
 10
6183.3436043410957
 20
3476.7132462170539
 30
0.0
 11
6195.3436043410929
 21
3476.7132462170539
 31
0.0
  0
DIMENSION
  5
47A0
  8
SUNPOU
  2
*D29
 10
4212.4089294976602
 20
858.1073742951362
 30
0.0
 11
4138.8974769886572
 21
920.2787130796828
 31
0.0
 70
   128
 13
4272.4089294976602
 23
1076.0376563746961
 33
0.0
 14
4212.4089294976602
 24
1061.0376563746961
 34
0.0
1001
ACAD
1000
DSTYLE
1002
{
1070
   287
1070
     5
1070
   287
1070
     5
1070
   287
1070
     5
1070
    40
1040
25.0
1070
    41
1040
2.0
1070
    42
1040
1.0
1070
    43
1040
6.0
1070
    44
1040
1.0
1070
    45
1040
0.1
1070
    73
1070
     0
1070
    74
1070
     0
1070
    77
1070
     1
1070
    78
1070
     8
1070
   140
1040
2.399999999999999
1070
   144
1040
0.5
1070
   147
1040
1.1999999999999991
1070
   172
1070
     1
1070
   176
1070
   256
1070
   177
1070
   256
1070
   178
1070
   256
1070
   271
1070
     2
1070
   272
1070
     2
1070
   279
1070
     2
1070
   340
1005
5F2
1002
}
  0
LINE
  5
47A1
  8
CENTER
 10
4132.4089294976602
 20
1261.0376563746961
 30
0.0
 11
4669.2676960600984
 21
1261.0376563746961
 31
0.0
  0
DIMENSION
  5
47A7
  8
SUNPOU
  2
*D30
 10
4612.4089294976602
 20
712.82938406024914
 30
0.0
 11
4412.4089294976611
 21
772.82938406024914
 31
0.0
 70
     0
 13
4212.4089294976602
 23
1061.0376563746961
 33
0.0
 14
4612.4089294976602
 24
1061.0376563746961
 34
0.0
1001
ACAD
1000
DSTYLE
1002
{
1070
   287
1070
     5
1070
   287
1070
     5
1070
   287
1070
     5
1070
    40
1040
25.0
1070
    41
1040
2.0
1070
    42
1040
1.0
1070
    43
1040
6.0
1070
    44
1040
1.0
1070
    45
1040
0.1
1070
    73
1070
     0
1070
    74
1070
     0
1070
    77
1070
     1
1070
    78
1070
     8
1070
   140
1040
2.399999999999999
1070
   144
1040
0.5
1070
   147
1040
1.1999999999999991
1070
   172
1070
     1
1070
   176
1070
   256
1070
   177
1070
   256
1070
   178
1070
   256
1070
   271
1070
     2
1070
   272
1070
     2
1070
   279
1070
     2
1070
   340
1005
5F2
1002
}
  0
DIMENSION
  5
47A8
  8
SUNPOU
  2
*D31
 10
4552.4089294976602
 20
858.1073742951362
 30
0.0
 11
4412.4089294976611
 21
918.1073742951362
 31
0.0
 70
     0
 13
4272.4089294976602
 23
1076.0376563746961
 33
0.0
 14
4552.4089294976602
 24
1076.0376563746961
 34
0.0
1001
ACAD
1000
DSTYLE
1002
{
1070
   287
1070
     5
1070
   287
1070
     5
1070
   287
1070
     5
1070
    40
1040
25.0
1070
    41
1040
2.0
1070
    42
1040
1.0
1070
    43
1040
6.0
1070
    44
1040
1.0
1070
    45
1040
0.1
1070
    73
1070
     0
1070
    74
1070
     0
1070
    77
1070
     1
1070
    78
1070
     8
1070
   140
1040
2.399999999999999
1070
   144
1040
0.5
1070
   147
1040
1.1999999999999991
1070
   172
1070
     1
1070
   176
1070
   256
1070
   177
1070
   256
1070
   178
1070
   256
1070
   271
1070
     2
1070
   272
1070
     2
1070
   279
1070
     2
1070
   340
1005
5F2
1002
}
  0
LINE
  5
47AB
  8
CENTER
 10
4412.4089294976611
 20
1030.9278904530379
 30
0.0
 11
4412.408929497662
 21
1523.9557651665029
 31
0.0
  0
LINE
  5
47AF
  8
SJC
 10
4612.4089294976602
 20
1061.0376563746961
 30
0.0
 11
4612.4089294976602
 21
1461.0376563746961
 31
0.0
  0
LINE
  5
47B0
  8
SJC
 10
4212.4089294976602
 20
1461.0376563746961
 30
0.0
 11
4212.4089294976602
 21
1061.0376563746961
 31
0.0
  0
LINE
  5
47B1
  8
CENTER
 10
4552.4089294976602
 20
1166.0376563746961
 30
0.0
 11
4552.4089294976602
 21
1076.0376563746961
 31
0.0
  0
LINE
  5
47B2
  8
CENTER
 10
4272.4089294976602
 20
1166.0376563746961
 30
0.0
 11
4272.4089294976602
 21
1076.0376563746961
 31
0.0
  0
LINE
  5
47B3
  8
SJC
 10
4212.4089294976602
 20
1061.0376563746961
 30
0.0
 11
4612.4089294976602
 21
1061.0376563746961
 31
0.0
  0
POINT
  5
47B4
  8
DEFPOINTS
  6
BYBLOCK
 62
     0
 10
4272.4089294976602
 20
1076.0376563746961
 30
0.0
  0
POINT
  5
47B5
  8
DEFPOINTS
  6
BYBLOCK
 62
     0
 10
4272.4089294976602
 20
1075.975156374695
 30
0.0
  0
LINE
  5
47B6
  8
CENTER
 10
4308.4089294976602
 20
1121.0376563746961
 30
0.0
 11
4236.4089294976602
 21
1121.0376563746961
 31
0.0
  0
POINT
  5
47B7
  8
DEFPOINTS
  6
BYBLOCK
 62
     0
 10
4552.4089294976602
 20
1075.975156374695
 30
0.0
  0
POINT
  5
47B8
  8
DEFPOINTS
  6
BYBLOCK
 62
     0
 10
4552.4089294976602
 20
1076.0376563746961
 30
0.0
  0
POINT
  5
47B9
  8
DEFPOINTS
  6
BYBLOCK
 62
     0
 10
4588.4714294976602
 20
1121.0376563746961
 30
0.0
  0
POINT
  5
47BA
  8
DEFPOINTS
  6
BYBLOCK
 62
     0
 10
4588.4089294976602
 20
1121.0376563746961
 30
0.0
  0
LINE
  5
47BB
  8
CENTER
 10
4588.4089294976602
 20
1121.0376563746961
 30
0.0
 11
4516.4089294976602
 21
1121.0376563746961
 31
0.0
  0
LINE
  5
47BC
  8
CENTER
 10
4552.4089294976602
 20
1356.0376563746961
 30
0.0
 11
4552.4089294976602
 21
1446.0376563746961
 31
0.0
  0
LINE
  5
47BD
  8
CENTER
 10
4272.4089294976602
 20
1446.0376563746961
 30
0.0
 11
4272.4089294976602
 21
1356.0376563746961
 31
0.0
  0
LINE
  5
47BE
  8
SJC
 10
4612.4089294976602
 20
1461.0376563746961
 30
0.0
 11
4212.4089294976602
 21
1461.0376563746961
 31
0.0
  0
LINE
  5
47C0
  8
CENTER
 10
4308.4089294976602
 20
1401.0376563746961
 30
0.0
 11
4236.4089294976602
 21
1401.0376563746961
 31
0.0
  0
POINT
  5
47C1
  8
DEFPOINTS
  6
BYBLOCK
 62
     0
 10
4588.4714294976602
 20
1401.0376563746961
 30
0.0
  0
POINT
  5
47C2
  8
DEFPOINTS
  6
BYBLOCK
 62
     0
 10
4588.4089294976602
 20
1401.0376563746961
 30
0.0
  0
LINE
  5
47C3
  8
CENTER
 10
4588.4089294976602
 20
1401.0376563746961
 30
0.0
 11
4516.4089294976602
 21
1401.0376563746961
 31
0.0
  0
TEXT
  5
47C4
  8
MOJI
 10
4339.1230862887396
 20
1586.6552516730869
 30
0.0
 40
60.0
  1
5-%%c22
 41
0.8
  7
EXT08
 11
4339.1230862887396
 21
1616.6552516730869
 31
0.0
 73
     2
  0
LINE
  5
47C5
  8
MOJI
 10
4329.9634209935311
 20
1573.7362839928439
 30
0.0
 11
4589.4497702044082
 21
1573.736283992843
 31
0.0
  0
CIRCLE
  5
47C6
  8
SJC2
 10
4552.4089294976602
 20
1401.0376563746961
 30
0.0
 40
22.0
  0
CIRCLE
  5
47C7
  8
SJC2
 10
4272.4089294976602
 20
1401.0376563746961
 30
0.0
 40
22.0
  0
CIRCLE
  5
47C8
  8
SJC2
 10
4272.4089294976602
 20
1121.0376563746961
 30
0.0
 40
22.0
  0
CIRCLE
  5
47C9
  8
SJC2
 10
4552.4089294976602
 20
1121.0376563746961
 30
0.0
 40
22.0
  0
CIRCLE
  5
47CA
  8
SJC2
 10
4412.4089294976611
 20
1261.0376563746961
 30
0.0
 40
114.3
  0
CIRCLE
  5
47CB
  8
SJC2
 10
4412.4089294976611
 20
1261.0376563746961
 30
0.0
 40
105.3
  0
CIRCLE
  5
47CC
  8
SJC2
 10
4412.4089294976611
 20
1261.0376563746961
 30
0.0
 40
22.0
  0
LINE
  5
4A28
  8
SJC
 10
4172.200122682144
 20
4274.0136610839554
 30
0.0
 11
4172.200122682144
 21
3609.4132694442551
 31
0.0
  0
LINE
  5
4A29
  8
SJC
 10
4193.9001226821429
 20
4274.0136610839554
 30
0.0
 11
4193.9001226821429
 21
3609.4132694442551
 31
0.0
  0
DIMENSION
  5
4B3C
  8
SUNPOU
  2
*D32
 10
4612.4089294976602
 20
858.1073742951362
 30
0.0
 11
4685.9203820066632
 21
920.2787130796828
 31
0.0
 70
   128
 13
4552.4089294976602
 23
1076.0376563746961
 33
0.0
 14
4612.4089294976602
 24
1061.0376563746961
 34
0.0
 50
180.0
1001
ACAD
1000
DSTYLE
1002
{
1070
   287
1070
     5
1070
   287
1070
     5
1070
   287
1070
     5
1070
    40
1040
25.0
1070
    41
1040
2.0
1070
    42
1040
1.0
1070
    43
1040
6.0
1070
    44
1040
1.0
1070
    45
1040
0.1
1070
    73
1070
     0
1070
    74
1070
     0
1070
    77
1070
     1
1070
    78
1070
     8
1070
   140
1040
2.399999999999999
1070
   144
1040
0.5
1070
   147
1040
1.1999999999999991
1070
   172
1070
     1
1070
   176
1070
   256
1070
   177
1070
   256
1070
   178
1070
   256
1070
   271
1070
     2
1070
   272
1070
     2
1070
   279
1070
     2
1070
   340
1005
5F2
1002
}
  0
DIMENSION
  5
4B56
  8
SUNPOU
  2
*D36
 10
4927.263658917529
 20
1061.0376563746961
 30
0.0
 11
4865.0923201329824
 21
987.52620386569288
 31
0.0
 70
   128
 13
4597.4089294976593
 23
1121.0376563746961
 33
0.0
 14
4612.4089294976602
 24
1061.0376563746961
 34
0.0
 50
90.0
1001
ACAD
1000
DSTYLE
1002
{
1070
   287
1070
     5
1070
   287
1070
     5
1070
   287
1070
     5
1070
    40
1040
25.0
1070
    41
1040
2.0
1070
    42
1040
1.0
1070
    43
1040
6.0
1070
    44
1040
1.0
1070
    45
1040
0.1
1070
    73
1070
     0
1070
    74
1070
     0
1070
    77
1070
     1
1070
    78
1070
     8
1070
   140
1040
2.399999999999999
1070
   144
1040
0.5
1070
   147
1040
1.1999999999999991
1070
   172
1070
     1
1070
   176
1070
   256
1070
   177
1070
   256
1070
   178
1070
   256
1070
   271
1070
     2
1070
   272
1070
     2
1070
   279
1070
     2
1070
   340
1005
5F2
1002
}
  0
DIMENSION
  5
4B57
  8
SUNPOU
  2
*D34
 10
5072.5416491524156
 20
1061.0376563746961
 30
0.0
 11
5012.5416491524147
 21
1261.037656374697
 31
0.0
 70
     0
 13
4612.4089294976602
 23
1461.0376563746961
 33
0.0
 14
4612.4089294976602
 24
1061.0376563746961
 34
0.0
 50
270.0
1001
ACAD
1000
DSTYLE
1002
{
1070
   287
1070
     5
1070
   287
1070
     5
1070
   287
1070
     5
1070
    40
1040
25.0
1070
    41
1040
2.0
1070
    42
1040
1.0
1070
    43
1040
6.0
1070
    44
1040
1.0
1070
    45
1040
0.1
1070
    73
1070
     0
1070
    74
1070
     0
1070
    77
1070
     1
1070
    78
1070
     8
1070
   140
1040
2.399999999999999
1070
   144
1040
0.5
1070
   147
1040
1.1999999999999991
1070
   172
1070
     1
1070
   176
1070
   256
1070
   177
1070
   256
1070
   178
1070
   256
1070
   271
1070
     2
1070
   272
1070
     2
1070
   279
1070
     2
1070
   340
1005
5F2
1002
}
  0
DIMENSION
  5
4B58
  8
SUNPOU
  2
*D35
 10
4927.263658917529
 20
1121.037656374695
 30
0.0
 11
4867.263658917529
 21
1261.037656374697
 31
0.0
 70
     0
 13
4597.4089294976593
 23
1401.0376563746961
 33
0.0
 14
4597.4089294976593
 24
1121.0376563746961
 34
0.0
 50
270.0
1001
ACAD
1000
DSTYLE
1002
{
1070
   287
1070
     5
1070
   287
1070
     5
1070
   287
1070
     5
1070
    40
1040
25.0
1070
    41
1040
2.0
1070
    42
1040
1.0
1070
    43
1040
6.0
1070
    44
1040
1.0
1070
    45
1040
0.1
1070
    73
1070
     0
1070
    74
1070
     0
1070
    77
1070
     1
1070
    78
1070
     8
1070
   140
1040
2.399999999999999
1070
   144
1040
0.5
1070
   147
1040
1.1999999999999991
1070
   172
1070
     1
1070
   176
1070
   256
1070
   177
1070
   256
1070
   178
1070
   256
1070
   271
1070
     2
1070
   272
1070
     2
1070
   279
1070
     2
1070
   340
1005
5F2
1002
}
  0
DIMENSION
  5
4B59
  8
SUNPOU
  2
*D33
 10
4927.263658917529
 20
1461.0376563746961
 30
0.0
 11
4865.0923201329824
 21
1534.5491088836991
 31
0.0
 70
   128
 13
4597.4089294976593
 23
1401.0376563746961
 33
0.0
 14
4612.4089294976602
 24
1461.0376563746961
 34
0.0
 50
270.0
1001
ACAD
1000
DSTYLE
1002
{
1070
   287
1070
     5
1070
   287
1070
     5
1070
   287
1070
     5
1070
    40
1040
25.0
1070
    41
1040
2.0
1070
    42
1040
1.0
1070
    43
1040
6.0
1070
    44
1040
1.0
1070
    45
1040
0.1
1070
    73
1070
     0
1070
    74
1070
     0
1070
    77
1070
     1
1070
    78
1070
     8
1070
   140
1040
2.399999999999999
1070
   144
1040
0.5
1070
   147
1040
1.1999999999999991
1070
   172
1070
     1
1070
   176
1070
   256
1070
   177
1070
   256
1070
   178
1070
   256
1070
   271
1070
     2
1070
   272
1070
     2
1070
   279
1070
     2
1070
   340
1005
5F2
1002
}
  0
TEXT
  5
4CCE
  8
MOJI2
 10
288.17642363810961
 20
5090.6775455455017
 30
0.0
 40
80.0
  1
設置図 (1/20)
 41
0.8
  7
EXT08
 11
288.17642363810961
 21
5130.6775455455017
 31
0.0
 73
     2
  0
LINE
  5
4CCF
  8
MOJI2
 10
276.99103561851013
 20
5055.1695645361788
 30
0.0
 11
509.80290275362847
 21
5055.1695645361788
 31
0.0
  0
LINE
  5
4CD0
  8
MOJI2
 10
276.99103561851013
 20
5075.1695645361797
 30
0.0
 11
509.80290275362847
 21
5075.1695645361797
 31
0.0
  0
TEXT
  5
4CF0
  8
MOJI2
 10
971.52773090260973
 20
3028.253192131428
 30
0.0
 40
80.0
  1
取付部詳細図 (1/5)
 41
0.8
  7
EXT08
 11
971.52773090260973
 21
3068.253192131428
 31
0.0
 73
     2
  0
LINE
  5
4CF1
  8
MOJI2
 10
963.72193382385024
 20
2994.9047866878191
 30
0.0
 11
1433.7224531237839
 21
2994.9047866878191
 31
0.0
  0
LINE
  5
4CF2
  8
MOJI2
 10
963.72193382385024
 20
3014.9047866878191
 30
0.0
 11
1433.7224531237839
 21
3014.9047866878191
 31
0.0
  0
LINE
  5
4CFA
  8
MOJI2
 10
4032.0997891839902
 20
1742.3415802738559
 30
0.0
 11
4820.6256357892207
 21
1742.3415802738559
 31
0.0
  0
TEXT
  5
4CFB
  8
MOJI2
 10
4059.2573172316388
 20
1773.0971747781659
 30
0.0
 40
80.0
  1
べースプレート詳細図 (1/10)
 41
0.8
  7
EXT08
 11
4059.2573172316388
 21
1813.0971747781659
 31
0.0
 73
     2
  0
LINE
  5
4CFC
  8
MOJI2
 10
4032.0997891839902
 20
1762.3415802738559
 30
0.0
 11
4820.6256357892207
 21
1762.3415802738559
 31
0.0
  0
INSERT
  5
4CFD
  8
0
  2
*U45
 10
0.0
 20
0.0
 30
0.0
1001
ACAD
1000
DSTYLE
1002
{
1070
     5
1000

1070
    40
1040
25.0
1070
    41
1040
2.0
1070
    42
1040
1.0
1070
    43
1040
6.0
1070
    44
1040
1.0
1070
    45
1040
0.1
1070
    73
1070
     0
1070
    74
1070
     0
1070
    77
1070
     1
1070
    78
1070
     8
1070
   140
1040
2.399999999999999
1070
   147
1040
1.1999999999999991
1070
   172
1070
     1
1070
   176
1070
   256
1070
   177
1070
   256
1070
   178
1070
   256
1070
   271
1070
     2
1070
   272
1070
     2
1070
   279
1070
     2
1070
   340
1005
5F2
1070
   342
1005
0
1002
}
  0
INSERT
  5
4CFE
  8
0
  2
*U46
 10
0.0
 20
0.0
 30
0.0
1001
ACAD
1000
DSTYLE
1002
{
1070
     5
1000

1070
    40
1040
25.0
1070
    41
1040
2.0
1070
    42
1040
1.0
1070
    43
1040
6.0
1070
    44
1040
1.0
1070
    45
1040
0.1
1070
    73
1070
     0
1070
    74
1070
     0
1070
    77
1070
     1
1070
    78
1070
     8
1070
   140
1040
2.399999999999999
1070
   147
1040
1.1999999999999991
1070
   172
1070
     1
1070
   176
1070
   256
1070
   177
1070
   256
1070
   178
1070
   256
1070
   271
1070
     2
1070
   272
1070
     2
1070
   279
1070
     2
1070
   340
1005
5F2
1070
   342
1005
0
1002
}
  0
INSERT
  5
4CFF
  8
0
  2
*U47
 10
0.0
 20
0.0
 30
0.0
1001
ACAD
1000
DSTYLE
1002
{
1070
     5
1000

1070
    40
1040
25.0
1070
    41
1040
2.0
1070
    42
1040
1.0
1070
    43
1040
6.0
1070
    44
1040
1.0
1070
    45
1040
0.1
1070
    73
1070
     0
1070
    74
1070
     0
1070
    77
1070
     1
1070
    78
1070
     8
1070
   140
1040
2.399999999999999
1070
   147
1040
1.1999999999999991
1070
   172
1070
     1
1070
   176
1070
   256
1070
   177
1070
   256
1070
   178
1070
   256
1070
   271
1070
     2
1070
   272
1070
     2
1070
   279
1070
     2
1070
   340
1005
5F2
1070
   342
1005
0
1002
}
  0
INSERT
  5
4D00
  8
0
  2
*U48
 10
0.0
 20
0.0
 30
0.0
1001
ACAD
1000
DSTYLE
1002
{
1070
     5
1000

1070
    40
1040
25.0
1070
    41
1040
2.0
1070
    42
1040
1.0
1070
    43
1040
6.0
1070
    44
1040
1.0
1070
    45
1040
0.1
1070
    73
1070
     0
1070
    74
1070
     0
1070
    77
1070
     1
1070
    78
1070
     8
1070
   140
1040
2.399999999999999
1070
   147
1040
1.1999999999999991
1070
   172
1070
     1
1070
   176
1070
   256
1070
   177
1070
   256
1070
   178
1070
   256
1070
   271
1070
     2
1070
   272
1070
     2
1070
   279
1070
     2
1070
   340
1005
5F2
1070
   342
1005
0
1002
}
  0
INSERT
  5
4D01
  8
0
  2
*U49
 10
0.0
 20
0.0
 30
0.0
1001
ACAD
1000
DSTYLE
1002
{
1070
     5
1000

1070
    40
1040
25.0
1070
    41
1040
2.0
1070
    42
1040
1.0
1070
    43
1040
6.0
1070
    44
1040
1.0
1070
    45
1040
0.1
1070
    73
1070
     0
1070
    74
1070
     0
1070
    77
1070
     1
1070
    78
1070
     8
1070
   140
1040
2.399999999999999
1070
   147
1040
1.1999999999999991
1070
   172
1070
     1
1070
   176
1070
   256
1070
   177
1070
   256
1070
   178
1070
   256
1070
   271
1070
     2
1070
   272
1070
     2
1070
   279
1070
     2
1070
   340
1005
5F2
1070
   342
1005
0
1002
}
  0
INSERT
  5
4D02
  8
0
  2
*U50
 10
0.0
 20
0.0
 30
0.0
1001
ACAD
1000
DSTYLE
1002
{
1070
     5
1000

1070
    40
1040
25.0
1070
    41
1040
2.0
1070
    42
1040
1.0
1070
    43
1040
6.0
1070
    44
1040
1.0
1070
    45
1040
0.1
1070
    73
1070
     0
1070
    74
1070
     0
1070
    77
1070
     1
1070
    78
1070
     8
1070
   140
1040
2.399999999999999
1070
   147
1040
1.1999999999999991
1070
   172
1070
     1
1070
   176
1070
   256
1070
   177
1070
   256
1070
   178
1070
   256
1070
   271
1070
     2
1070
   272
1070
     2
1070
   279
1070
     2
1070
   340
1005
5F2
1070
   342
1005
0
1002
}
  0
INSERT
  5
4D03
  8
0
  2
*U51
 10
0.0
 20
0.0
 30
0.0
1001
ACAD
1000
DSTYLE
1002
{
1070
     5
1000

1070
    40
1040
25.0
1070
    41
1040
2.0
1070
    42
1040
1.0
1070
    43
1040
6.0
1070
    44
1040
1.0
1070
    45
1040
0.1
1070
    73
1070
     0
1070
    74
1070
     0
1070
    77
1070
     1
1070
    78
1070
     8
1070
   140
1040
2.399999999999999
1070
   147
1040
1.1999999999999991
1070
   172
1070
     1
1070
   176
1070
   256
1070
   177
1070
   256
1070
   178
1070
   256
1070
   271
1070
     2
1070
   272
1070
     2
1070
   279
1070
     2
1070
   340
1005
5F2
1070
   342
1005
0
1002
}
  0
INSERT
  5
4D04
  8
0
  2
*U52
 10
0.0
 20
0.0
 30
0.0
1001
ACAD
1000
DSTYLE
1002
{
1070
     5
1000

1070
    40
1040
25.0
1070
    41
1040
2.0
1070
    42
1040
1.0
1070
    43
1040
6.0
1070
    44
1040
1.0
1070
    45
1040
0.1
1070
    73
1070
     0
1070
    74
1070
     0
1070
    77
1070
     1
1070
    78
1070
     8
1070
   140
1040
2.399999999999999
1070
   147
1040
1.1999999999999991
1070
   172
1070
     1
1070
   176
1070
   256
1070
   177
1070
   256
1070
   178
1070
   256
1070
   271
1070
     2
1070
   272
1070
     2
1070
   279
1070
     2
1070
   340
1005
5F2
1070
   342
1005
0
1002
}
  0
INSERT
  5
4D05
  8
0
  2
*U53
 10
0.0
 20
0.0
 30
0.0
1001
ACAD
1000
DSTYLE
1002
{
1070
     5
1000

1070
    40
1040
25.0
1070
    41
1040
2.0
1070
    42
1040
1.0
1070
    43
1040
6.0
1070
    44
1040
1.0
1070
    45
1040
0.1
1070
    73
1070
     0
1070
    74
1070
     0
1070
    77
1070
     1
1070
    78
1070
     8
1070
   140
1040
2.399999999999999
1070
   147
1040
1.1999999999999991
1070
   172
1070
     1
1070
   176
1070
   256
1070
   177
1070
   256
1070
   178
1070
   256
1070
   271
1070
     2
1070
   272
1070
     2
1070
   279
1070
     2
1070
   340
1005
5F2
1070
   342
1005
0
1002
}
  0
INSERT
  5
4D06
  8
0
  2
*U54
 10
0.0
 20
0.0
 30
0.0
1001
ACAD
1000
DSTYLE
1002
{
1070
     5
1000

1070
    40
1040
25.0
1070
    41
1040
2.0
1070
    42
1040
1.0
1070
    43
1040
6.0
1070
    44
1040
1.0
1070
    45
1040
0.1
1070
    73
1070
     0
1070
    74
1070
     0
1070
    77
1070
     1
1070
    78
1070
     8
1070
   140
1040
2.399999999999999
1070
   147
1040
1.1999999999999991
1070
   172
1070
     1
1070
   176
1070
   256
1070
   177
1070
   256
1070
   178
1070
   256
1070
   271
1070
     2
1070
   272
1070
     2
1070
   279
1070
     2
1070
   340
1005
5F2
1070
   342
1005
0
1002
}
  0
INSERT
  5
4D07
  8
0
  2
*U55
 10
0.0
 20
0.0
 30
0.0
1001
ACAD
1000
DSTYLE
1002
{
1070
     5
1000

1070
    40
1040
25.0
1070
    41
1040
2.0
1070
    42
1040
1.0
1070
    43
1040
6.0
1070
    44
1040
1.0
1070
    45
1040
0.1
1070
    73
1070
     0
1070
    74
1070
     0
1070
    77
1070
     1
1070
    78
1070
     8
1070
   140
1040
2.399999999999999
1070
   147
1040
1.1999999999999991
1070
   172
1070
     1
1070
   176
1070
   256
1070
   177
1070
   256
1070
   178
1070
   256
1070
   271
1070
     2
1070
   272
1070
     2
1070
   279
1070
     2
1070
   340
1005
5F2
1070
   342
1005
0
1002
}
  0
INSERT
  5
4D08
  8
0
  2
*U56
 10
0.0
 20
0.0
 30
0.0
1001
ACAD
1000
DSTYLE
1002
{
1070
     5
1000

1070
    40
1040
25.0
1070
    41
1040
2.0
1070
    42
1040
1.0
1070
    43
1040
6.0
1070
    44
1040
1.0
1070
    45
1040
0.1
1070
    73
1070
     0
1070
    74
1070
     0
1070
    77
1070
     1
1070
    78
1070
     8
1070
   140
1040
2.399999999999999
1070
   147
1040
1.1999999999999991
1070
   172
1070
     1
1070
   176
1070
   256
1070
   177
1070
   256
1070
   178
1070
   256
1070
   271
1070
     2
1070
   272
1070
     2
1070
   279
1070
     2
1070
   340
1005
5F2
1070
   342
1005
0
1002
}
  0
INSERT
  5
4D09
  8
0
  2
*U57
 10
0.0
 20
0.0
 30
0.0
1001
ACAD
1000
DSTYLE
1002
{
1070
     5
1000

1070
    40
1040
25.0
1070
    41
1040
2.0
1070
    42
1040
1.0
1070
    43
1040
6.0
1070
    44
1040
1.0
1070
    45
1040
0.1
1070
    73
1070
     0
1070
    74
1070
     0
1070
    77
1070
     1
1070
    78
1070
     8
1070
   140
1040
2.399999999999999
1070
   147
1040
1.1999999999999991
1070
   172
1070
     1
1070
   176
1070
   256
1070
   177
1070
   256
1070
   178
1070
   256
1070
   271
1070
     2
1070
   272
1070
     2
1070
   279
1070
     2
1070
   340
1005
5F2
1070
   342
1005
0
1002
}
  0
INSERT
  5
4D0A
  8
0
  2
*U58
 10
0.0
 20
0.0
 30
0.0
1001
ACAD
1000
DSTYLE
1002
{
1070
     5
1000

1070
    40
1040
25.0
1070
    41
1040
2.0
1070
    42
1040
1.0
1070
    43
1040
6.0
1070
    44
1040
1.0
1070
    45
1040
0.1
1070
    73
1070
     0
1070
    74
1070
     0
1070
    77
1070
     1
1070
    78
1070
     8
1070
   140
1040
2.399999999999999
1070
   147
1040
1.1999999999999991
1070
   172
1070
     1
1070
   176
1070
   256
1070
   177
1070
   256
1070
   178
1070
   256
1070
   271
1070
     2
1070
   272
1070
     2
1070
   279
1070
     2
1070
   340
1005
5F2
1070
   342
1005
0
1002
}
  0
INSERT
  5
4D0B
  8
0
  2
*U59
 10
0.0
 20
0.0
 30
0.0
1001
ACAD
1000
DSTYLE
1002
{
1070
     5
1000

1070
    40
1040
25.0
1070
    41
1040
2.0
1070
    42
1040
1.0
1070
    43
1040
6.0
1070
    44
1040
1.0
1070
    45
1040
0.1
1070
    73
1070
     0
1070
    74
1070
     0
1070
    77
1070
     1
1070
    78
1070
     8
1070
   140
1040
2.399999999999999
1070
   147
1040
1.1999999999999991
1070
   172
1070
     1
1070
   176
1070
   256
1070
   177
1070
   256
1070
   178
1070
   256
1070
   271
1070
     2
1070
   272
1070
     2
1070
   279
1070
     2
1070
   340
1005
5F2
1070
   342
1005
0
1002
}
  0
INSERT
  5
4D0C
  8
0
  2
*U60
 10
0.0
 20
0.0
 30
0.0
1001
ACAD
1000
DSTYLE
1002
{
1070
     5
1000

1070
    40
1040
25.0
1070
    41
1040
2.0
1070
    42
1040
1.0
1070
    43
1040
6.0
1070
    44
1040
1.0
1070
    45
1040
0.1
1070
    73
1070
     0
1070
    74
1070
     0
1070
    77
1070
     1
1070
    78
1070
     8
1070
   140
1040
2.399999999999999
1070
   147
1040
1.1999999999999991
1070
   172
1070
     1
1070
   176
1070
   256
1070
   177
1070
   256
1070
   178
1070
   256
1070
   271
1070
     2
1070
   272
1070
     2
1070
   279
1070
     2
1070
   340
1005
5F2
1070
   342
1005
0
1002
}
  0
TEXT
  5
4E9D
  8
MOJI
 10
6365.1276727350341
 20
977.04727960418222
 30
0.0
 40
60.0
  1
溶融亜鉛めっき　M12×90
 41
0.8
  7
EXT08
 72
     1
 11
6739.7562441636046
 21
977.04727960418222
 31
0.0
  0
TEXT
  5
4E9E
  8
MOJI
 10
6397.0631557773877
 20
1583.035859788474
 30
0.0
 40
60.0
  1
亜鉛めっき＋静電粉体塗装
 41
0.8
  7
EXT08
 72
     1
 11
6736.2631557773884
 21
1583.035859788474
 31
0.0
  0
TEXT
  5
4E9F
  8
MOJI
 10
6640.0712890629147
 20
378.03585978894421
 30
0.0
 40
60.0
  1
M16用
 41
0.8
  7
EXT08
 72
     1
 11
6738.5855747772002
 21
378.03585978894421
 31
0.0
  0
TEXT
  5
4EA0
  8
MOJI
 10
6355.4998604914863
 20
476.16919312223752
 30
0.0
 40
60.0
  1
溶融亜鉛めっき M16×190
 41
0.8
  7
EXT08
 72
     1
 11
6738.5855747772002
 21
476.16919312223752
 31
0.0
  0
LINE
  5
4EA1
  8
MOJI
 10
5315.4114585769094
 20
358.03585978892397
 30
0.0
 11
7191.7123579429817
 21
358.03585978892397
 31
0.0
  0
TEXT
  5
4EA2
  8
MOJI
 10
6397.0631557773877
 20
1079.7395891083211
 30
0.0
 40
60.0
  1
亜鉛めっき＋静電粉体塗装
 41
0.8
  7
EXT08
 72
     1
 11
6736.2631557773884
 21
1079.7395891083211
 31
0.0
  0
TEXT
  5
4EA3
  8
MOJI
 10
6615.676557233669
 20
1683.035859788434
 30
0.0
 40
60.0
  1
摘  要
 41
0.8
  7
EXT08
 72
     1
 11
6696.1337000908106
 21
1683.035859788434
 31
0.0
  0
TEXT
  5
4EA4
  8
MOJI
 10
6397.0631557773877
 20
1183.0358597886341
 30
0.0
 40
60.0
  1
亜鉛めっき＋静電粉体塗装
 41
0.8
  7
EXT08
 72
     1
 11
6736.2631557773884
 21
1183.0358597886341
 31
0.0
  0
TEXT
  5
4EA5
  8
MOJI
 10
6397.0631557773877
 20
1283.0358597885941
 30
0.0
 40
60.0
  1
亜鉛めっき＋静電粉体塗装
 41
0.8
  7
EXT08
 72
     1
 11
6736.2631557773884
 21
1283.0358597885941
 31
0.0
  0
TEXT
  5
4EA6
  8
MOJI
 10
6397.0631557773877
 20
1383.035859788554
 30
0.0
 40
60.0
  1
亜鉛めっき＋静電粉体塗装
 41
0.8
  7
EXT08
 72
     1
 11
6736.2631557773884
 21
1383.035859788554
 31
0.0
  0
TEXT
  5
4EA7
  8
MOJI
 10
6397.0631557773877
 20
1483.035859788514
 30
0.0
 40
60.0
  1
亜鉛めっき＋静電粉体塗装
 41
0.8
  7
EXT08
 72
     1
 11
6736.2631557773884
 21
1483.035859788514
 31
0.0
  0
TEXT
  5
4EA8
  8
MOJI
 10
6583.9981726844871
 20
775.81680045660357
 30
0.0
 40
60.0
  1
M12×25
 41
0.8
  7
EXT08
 72
     1
 11
6732.7981726844864
 21
775.81680045660357
 31
0.0
  0
TEXT
  5
4EA9
  8
MOJI
 10
6425.2986071999867
 20
675.8168004566437
 30
0.0
 40
60.0
  1
M10×25 ブロンズ色
 41
0.8
  7
EXT08
 72
     1
 11
6729.5271786285593
 21
675.8168004566437
 31
0.0
  0
TEXT
  5
4EAA
  8
MOJI
 10
6487.834129509285
 20
575.81680045668372
 30
0.0
 40
60.0
  1
M5×12 止メネジ
 41
0.8
  7
EXT08
 72
     1
 11
6738.8055580807149
 21
575.81680045668372
 31
0.0
  0
LINE
  5
4EAB
  8
MOJI
 10
5315.4114585769094
 20
458.03585978892391
 30
0.0
 11
7191.7123579429817
 21
458.03585978892391
 31
0.0
  0
LINE
  5
4EAC
  8
MOJI
 10
5315.4114585769094
 20
558.03585978888395
 30
0.0
 11
7191.7123579429817
 21
558.03585978888395
 31
0.0
  0
LINE
  5
4EAD
  8
MOJI
 10
5315.4114585769094
 20
658.03585978884394
 30
0.0
 11
7191.7123579429817
 21
658.03585978884394
 31
0.0
  0
LINE
  5
4EAE
  8
MOJI
 10
5315.4114585769094
 20
758.03585978880426
 30
0.0
 11
7191.7123579429817
 21
758.03585978880426
 31
0.0
  0
LINE
  5
4EAF
  8
MOJI
 10
5315.4114585769094
 20
858.03585978876436
 30
0.0
 11
7191.7123579429817
 21
858.03585978876436
 31
0.0
  0
LINE
  5
4EB0
  8
MOJI
 10
5315.4114585769094
 20
958.03585978872445
 30
0.0
 11
7191.7123579429817
 21
958.03585978872445
 31
0.0
  0
LINE
  5
4EB1
  8
MOJI
 10
5315.4114585769094
 20
1058.0358597886841
 30
0.0
 11
7191.7123579429817
 21
1058.0358597886841
 31
0.0
  0
LINE
  5
4EB2
  8
MOJI
 10
5315.4114585769094
 20
1158.0358597886441
 30
0.0
 11
7191.7123579429817
 21
1158.0358597886441
 31
0.0
  0
LINE
  5
4EB3
  8
MOJI
 10
5315.4114585769094
 20
1258.0358597886041
 30
0.0
 11
7191.7123579429817
 21
1258.0358597886041
 31
0.0
  0
LINE
  5
4EB4
  8
MOJI
 10
5315.4114585769094
 20
1358.035859788564
 30
0.0
 11
7191.7123579429817
 21
1358.035859788564
 31
0.0
  0
LINE
  5
4EB5
  8
MOJI
 10
5315.4114585769094
 20
1458.035859788524
 30
0.0
 11
7191.7123579429817
 21
1458.035859788524
 31
0.0
  0
LINE
  5
4EB6
  8
MOJI
 10
5315.4114585769094
 20
1558.035859788484
 30
0.0
 11
7191.7123579429817
 21
1558.035859788484
 31
0.0
  0
LINE
  5
4EB7
  8
MOJI
 10
5315.4114585769094
 20
1658.035859788444
 30
0.0
 11
7191.7123579429817
 21
1658.035859788444
 31
0.0
  0
TEXT
  5
4EB8
  8
MOJI
 10
5991.2684458400236
 20
1079.7395891083211
 30
0.0
 40
60.0
  1
SGH400
 41
0.8
  7
EXT08
 72
     1
 11
6131.8398744114511
 21
1079.7395891083211
 31
0.0
  0
TEXT
  5
4EB9
  8
MOJI
 10
5612.1247193209574
 20
1079.7395891083211
 30
0.0
 40
60.0
  1
取付金具
 41
0.8
  7
EXT08
 72
     1
 11
5720.9247193209567
 21
1079.7395891083211
 31
0.0
  0
LINE
  5
4EBA
  8
MOJI
 10
6285.4587916114206
 20
358.03585978892397
 30
0.0
 11
6285.4587916114197
 21
1758.035859788404
 31
0.0
  0
TEXT
  5
4EBB
  8
MOJI
 10
5377.0781252435518
 20
1083.035859788673
 30
0.0
 40
60.0
  1
6
 41
0.8
  7
EXT08
 72
     1
 11
5401.0781252435518
 21
1083.035859788673
 31
0.0
  0
LINE
  5
4EBC
  8
MOJI
 10
5315.4114585769103
 20
358.03585978892397
 30
0.0
 11
5315.4114585769094
 21
1758.035859788404
 31
0.0
  0
LINE
  5
4EBD
  8
MOJI
 10
5967.9321683528397
 20
358.03585978892397
 30
0.0
 11
5967.9321683528397
 21
1758.035859788404
 31
0.0
  0
LINE
  5
4EBE
  8
MOJI
 10
5473.7447919101796
 20
358.03585978892397
 30
0.0
 11
5473.7447919101796
 21
1758.035859788404
 31
0.0
  0
TEXT
  5
4EBF
  8
MOJI
 10
5487.9114585768402
 20
874.37750991832672
 30
0.0
 40
60.0
  1
ジョイントカバー
 41
0.8
  7
EXT08
 72
     1
 11
5711.9114585768402
 21
874.37750991832672
 31
0.0
  0
TEXT
  5
4EC0
  8
MOJI
 10
5345.4352681006867
 20
378.03585978894398
 30
0.0
 40
60.0
  1
13
 41
0.8
  7
EXT08
 72
     1
 11
5394.5781252435436
 21
378.03585978894398
 31
0.0
  0
TEXT
  5
4EC1
  8
MOJI
 10
5349.9873811759917
 20
483.03585978891391
 30
0.0
 40
60.0
  1
12
 41
0.8
  7
EXT08
 72
     1
 11
5399.1302383188486
 21
483.03585978891391
 31
0.0
  0
TEXT
  5
4EC2
  8
MOJI
 10
5349.9873811759908
 20
583.03585978887395
 30
0.0
 40
60.0
  1
11
 41
0.8
  7
EXT08
 72
     1
 11
5392.2730954617064
 21
583.03585978887395
 31
0.0
  0
TEXT
  5
4EC3
  8
MOJI
 10
5349.9873811759917
 20
683.03585978883393
 30
0.0
 40
60.0
  1
10
 41
0.8
  7
EXT08
 72
     1
 11
5399.1302383188486
 21
683.03585978883393
 31
0.0
  0
TEXT
  5
4EC4
  8
MOJI
 10
5377.0781252435527
 20
783.03585978879426
 30
0.0
 40
60.0
  1
9
 41
0.8
  7
EXT08
 72
     1
 11
5398.792410957838
 21
783.03585978879426
 31
0.0
  0
TEXT
  5
4EC5
  8
MOJI
 10
5377.0781252435518
 20
983.03585978871331
 30
0.0
 40
60.0
  1
7
 41
0.8
  7
EXT08
 72
     1
 11
5399.935268100694
 21
983.03585978871331
 31
0.0
  0
TEXT
  5
4EC6
  8
MOJI
 10
5377.0781252435518
 20
883.03585978875356
 30
0.0
 40
60.0
  1
8
 41
0.8
  7
EXT08
 72
     1
 11
5399.935268100694
 21
883.03585978875356
 31
0.0
  0
TEXT
  5
4EC7
  8
MOJI
 10
5981.3506457688682
 20
875.75133022760565
 30
0.0
 40
60.0
  1
アルミ合金
 41
0.8
  7
EXT08
 72
     1
 11
6122.1506457688693
 21
875.75133022760565
 31
0.0
  0
TEXT
  5
4EC8
  8
MOJI
 10
6024.3405006979601
 20
978.03585978868432
 30
0.0
 40
60.0
  1
4.6相当
 41
0.8
  7
EXT08
 72
     1
 11
6134.5119292693889
 21
978.03585978868432
 31
0.0
  0
TEXT
  5
4EC9
  8
MOJI
 10
6024.3405006979601
 20
478.0358597888839
 30
0.0
 40
60.0
  1
4.6相当
 41
0.8
  7
EXT08
 72
     1
 11
6134.5119292693889
 21
478.0358597888839
 31
0.0
  0
TEXT
  5
4ECA
  8
MOJI
 10
6052.9380818353166
 20
775.81680045660357
 30
0.0
 40
60.0
  1
SUS
 41
0.8
  7
EXT08
 72
     1
 11
6123.7952246924597
 21
775.81680045660357
 31
0.0
  0
TEXT
  5
4ECB
  8
MOJI
 10
6052.9380818353166
 20
675.8168004566437
 30
0.0
 40
60.0
  1
SUS
 41
0.8
  7
EXT08
 72
     1
 11
6123.7952246924597
 21
675.8168004566437
 31
0.0
  0
TEXT
  5
4ECC
  8
MOJI
 10
6052.9380818353166
 20
575.81680045668372
 30
0.0
 40
60.0
  1
SUS
 41
0.8
  7
EXT08
 72
     1
 11
6123.7952246924597
 21
575.81680045668372
 31
0.0
  0
TEXT
  5
4ECD
  8
MOJI
 10
5547.818345882316
 20
378.03585978892397
 30
0.0
 40
60.0
  1
樹脂カプセル
 41
0.8
  7
EXT08
 72
     1
 11
5711.0183458823149
 21
378.03585978892397
 31
0.0
  0
TEXT
  5
4ECE
  8
MOJI
 10
5527.2384801315111
 20
478.03585978890402
 30
0.0
 40
60.0
  1
アンカーボルト
 41
0.8
  7
EXT08
 72
     1
 11
5720.8384801315106
 21
478.03585978890402
 31
0.0
  0
TEXT
  5
4ECF
  8
MOJI
 10
5497.0611688059271
 20
575.81680045668372
 30
0.0
 40
60.0
  1
六角穴付止メネジ
 41
0.8
  7
EXT08
 72
     1
 11
5719.4611688059267
 21
575.81680045668372
 31
0.0
  0
TEXT
  5
4ED0
  8
MOJI
 10
5592.8433626312026
 20
979.73958910836063
 30
0.0
 40
60.0
  1
角根ボルト
 41
0.8
  7
EXT08
 72
     1
 11
5727.2433626312022
 21
979.73958910836063
 31
0.0
  0
TEXT
  5
4ED1
  8
MOJI
 10
5521.2967269407891
 20
775.81680045660357
 30
0.0
 40
60.0
  1
六角穴付ボルト
 41
0.8
  7
EXT08
 72
     1
 11
5711.6967269407887
 21
775.81680045660357
 31
0.0
  0
TEXT
  5
4ED2
  8
MOJI
 10
5578.5914403220922
 20
675.8168004566437
 30
0.0
 40
60.0
  1
取付ボルト
 41
0.8
  7
EXT08
 72
     1
 11
5711.3914403220924
 21
675.8168004566437
 31
0.0
  0
TEXT
  5
4ED3
  8
MOJI
 10
6618.4011856491798
 20
875.17931245385262
 30
0.0
 40
60.0
  1
焼付塗装
 41
0.8
  7
EXT08
 72
     1
 11
6727.2011856491781
 21
875.17931245385262
 31
0.0
  0
TEXT
  5
4ED4
  8
MOJI
 10
5491.2447919101733
 20
1283.0358597885941
 30
0.0
 40
60.0
  1
インナースリーブ
 41
0.8
  7
EXT08
 72
     1
 11
5718.4447919101722
 21
1283.0358597885941
 31
0.0
  0
TEXT
  5
4ED5
  8
MOJI
 10
5377.0781252435518
 20
1183.0358597886341
 30
0.0
 40
60.0
  1
5
 41
0.8
  7
EXT08
 72
     1
 11
5399.935268100694
 21
1183.0358597886341
 31
0.0
  0
TEXT
  5
4ED6
  8
MOJI
 10
5377.0781252435518
 20
1283.0358597885941
 30
0.0
 40
60.0
  1
4
 41
0.8
  7
EXT08
 72
     1
 11
5401.0781252435518
 21
1283.0358597885941
 31
0.0
  0
TEXT
  5
4ED7
  8
MOJI
 10
5377.0781252435518
 20
1383.035859788554
 30
0.0
 40
60.0
  1
3
 41
0.8
  7
EXT08
 72
     1
 11
5399.935268100694
 21
1383.035859788554
 31
0.0
  0
TEXT
  5
4ED8
  8
MOJI
 10
5377.0781252435518
 20
1483.035859788514
 30
0.0
 40
60.0
  1
2
 41
0.8
  7
EXT08
 72
     1
 11
5399.935268100694
 21
1483.035859788514
 31
0.0
  0
TEXT
  5
4ED9
  8
MOJI
 10
5337.9114585769003
 20
1683.035859788434
 30
0.0
 40
60.0
  1
部番
 41
0.8
  7
EXT08
 72
     1
 11
5389.1114585769001
 21
1683.035859788434
 31
0.0
  0
TEXT
  5
4EDA
  8
MOJI
 10
5375.2410947053077
 20
1583.035859788474
 30
0.0
 40
60.0
  1
1
 41
0.8
  7
EXT08
 72
     1
 11
5394.6696661338792
 21
1583.035859788474
 31
0.0
  0
TEXT
  5
4EDB
  8
MOJI
 10
6036.6925232409076
 20
1683.035859788434
 30
0.0
 40
60.0
  1
材  質
 41
0.8
  7
EXT08
 72
     1
 11
6116.6925232409076
 21
1683.035859788434
 31
0.0
  0
TEXT
  5
4EDC
  8
MOJI
 10
5995.438081835342
 20
1583.035859788474
 30
0.0
 40
60.0
  1
STK400
 41
0.8
  7
EXT08
 72
     1
 11
6129.1523675496292
 21
1583.035859788474
 31
0.0
  0
TEXT
  5
4EDD
  8
MOJI
 10
5991.2684458400236
 20
1283.0358597885941
 30
0.0
 40
60.0
  1
SGH400
 41
0.8
  7
EXT08
 72
     1
 11
6131.8398744114511
 21
1283.0358597885941
 31
0.0
  0
TEXT
  5
4EDE
  8
MOJI
 10
5995.438081835342
 20
1483.035859788514
 30
0.0
 40
60.0
  1
STK400
 41
0.8
  7
EXT08
 72
     1
 11
6129.1523675496292
 21
1483.035859788514
 31
0.0
  0
TEXT
  5
4EDF
  8
MOJI
 10
5995.438081835342
 20
1383.035859788554
 30
0.0
 40
60.0
  1
STK400
 41
0.8
  7
EXT08
 72
     1
 11
6129.1523675496292
 21
1383.035859788554
 31
0.0
  0
TEXT
  5
4EE0
  8
MOJI
 10
5991.2684458400236
 20
1183.0358597886341
 30
0.0
 40
60.0
  1
SGH400
 41
0.8
  7
EXT08
 72
     1
 11
6131.8398744114511
 21
1183.0358597886341
 31
0.0
  0
TEXT
  5
4EE1
  8
MOJI
 10
5597.7039792038167
 20
1483.035859788514
 30
0.0
 40
60.0
  1
格子パネル
 41
0.8
  7
EXT08
 72
     1
 11
5732.1039792038173
 21
1483.035859788514
 31
0.0
  0
TEXT
  5
4EE2
  8
MOJI
 10
5610.394619101221
 20
1183.0358597886341
 30
0.0
 40
60.0
  1
頭部金具
 41
0.8
  7
EXT08
 72
     1
 11
5719.1946191012212
 21
1183.0358597886341
 31
0.0
  0
TEXT
  5
4EE3
  8
MOJI
 10
5641.8485233883966
 20
1383.035859788554
 30
0.0
 40
60.0
  1
手  摺
 41
0.8
  7
EXT08
 72
     1
 11
5721.8485233883966
 21
1383.035859788554
 31
0.0
  0
TEXT
  5
4EE4
  8
MOJI
 10
5643.5151900550627
 20
1683.035859788434
 30
0.0
 40
60.0
  1
品  名
 41
0.8
  7
EXT08
 72
     1
 11
5721.9151900550632
 21
1683.035859788434
 31
0.0
  0
TEXT
  5
4EE5
  8
MOJI
 10
5641.8485233883966
 20
1583.035859788474
 30
0.0
 40
60.0
  1
支  柱
 41
0.8
  7
EXT08
 72
     1
 11
5721.8485233883966
 21
1583.035859788474
 31
0.0
  0
LINE
  5
4EE6
  8
MOJI
 10
7191.7123579429817
 20
358.03585978892397
 30
0.0
 11
7191.7123579429817
 21
1758.035859788404
 31
0.0
  0
LINE
  5
4F18
  8
CENTER
 10
887.14997567284252
 20
3391.1342274547951
 30
0.0
 11
887.14997567284252
 21
4542.713246217053
 31
0.0
  0
LINE
  5
4F4F
  8
CENTER
 10
2887.1499756728431
 20
3391.1342274547951
 30
0.0
 11
2887.1499756728431
 21
4542.713246217053
 31
0.0
  0
LINE
  5
4F51
  8
CENTER
 10
6119.1767469451243
 20
3391.1342274547992
 30
0.0
 11
6119.1767469451243
 21
4542.7132462170566
 31
0.0
  0
LINE
  5
4F52
  8
CENTER
 10
5124.7786137312651
 20
2987.504553677436
 30
0.0
 11
5124.7786137312651
 21
4542.713246217053
 31
0.0
  0
TEXT
  5
4FF8
  8
MOJI
 10
1605.992119448
 20
1974.296635884418
 30
0.0
 40
60.0
  1
M10×25
 41
0.8
  7
EXT08
 11
1605.992119448
 21
2004.296635884418
 31
0.0
 73
     2
  0
TEXT
  5
4FF9
  8
MOJI
 10
1601.571647219859
 20
1763.1051664643239
 30
0.0
 40
60.0
  1
M12×25
 41
0.8
  7
EXT08
 11
1601.571647219859
 21
1793.1051664643239
 31
0.0
 73
     2
  0
INSERT
  5
4FFA
  8
ZWAKU
  2
CALCOMP_TECHJET720A3
 10
0.0
 20
0.0
 30
0.0
 41
20.0
 42
20.0
 43
20.0
  0
TEXT
  5
4FFB
  8
INFORMATION
 10
1.0
 20
2.0
 30
0.0
 40
0.8
  1
PLOTTER=CALCOMP_TECHJET720
 72
     4
 11
10.828571428571429
 21
2.3619047619047628
 31
0.0
  0
TEXT
  5
4FFC
  8
INFORMATION
 10
1.0
 20
3.0
 30
0.0
 40
0.8
  1
PAPER=A3
 72
     4
 11
4.1428571428571432
 21
3.3999999999999999
 31
0.0
  0
TEXT
  5
4FFD
  8
INFORMATION
 10
0.9999999999999996
 20
1.0
 30
0.0
 40
0.8
  1
VERSION=3.0
 72
     4
 11
4.8857142857142861
 21
1.3999999999999999
 31
0.0
  0
DIMENSION
  5
5010
  8
SUNPOU
  2
*D38
 10
2942.5460220111768
 20
656.08424922401798
 30
0.0
 11
2882.5460220111768
 21
821.75291851114639
 31
0.0
 70
     0
  1
300
 13
2410.1051872024741
 23
1037.421587798274
 33
0.0
 14
2546.1047518072642
 24
656.08424922401809
 34
0.0
 50
90.0
1001
ACAD
1000
DSTYLE
1002
{
1070
   287
1070
     5
1070
   287
1070
     5
1070
   287
1070
     5
1070
     7
1000
NONE
1070
   173
1070
     1
1070
     6
1000

1070
    76
1070
     1
1070
    40
1040
25.0
1070
    41
1040
2.0
1070
    42
1040
1.0
1070
    43
1040
6.0
1070
    44
1040
1.0
1070
    45
1040
0.1
1070
    73
1070
     0
1070
    74
1070
     0
1070
    77
1070
     1
1070
    78
1070
     8
1070
   140
1040
2.399999999999999
1070
   144
1040
0.25
1070
   147
1040
1.1999999999999991
1070
   172
1070
     1
1070
   176
1070
   256
1070
   177
1070
   256
1070
   178
1070
   256
1070
   271
1070
     2
1070
   272
1070
     2
1070
   279
1070
     2
1070
   340
1005
5F2
1002
}
  0
DIMENSION
  5
504E
  8
SUNPOU
  2
*D39
 10
4264.7941593933874
 20
4886.7132462170539
 30
0.0
 11
3600.9720675331159
 21
4946.7132462170539
 31
0.0
 70
     0
  1
2000
 13
2887.1499756728431
 23
4542.7757462170539
 33
0.0
 14
4264.7941593933874
 24
4588.7132462170539
 34
0.0
1001
ACAD
1000
DSTYLE
1002
{
1070
   287
1070
     5
1070
   287
1070
     5
1070
   287
1070
     5
1070
    40
1040
25.0
1070
    41
1040
2.0
1070
    42
1040
1.0
1070
    43
1040
6.0
1070
    44
1040
1.0
1070
    45
1040
0.1
1070
    73
1070
     0
1070
    74
1070
     0
1070
    76
1070
     1
1070
    77
1070
     1
1070
    78
1070
     8
1070
   140
1040
2.399999999999999
1070
   144
1040
1.0
1070
   147
1040
1.1999999999999991
1070
   172
1070
     1
1070
   173
1070
     1
1070
   176
1070
   256
1070
   177
1070
   256
1070
   178
1070
   256
1070
   271
1070
     2
1070
   272
1070
     2
1070
   279
1070
     2
1070
   340
1005
5F2
1070
     7
1000
NONE
1002
}
  0
INSERT
  5
50C0
  8
0
  2
*U61
 10
0.0
 20
0.0
 30
0.0
1001
ACAD
1000
DSTYLE
1002
{
1070
     5
1000

1070
    40
1040
25.0
1070
    41
1040
2.0
1070
    42
1040
1.0
1070
    43
1040
6.0
1070
    44
1040
1.0
1070
    45
1040
0.1
1070
    73
1070
     0
1070
    74
1070
     0
1070
    77
1070
     1
1070
    78
1070
     8
1070
   140
1040
2.399999999999999
1070
   147
1040
1.1999999999999991
1070
   172
1070
     1
1070
   176
1070
   256
1070
   177
1070
   256
1070
   178
1070
   256
1070
   271
1070
     2
1070
   272
1070
     2
1070
   279
1070
     2
1070
   340
1005
5F2
1070
   342
1005
0
1002
}
  0
LINE
  5
50C1
  8
MOJI
 10
2011.8822756711861
 20
4574.0646549352969
 30
0.0
 11
2421.7249379341811
 21
4574.0646549352969
 31
0.0
  0
INSERT
  5
50C2
  8
0
  2
*U62
 10
0.0
 20
0.0
 30
0.0
1001
ACAD
1000
DSTYLE
1002
{
1070
     5
1000

1070
    40
1040
25.0
1070
    41
1040
2.0
1070
    42
1040
1.0
1070
    43
1040
6.0
1070
    44
1040
1.0
1070
    45
1040
0.1
1070
    73
1070
     0
1070
    74
1070
     0
1070
    77
1070
     1
1070
    78
1070
     8
1070
   140
1040
2.399999999999999
1070
   147
1040
1.1999999999999991
1070
   172
1070
     1
1070
   176
1070
   256
1070
   177
1070
   256
1070
   178
1070
   256
1070
   271
1070
     2
1070
   272
1070
     2
1070
   279
1070
     2
1070
   340
1005
5F2
1070
   342
1005
0
1002
}
  0
DIMENSION
  5
5182
  8
SUNPOU
  2
*D40
 10
1019.050122682143
 20
4716.8636131255134
 30
0.0
 11
1126.3775105350171
 21
4782.3117988684253
 31
0.0
 70
   128
 13
1147.050122682143
 23
4274.0136610839554
 33
0.0
 14
1019.050122682143
 24
4274.0136610839554
 34
0.0
 50
179.93269230257749
1001
ACAD
1000
DSTYLE
1002
{
1070
   287
1070
     5
1070
   287
1070
     5
1070
   287
1070
     5
1070
    40
1040
25.0
1070
    41
1040
2.0
1070
    42
1040
1.0
1070
    43
1040
6.0
1070
    44
1040
1.0
1070
    45
1040
0.1
1070
    73
1070
     0
1070
    74
1070
     0
1070
    77
1070
     1
1070
    78
1070
     8
1070
   140
1040
2.399999999999999
1070
   147
1040
1.1999999999999991
1070
   172
1070
     1
1070
   173
1070
     1
1070
   176
1070
   256
1070
   177
1070
   256
1070
   178
1070
   256
1070
   271
1070
     2
1070
   272
1070
     2
1070
   279
1070
     2
1070
   340
1005
5F2
1070
     7
1000
NONE
1002
}
  0
TEXT
  5
5620
  8
MOJI
 10
148.4858100426149
 20
1378.1734041678831
 30
0.0
 40
60.0
  1
M12×90
 41
0.8
  7
EXT08
 11
148.4858100426149
 21
1408.1734041678831
 31
0.0
 73
     2
  0
ENDSEC
  0
EOF
