  0
SECTION
  2
HEADER
  9
$ACADVER
  1
AC1018
  9
$ACADMAINTVER
 70
    39
  9
$DWGCODEPAGE
  3
ANSI_932
  9
$INSBASE
 10
0.0
 20
0.0
 30
0.0
  9
$EXTMIN
 10
0.0
 20
0.0
 30
0.0
  9
$EXTMAX
 10
394.4729918274958
 20
273.3213346019399
 30
0.0
  9
$LIMMIN
 10
0.0
 20
0.0
  9
$LIMMAX
 10
420.0
 20
297.0
  9
$ORTHOMODE
 70
     1
  9
$REGENMODE
 70
     1
  9
$FILLMODE
 70
     1
  9
$QTEXTMODE
 70
     0
  9
$MIRRTEXT
 70
     0
  9
$LTSCALE
 40
20.0
  9
$ATTMODE
 70
     1
  9
$TEXTSIZE
 40
3.0
  9
$TRACEWID
 40
0.05
  9
$TEXTSTYLE
  7
EXT08
  9
$CLAYER
  8
SUNPOU
  9
$CELTYPE
  6
BYLAYER
  9
$CECOLOR
 62
   256
  9
$CELTSCALE
 40
1.0
  9
$DISPSILH
 70
     0
  9
$DIMSCALE
 40
1.0
  9
$DIMASZ
 40
2.0
  9
$DIMEXO
 40
1.0
  9
$DIMDLI
 40
6.0
  9
$DIMRND
 40
0.0
  9
$DIMDLE
 40
0.0
  9
$DIMEXE
 40
1.0
  9
$DIMTP
 40
0.0
  9
$DIMTM
 40
0.0
  9
$DIMTXT
 40
3.0
  9
$DIMCEN
 40
0.09
  9
$DIMTSZ
 40
0.0
  9
$DIMTOL
 70
     0
  9
$DIMLIM
 70
     0
  9
$DIMTIH
 70
     0
  9
$DIMTOH
 70
     0
  9
$DIMSE1
 70
     0
  9
$DIMSE2
 70
     0
  9
$DIMTAD
 70
     3
  9
$DIMZIN
 70
     8
  9
$DIMBLK
  1

  9
$DIMASO
 70
     1
  9
$DIMSHO
 70
     1
  9
$DIMPOST
  1

  9
$DIMAPOST
  1

  9
$DIMALT
 70
     0
  9
$DIMALTD
 70
     2
  9
$DIMALTF
 40
25.4
  9
$DIMLFAC
 40
1.0
  9
$DIMTOFL
 70
     1
  9
$DIMTVP
 40
0.0
  9
$DIMTIX
 70
     0
  9
$DIMSOXD
 70
     0
  9
$DIMSAH
 70
     0
  9
$DIMBLK1
  1

  9
$DIMBLK2
  1

  9
$DIMSTYLE
  2
SJC
  9
$DIMCLRD
 70
   256
  9
$DIMCLRE
 70
   256
  9
$DIMCLRT
 70
   256
  9
$DIMTFAC
 40
1.0
  9
$DIMGAP
 40
1.199999999999999
  9
$DIMJUST
 70
     0
  9
$DIMSD1
 70
     0
  9
$DIMSD2
 70
     0
  9
$DIMTOLJ
 70
     1
  9
$DIMTZIN
 70
     0
  9
$DIMALTZ
 70
     0
  9
$DIMALTTZ
 70
     0
  9
$DIMUPT
 70
     0
  9
$DIMDEC
 70
     2
  9
$DIMTDEC
 70
     4
  9
$DIMALTU
 70
     2
  9
$DIMALTTD
 70
     2
  9
$DIMTXSTY
  7
EXT08
  9
$DIMAUNIT
 70
     1
  9
$DIMADEC
 70
     0
  9
$DIMALTRND
 40
0.0
  9
$DIMAZIN
 70
     0
  9
$DIMDSEP
 70
    46
  9
$DIMATFIT
 70
     3
  9
$DIMFRAC
 70
     0
  9
$DIMLDRBLK
  1

  9
$DIMLUNIT
 70
     2
  9
$DIMLWD
 70
    -2
  9
$DIMLWE
 70
    -2
  9
$DIMTMOVE
 70
     0
  9
$LUNITS
 70
     2
  9
$LUPREC
 70
     2
  9
$SKETCHINC
 40
0.1
  9
$FILLETRAD
 40
1.3
  9
$AUNITS
 70
     1
  9
$AUPREC
 70
     2
  9
$MENU
  1
C:\r13\win\SUPPORT\SJC
  9
$ELEVATION
 40
0.0
  9
$PELEVATION
 40
0.0
  9
$THICKNESS
 40
0.0
  9
$LIMCHECK
 70
     0
  9
$CHAMFERA
 40
0.0
  9
$CHAMFERB
 40
0.0
  9
$CHAMFERC
 40
0.0
  9
$CHAMFERD
 40
0.0
  9
$SKPOLY
 70
     0
  9
$TDCREATE
 40
2450409.423380093
  9
$TDUCREATE
 40
2450409.048380093
  9
$TDUPDATE
 40
2455020.601674074
  9
$TDUUPDATE
 40
2455020.226674074
  9
$TDINDWG
 40
0.5429536343
  9
$TDUSRTIMER
 40
0.5429536343
  9
$USRTIMER
 70
     1
  9
$ANGBASE
 50
0.0
  9
$ANGDIR
 70
     0
  9
$PDMODE
 70
     0
  9
$PDSIZE
 40
0.0
  9
$PLINEWID
 40
0.0
  9
$SPLFRAME
 70
     0
  9
$SPLINETYPE
 70
     6
  9
$SPLINESEGS
 70
     8
  9
$HANDSEED
  5
1B4F
  9
$SURFTAB1
 70
     6
  9
$SURFTAB2
 70
     6
  9
$SURFTYPE
 70
     6
  9
$SURFU
 70
     6
  9
$SURFV
 70
     6
  9
$UCSBASE
  2

  9
$UCSNAME
  2

  9
$UCSORG
 10
0.0
 20
0.0
 30
0.0
  9
$UCSXDIR
 10
1.0
 20
0.0
 30
0.0
  9
$UCSYDIR
 10
0.0
 20
1.0
 30
0.0
  9
$UCSORTHOREF
  2

  9
$UCSORTHOVIEW
 70
     0
  9
$UCSORGTOP
 10
0.0
 20
0.0
 30
0.0
  9
$UCSORGBOTTOM
 10
0.0
 20
0.0
 30
0.0
  9
$UCSORGLEFT
 10
0.0
 20
0.0
 30
0.0
  9
$UCSORGRIGHT
 10
0.0
 20
0.0
 30
0.0
  9
$UCSORGFRONT
 10
0.0
 20
0.0
 30
0.0
  9
$UCSORGBACK
 10
0.0
 20
0.0
 30
0.0
  9
$PUCSBASE
  2

  9
$PUCSNAME
  2

  9
$PUCSORG
 10
0.0
 20
0.0
 30
0.0
  9
$PUCSXDIR
 10
1.0
 20
0.0
 30
0.0
  9
$PUCSYDIR
 10
0.0
 20
1.0
 30
0.0
  9
$PUCSORTHOREF
  2

  9
$PUCSORTHOVIEW
 70
     0
  9
$PUCSORGTOP
 10
0.0
 20
0.0
 30
0.0
  9
$PUCSORGBOTTOM
 10
0.0
 20
0.0
 30
0.0
  9
$PUCSORGLEFT
 10
0.0
 20
0.0
 30
0.0
  9
$PUCSORGRIGHT
 10
0.0
 20
0.0
 30
0.0
  9
$PUCSORGFRONT
 10
0.0
 20
0.0
 30
0.0
  9
$PUCSORGBACK
 10
0.0
 20
0.0
 30
0.0
  9
$USERI1
 70
     3
  9
$USERI2
 70
     1
  9
$USERI3
 70
     0
  9
$USERI4
 70
     0
  9
$USERI5
 70
     0
  9
$USERR1
 40
0.0
  9
$USERR2
 40
0.0
  9
$USERR3
 40
0.0
  9
$USERR4
 40
0.0
  9
$USERR5
 40
0.0
  9
$WORLDVIEW
 70
     1
  9
$SHADEDGE
 70
     3
  9
$SHADEDIF
 70
    70
  9
$TILEMODE
 70
     1
  9
$MAXACTVP
 70
    16
  9
$PINSBASE
 10
0.0
 20
0.0
 30
0.0
  9
$PLIMCHECK
 70
     0
  9
$PEXTMIN
 10
1.000000000000000E+20
 20
1.000000000000000E+20
 30
1.000000000000000E+20
  9
$PEXTMAX
 10
-1.000000000000000E+20
 20
-1.000000000000000E+20
 30
-1.000000000000000E+20
  9
$PLIMMIN
 10
0.0
 20
0.0
  9
$PLIMMAX
 10
12.0
 20
9.0
  9
$UNITMODE
 70
     0
  9
$VISRETAIN
 70
     0
  9
$PLINEGEN
 70
     0
  9
$PSLTSCALE
 70
     0
  9
$TREEDEPTH
 70
  3020
  9
$CMLSTYLE
  2
STANDARD
  9
$CMLJUST
 70
     0
  9
$CMLSCALE
 40
1.0
  9
$PROXYGRAPHICS
 70
     1
  9
$MEASUREMENT
 70
     0
  9
$CELWEIGHT
370
    -1
  9
$ENDCAPS
280
     0
  9
$JOINSTYLE
280
     0
  9
$LWDISPLAY
290
     0
  9
$INSUNITS
 70
     0
  9
$HYPERLINKBASE
  1

  9
$STYLESHEET
  1

  9
$XEDIT
290
     1
  9
$CEPSNTYPE
380
     0
  9
$PSTYLEMODE
290
     1
  9
$FINGERPRINTGUID
  2
{D1ADA558-61B9-4378-8497-846EE2651DAF}
  9
$VERSIONGUID
  2
{A3A82235-B952-43BA-8B6C-F02D76438CC6}
  9
$EXTNAMES
290
     1
  9
$PSVPSCALE
 40
0.0
  9
$OLESTARTUP
290
     0
  9
$SORTENTS
280
   127
  9
$INDEXCTL
280
     0
  9
$HIDETEXT
280
     0
  9
$XCLIPFRAME
290
     0
  9
$HALOGAP
280
     0
  9
$OBSCOLOR
 70
   257
  9
$OBSLTYPE
280
     0
  9
$INTERSECTIONDISPLAY
280
     0
  9
$INTERSECTIONCOLOR
 70
   257
  9
$DIMASSOC
280
     1
  9
$PROJECTNAME
  1

  0
ENDSEC
  0
SECTION
  2
CLASSES
  0
CLASS
  1
ACDBDICTIONARYWDFLT
  2
AcDbDictionaryWithDefault
  3
ObjectDBX Classes
 90
        0
 91
        1
280
     0
281
     0
  0
CLASS
  1
TABLESTYLE
  2
AcDbTableStyle
  3
ObjectDBX Classes
 90
     2047
 91
        1
280
     0
281
     0
  0
CLASS
  1
DICTIONARYVAR
  2
AcDbDictionaryVar
  3
ObjectDBX Classes
 90
        0
 91
        1
280
     0
281
     0
  0
ENDSEC
  0
SECTION
  2
TABLES
  0
TABLE
  2
VPORT
  5
8
330
0
100
AcDbSymbolTable
 70
     2
  0
VPORT
  5
1B4E
330
8
100
AcDbSymbolTableRecord
100
AcDbViewportTableRecord
  2
*Active
 70
     0
 10
0.0
 20
0.0
 11
1.0
 21
1.0
 12
244.0183831692841
 22
145.7709816834215
 13
0.0
 23
0.0
 14
1.0
 24
1.0
 15
0.0
 25
0.0
 16
0.0
 26
0.0
 36
1.0
 17
0.0
 27
0.0
 37
0.0
 40
291.5419633668431
 41
1.673984632272228
 42
50.0
 43
0.0
 44
0.0
 50
0.0
 51
0.0
 71
     0
 72
   100
 73
     1
 74
     0
 75
     0
 76
     0
 77
     0
 78
     0
281
     0
 65
     1
110
0.0
120
0.0
130
0.0
111
1.0
121
0.0
131
0.0
112
0.0
122
1.0
132
0.0
 79
     0
146
0.0
  0
ENDTAB
  0
TABLE
  2
LTYPE
  5
5
330
0
100
AcDbSymbolTable
 70
     4
  0
LTYPE
  5
12
330
5
100
AcDbSymbolTableRecord
100
AcDbLinetypeTableRecord
  2
BYBLOCK
 70
     0
  3

 72
    65
 73
     0
 40
0.0
  0
LTYPE
  5
13
330
5
100
AcDbSymbolTableRecord
100
AcDbLinetypeTableRecord
  2
BYLAYER
 70
     0
  3

 72
    65
 73
     0
 40
0.0
  0
LTYPE
  5
14
330
5
100
AcDbSymbolTableRecord
100
AcDbLinetypeTableRecord
  2
CONTINUOUS
 70
     0
  3
実線
 72
    65
 73
     0
 40
0.0
  0
LTYPE
  5
92C
330
5
100
AcDbSymbolTableRecord
100
AcDbLinetypeTableRecord
  2
CENTER
 70
     0
  3
____ _ ____ _ ____ _ ____ _ ____ _ ____ _ ____ 
 72
    65
 73
     4
 40
2.0
 49
1.25
 74
     0
 49
-0.25
 74
     0
 49
0.25
 74
     0
 49
-0.25
 74
     0
  0
LTYPE
  5
92D
330
5
100
AcDbSymbolTableRecord
100
AcDbLinetypeTableRecord
  2
HIDDEN
 70
     0
  3
__ __ __ __ __ __ __ __ __ __ __ __ __ __ __ __
 72
    65
 73
     2
 40
0.375
 49
0.25
 74
     0
 49
-0.125
 74
     0
  0
LTYPE
  5
92E
330
5
100
AcDbSymbolTableRecord
100
AcDbLinetypeTableRecord
  2
PHANTOM
 70
     0
  3
______  __  __  ______  __  __  ______  __  __ 
 72
    65
 73
     6
 40
2.5
 49
1.25
 74
     0
 49
-0.25
 74
     0
 49
0.25
 74
     0
 49
-0.25
 74
     0
 49
0.25
 74
     0
 49
-0.25
 74
     0
  0
ENDTAB
  0
TABLE
  2
LAYER
  5
2
330
0
100
AcDbSymbolTable
 70
    17
  0
LAYER
  5
F
330
2
100
AcDbSymbolTableRecord
100
AcDbLayerTableRecord
  2
0
 70
     0
 62
     7
  6
CONTINUOUS
370
    -3
390
19DF
  0
LAYER
  5
63
330
2
100
AcDbSymbolTableRecord
100
AcDbLayerTableRecord
  2
KEN
 70
     0
 62
     1
  6
CONTINUOUS
370
    -3
390
19DF
  0
LAYER
  5
64
330
2
100
AcDbSymbolTableRecord
100
AcDbLayerTableRecord
  2
KASOU
 70
     0
 62
     2
  6
PHANTOM
370
    -3
390
19DF
  0
LAYER
  5
65
330
2
100
AcDbSymbolTableRecord
100
AcDbLayerTableRecord
  2
CENTER
 70
     0
 62
     3
  6
CENTER
370
    -3
390
19DF
  0
LAYER
  5
66
330
2
100
AcDbSymbolTableRecord
100
AcDbLayerTableRecord
  2
SUNPOU
 70
     0
 62
     4
  6
CONTINUOUS
370
    -3
390
19DF
  0
LAYER
  5
67
330
2
100
AcDbSymbolTableRecord
100
AcDbLayerTableRecord
  2
MOJI
 70
     0
 62
     6
  6
CONTINUOUS
370
    -3
390
19DF
  0
LAYER
  5
68
330
2
100
AcDbSymbolTableRecord
100
AcDbLayerTableRecord
  2
HASEN
 70
     0
 62
     7
  6
HIDDEN
370
    -3
390
19DF
  0
LAYER
  5
69
330
2
100
AcDbSymbolTableRecord
100
AcDbLayerTableRecord
  2
LIST
 70
     0
 62
     6
  6
CONTINUOUS
370
    -3
390
19DF
  0
LAYER
  5
6A
330
2
100
AcDbSymbolTableRecord
100
AcDbLayerTableRecord
  2
WAKU
 70
     0
 62
     5
  6
CONTINUOUS
370
    -3
390
19DF
  0
LAYER
  5
6B
330
2
100
AcDbSymbolTableRecord
100
AcDbLayerTableRecord
  2
DEFPOINTS
 70
     0
 62
     7
  6
CONTINUOUS
290
     0
370
    -3
390
19DF
  0
LAYER
  5
92B
330
2
100
AcDbSymbolTableRecord
100
AcDbLayerTableRecord
  2
ZWAKU
 70
     0
 62
     7
  6
CONTINUOUS
370
    -3
390
19DF
  0
LAYER
  5
92F
330
2
100
AcDbSymbolTableRecord
100
AcDbLayerTableRecord
  2
HOJO
 70
     0
 62
    -8
  6
CONTINUOUS
370
    -3
390
19DF
  0
LAYER
  5
930
330
2
100
AcDbSymbolTableRecord
100
AcDbLayerTableRecord
  2
SJC
 70
     0
 62
     1
  6
CONTINUOUS
370
    -3
390
19DF
  0
LAYER
  5
940
330
2
100
AcDbSymbolTableRecord
100
AcDbLayerTableRecord
  2
INFORMATION
 70
     1
 62
     7
  6
CONTINUOUS
370
    -3
390
19DF
  0
LAYER
  5
967
330
2
100
AcDbSymbolTableRecord
100
AcDbLayerTableRecord
  2
SJC2
 70
     0
 62
     7
  6
CONTINUOUS
370
    -3
390
19DF
  0
LAYER
  5
968
330
2
100
AcDbSymbolTableRecord
100
AcDbLayerTableRecord
  2
MOJI2
 70
     0
 62
     1
  6
CONTINUOUS
370
    -3
390
19DF
  0
LAYER
  5
969
330
2
100
AcDbSymbolTableRecord
100
AcDbLayerTableRecord
  2
HATCH
 70
     0
 62
     2
  6
CONTINUOUS
370
    -3
390
19DF
  0
ENDTAB
  0
TABLE
  2
STYLE
  5
3
330
0
100
AcDbSymbolTable
 70
    11
  0
STYLE
  5
10
330
3
100
AcDbSymbolTableRecord
100
AcDbTextStyleTableRecord
  2
STANDARD
 70
     0
 40
0.0
 41
1.0
 50
0.0
 71
     0
 42
5.0
  3
txt
  4

  0
STYLE
  5
5E
330
3
100
AcDbSymbolTableRecord
100
AcDbTextStyleTableRecord
  2
Y-TYPE
 70
     0
 40
5.0
 41
0.6
 50
0.0
 71
     0
 42
5.0
  3
TXT
  4
BIGFONT
  0
STYLE
  5
5F
330
3
100
AcDbSymbolTableRecord
100
AcDbTextStyleTableRecord
  2
T-TYPE
 70
     0
 40
4.0
 41
0.6
 50
0.0
 71
     0
 42
5.0
  3
MONOTXT
  4
BIGFONT
  0
STYLE
  5
60
330
3
100
AcDbSymbolTableRecord
100
AcDbTextStyleTableRecord
  2
Y-MOJI
 70
     0
 40
3.5
 41
0.6
 50
0.0
 71
     0
 42
3.5
  3
TXT
  4
BIGFONT
  0
STYLE
  5
931
330
3
100
AcDbSymbolTableRecord
100
AcDbTextStyleTableRecord
  2
KANJI
 70
     0
 40
0.0
 41
1.0
 50
0.0
 71
     0
 42
5.0
  3
ROMANS.SHX
  4
BIGFONT.SHX
  0
STYLE
  5
932
330
3
100
AcDbSymbolTableRecord
100
AcDbTextStyleTableRecord
  2
SIMPLEX
 70
     0
 40
0.0
 41
1.0
 50
0.0
 71
     0
 42
5.0
  3
SCRIPTS.SHX
  4

  0
STYLE
  5
97A
330
3
100
AcDbSymbolTableRecord
100
AcDbTextStyleTableRecord
  2
TATEEXT
 70
     4
 40
0.0
 41
1.0
 50
0.0
 71
     0
 42
5.0
  3
ROMANS
  4
EXTFONT
  0
STYLE
  5
97B
330
3
100
AcDbSymbolTableRecord
100
AcDbTextStyleTableRecord
  2
TATEBIG
 70
     4
 40
0.0
 41
1.0
 50
0.0
 71
     0
 42
5.0
  3
ROMANS
  4
BIGFONT
  0
STYLE
  5
97C
330
3
100
AcDbSymbolTableRecord
100
AcDbTextStyleTableRecord
  2
EXT08
 70
     0
 40
0.0
 41
0.8
 50
0.0
 71
     0
 42
3.0
  3
ROMANS
  4
EXTFONT
  0
STYLE
  5
97D
330
3
100
AcDbSymbolTableRecord
100
AcDbTextStyleTableRecord
  2
EXT
 70
     0
 40
0.0
 41
1.0
 50
0.0
 71
     0
 42
5.0
  3
ROMANS
  4
EXTFONT
  0
STYLE
  5
97E
330
3
100
AcDbSymbolTableRecord
100
AcDbTextStyleTableRecord
  2
KANJI08
 70
     0
 40
0.0
 41
0.8
 50
0.0
 71
     0
 42
5.0
  3
ROMANS
  4
BIGFONT
  0
ENDTAB
  0
TABLE
  2
VIEW
  5
6
330
0
100
AcDbSymbolTable
 70
     0
  0
ENDTAB
  0
TABLE
  2
UCS
  5
7
330
0
100
AcDbSymbolTable
 70
     0
  0
ENDTAB
  0
TABLE
  2
APPID
  5
9
330
0
100
AcDbSymbolTable
 70
     1
  0
APPID
  5
11
330
9
100
AcDbSymbolTableRecord
100
AcDbRegAppTableRecord
  2
ACAD
 70
     0
  0
ENDTAB
  0
TABLE
  2
DIMSTYLE
  5
A
330
0
100
AcDbSymbolTable
 70
     4
100
AcDbDimStyleTable
 71
     0
  0
DIMSTYLE
105
927
330
A
100
AcDbSymbolTableRecord
100
AcDbDimStyleTableRecord
  2
STANDARD
 70
     0
340
10
  0
DIMSTYLE
105
972
330
A
100
AcDbSymbolTableRecord
100
AcDbDimStyleTableRecord
  2
RUISEKI1
 70
     0
 41
2.0
 42
1.0
 43
6.0
 44
30.0
 73
     0
 74
     0
 77
     1
145
20.0
147
1.5
172
     1
173
     1
340
10
  0
DIMSTYLE
105
977
330
A
100
AcDbSymbolTableRecord
100
AcDbDimStyleTableRecord
  2
RUISEKI2
 70
     0
 41
2.0
 42
1.0
 43
6.0
 44
30.0
 73
     0
 74
     0
 77
     1
145
20.0
147
1.5
172
     1
173
     1
340
10
  0
DIMSTYLE
105
97F
102
{ACAD_REACTORS
330
54D
330
54E
330
567
330
568
330
5FC
330
14C1
330
14CE
330
15B6
330
15CE
330
15DB
330
15E8
330
163B
330
1675
330
1682
330
16BE
330
16CB
330
16D8
330
16F6
330
1703
330
1710
102
}
330
A
100
AcDbSymbolTableRecord
100
AcDbDimStyleTableRecord
  2
SJC
 70
     0
 78
     8
140
5.0
147
3.0
178
   256
275
     1
340
97C
  0
ENDTAB
  0
TABLE
  2
BLOCK_RECORD
  5
1
330
0
100
AcDbSymbolTable
 70
    21
  0
BLOCK_RECORD
  5
18
330
1
100
AcDbSymbolTableRecord
100
AcDbBlockTableRecord
  2
*MODEL_SPACE
340
19E6
  0
BLOCK_RECORD
  5
15
330
1
100
AcDbSymbolTableRecord
100
AcDbBlockTableRecord
  2
*PAPER_SPACE
340
19E7
  0
BLOCK_RECORD
  5
E39
330
1
100
AcDbSymbolTableRecord
100
AcDbBlockTableRecord
  2
*D0
340
0
  0
BLOCK_RECORD
  5
E51
330
1
100
AcDbSymbolTableRecord
100
AcDbBlockTableRecord
  2
*D1
340
0
  0
BLOCK_RECORD
  5
E69
330
1
100
AcDbSymbolTableRecord
100
AcDbBlockTableRecord
  2
*D2
340
0
  0
BLOCK_RECORD
  5
1057
330
1
100
AcDbSymbolTableRecord
100
AcDbBlockTableRecord
  2
*D3
340
0
  0
BLOCK_RECORD
  5
10CC
330
1
100
AcDbSymbolTableRecord
100
AcDbBlockTableRecord
  2
*D4
340
0
  0
BLOCK_RECORD
  5
12BF
330
1
100
AcDbSymbolTableRecord
100
AcDbBlockTableRecord
  2
CALCOMP_TECHJET720A3
340
0
102
{BLKREFS
331
1881
102
}
  0
BLOCK_RECORD
  5
14B5
330
1
100
AcDbSymbolTableRecord
100
AcDbBlockTableRecord
  2
*D6
340
0
  0
BLOCK_RECORD
  5
14C2
330
1
100
AcDbSymbolTableRecord
100
AcDbBlockTableRecord
  2
*D7
340
0
  0
BLOCK_RECORD
  5
15AA
330
1
100
AcDbSymbolTableRecord
100
AcDbBlockTableRecord
  2
*D8
340
0
  0
BLOCK_RECORD
  5
15C2
330
1
100
AcDbSymbolTableRecord
100
AcDbBlockTableRecord
  2
*D9
340
0
  0
BLOCK_RECORD
  5
15CF
330
1
100
AcDbSymbolTableRecord
100
AcDbBlockTableRecord
  2
*D10
340
0
  0
BLOCK_RECORD
  5
15DC
330
1
100
AcDbSymbolTableRecord
100
AcDbBlockTableRecord
  2
*D11
340
0
  0
BLOCK_RECORD
  5
162D
330
1
100
AcDbSymbolTableRecord
100
AcDbBlockTableRecord
  2
*D12
340
0
  0
BLOCK_RECORD
  5
1667
330
1
100
AcDbSymbolTableRecord
100
AcDbBlockTableRecord
  2
*D13
340
0
  0
BLOCK_RECORD
  5
1676
330
1
100
AcDbSymbolTableRecord
100
AcDbBlockTableRecord
  2
*D14
340
0
  0
BLOCK_RECORD
  5
16B2
330
1
100
AcDbSymbolTableRecord
100
AcDbBlockTableRecord
  2
*D15
340
0
  0
BLOCK_RECORD
  5
16BF
330
1
100
AcDbSymbolTableRecord
100
AcDbBlockTableRecord
  2
*D16
340
0
  0
BLOCK_RECORD
  5
16CC
330
1
100
AcDbSymbolTableRecord
100
AcDbBlockTableRecord
  2
*D17
340
0
  0
BLOCK_RECORD
  5
16E8
330
1
100
AcDbSymbolTableRecord
100
AcDbBlockTableRecord
  2
*D18
340
0
  0
BLOCK_RECORD
  5
16F7
330
1
100
AcDbSymbolTableRecord
100
AcDbBlockTableRecord
  2
*D19
340
0
  0
BLOCK_RECORD
  5
1704
330
1
100
AcDbSymbolTableRecord
100
AcDbBlockTableRecord
  2
*D20
340
0
  0
ENDTAB
  0
ENDSEC
  0
SECTION
  2
BLOCKS
  0
BLOCK
  5
6E
330
18
100
AcDbEntity
  8
0
100
AcDbBlockBegin
  2
*MODEL_SPACE
 70
     0
 10
0.0
 20
0.0
 30
0.0
  3
*MODEL_SPACE
  1

  0
ENDBLK
  5
6F
330
18
100
AcDbEntity
  8
0
100
AcDbBlockEnd
  0
BLOCK
  5
6C
330
15
100
AcDbEntity
 67
     1
  8
0
100
AcDbBlockBegin
  2
*PAPER_SPACE
 70
     0
 10
0.0
 20
0.0
 30
0.0
  3
*PAPER_SPACE
  1

  0
ENDBLK
  5
6D
330
15
100
AcDbEntity
 67
     1
  8
0
100
AcDbBlockEnd
  0
BLOCK
  5
159D
330
E39
100
AcDbEntity
  8
0
100
AcDbBlockBegin
  2
*D0
 70
     1
 10
0.0
 20
0.0
 30
0.0
  3
*D0
  1

  0
LINE
  5
1B25
330
E39
100
AcDbEntity
  8
SUNPOU
370
    -2
100
AcDbLine
 10
34.28229955375235
 20
218.4176795065857
 30
0.0
 11
34.28229955375235
 21
230.8630643078676
 31
0.0
  0
LINE
  5
1B26
330
E39
100
AcDbEntity
  8
SUNPOU
370
    -2
100
AcDbLine
 10
24.28229955375235
 20
214.4176795065856
 30
0.0
 11
24.28229955375235
 21
230.8630643078676
 31
0.0
  0
LINE
  5
1B27
330
E39
100
AcDbEntity
  8
SUNPOU
370
    -2
100
AcDbLine
 10
32.28229955375236
 20
229.8630643078676
 30
0.0
 11
26.28229955375235
 21
229.8630643078676
 31
0.0
  0
SOLID
  5
1B28
330
E39
100
AcDbEntity
  8
SUNPOU
100
AcDbTrace
 10
32.28229955375236
 20
230.1963976412009
 30
0.0
 11
32.28229955375236
 21
229.5297309745342
 31
0.0
 12
34.28229955375235
 22
229.8630643078676
 32
0.0
 13
34.28229955375235
 23
229.8630643078676
 33
0.0
  0
SOLID
  5
1B29
330
E39
100
AcDbEntity
  8
SUNPOU
100
AcDbTrace
 10
26.28229955375235
 20
230.1963976412009
 30
0.0
 11
26.28229955375235
 21
229.5297309745342
 31
0.0
 12
24.28229955375235
 22
229.8630643078676
 32
0.0
 13
24.28229955375235
 23
229.8630643078676
 33
0.0
  0
MTEXT
  5
1B2A
330
E39
100
AcDbEntity
  8
SUNPOU
100
AcDbMText
 10
29.28229955375235
 20
232.5630643078675
 30
0.0
 40
3.0
 41
0.0
 71
     5
 72
     1
  1
\A1;200
  7
EXT08
 73
     1
 44
1.0
  0
POINT
  5
1B2B
330
E39
100
AcDbEntity
  8
DEFPOINTS
 62
     0
100
AcDbPoint
 10
34.28229955375235
 20
217.4176795065857
 30
0.0
  0
POINT
  5
1B2C
330
E39
100
AcDbEntity
  8
DEFPOINTS
 62
     0
100
AcDbPoint
 10
24.28229955375235
 20
213.4176795065856
 30
0.0
  0
POINT
  5
1B2D
330
E39
100
AcDbEntity
  8
DEFPOINTS
 62
     0
100
AcDbPoint
 10
24.28229955375235
 20
229.8630643078676
 30
0.0
  0
ENDBLK
  5
15A9
330
E39
100
AcDbEntity
  8
0
100
AcDbBlockEnd
  0
BLOCK
  5
143C
330
E51
100
AcDbEntity
  8
0
100
AcDbBlockBegin
  2
*D1
 70
     1
 10
0.0
 20
0.0
 30
0.0
  3
*D1
  1

  0
LINE
  5
1B43
330
E51
100
AcDbEntity
  8
SUNPOU
370
    -2
100
AcDbLine
 10
34.28229955375235
 20
218.4176795065857
 30
0.0
 11
34.28229955375235
 21
230.8630643078676
 31
0.0
  0
LINE
  5
1B44
330
E51
100
AcDbEntity
  8
SUNPOU
370
    -2
100
AcDbLine
 10
134.2822995537523
 20
218.4176795065857
 30
0.0
 11
134.2822995537523
 21
230.8630643078676
 31
0.0
  0
LINE
  5
1B45
330
E51
100
AcDbEntity
  8
SUNPOU
370
    -2
100
AcDbLine
 10
36.28229955375235
 20
229.8630643078676
 30
0.0
 11
132.2822995537523
 21
229.8630643078676
 31
0.0
  0
SOLID
  5
1B46
330
E51
100
AcDbEntity
  8
SUNPOU
100
AcDbTrace
 10
36.28229955375235
 20
230.1963976412009
 30
0.0
 11
36.28229955375235
 21
229.5297309745342
 31
0.0
 12
34.28229955375235
 22
229.8630643078676
 32
0.0
 13
34.28229955375235
 23
229.8630643078676
 33
0.0
  0
SOLID
  5
1B47
330
E51
100
AcDbEntity
  8
SUNPOU
100
AcDbTrace
 10
132.2822995537523
 20
230.1963976412009
 30
0.0
 11
132.2822995537523
 21
229.5297309745342
 31
0.0
 12
134.2822995537523
 22
229.8630643078676
 32
0.0
 13
134.2822995537523
 23
229.8630643078676
 33
0.0
  0
MTEXT
  5
1B48
330
E51
100
AcDbEntity
  8
SUNPOU
100
AcDbMText
 10
84.28229955375234
 20
232.5630643078675
 30
0.0
 40
3.0
 41
0.0
 71
     5
 72
     1
  1
\A1;2000
  7
EXT08
 73
     1
 44
1.0
  0
POINT
  5
1B49
330
E51
100
AcDbEntity
  8
DEFPOINTS
 62
     0
100
AcDbPoint
 10
34.28229955375235
 20
217.4176795065857
 30
0.0
  0
POINT
  5
1B4A
330
E51
100
AcDbEntity
  8
DEFPOINTS
 62
     0
100
AcDbPoint
 10
134.2822995537523
 20
217.4176795065857
 30
0.0
  0
POINT
  5
1B4B
330
E51
100
AcDbEntity
  8
DEFPOINTS
 62
     0
100
AcDbPoint
 10
134.2822995537523
 20
229.8630643078676
 30
0.0
  0
ENDBLK
  5
1446
330
E51
100
AcDbEntity
  8
0
100
AcDbBlockEnd
  0
BLOCK
  5
14AA
330
E69
100
AcDbEntity
  8
0
100
AcDbBlockBegin
  2
*D2
 70
     1
 10
0.0
 20
0.0
 30
0.0
  3
*D2
  1

  0
LINE
  5
1B3A
330
E69
100
AcDbEntity
  8
SUNPOU
370
    -2
100
AcDbLine
 10
134.2822995537523
 20
218.4176795065857
 30
0.0
 11
134.2822995537523
 21
230.8630643078676
 31
0.0
  0
LINE
  5
1B3B
330
E69
100
AcDbEntity
  8
SUNPOU
370
    -2
100
AcDbLine
 10
234.2822995537523
 20
218.4176795065857
 30
0.0
 11
234.2822995537523
 21
230.8630643078676
 31
0.0
  0
LINE
  5
1B3C
330
E69
100
AcDbEntity
  8
SUNPOU
370
    -2
100
AcDbLine
 10
136.2822995537523
 20
229.8630643078676
 30
0.0
 11
232.2822995537523
 21
229.8630643078676
 31
0.0
  0
SOLID
  5
1B3D
330
E69
100
AcDbEntity
  8
SUNPOU
100
AcDbTrace
 10
136.2822995537523
 20
230.1963976412009
 30
0.0
 11
136.2822995537523
 21
229.5297309745342
 31
0.0
 12
134.2822995537523
 22
229.8630643078676
 32
0.0
 13
134.2822995537523
 23
229.8630643078676
 33
0.0
  0
SOLID
  5
1B3E
330
E69
100
AcDbEntity
  8
SUNPOU
100
AcDbTrace
 10
232.2822995537523
 20
230.1963976412009
 30
0.0
 11
232.2822995537523
 21
229.5297309745342
 31
0.0
 12
234.2822995537523
 22
229.8630643078676
 32
0.0
 13
234.2822995537523
 23
229.8630643078676
 33
0.0
  0
MTEXT
  5
1B3F
330
E69
100
AcDbEntity
  8
SUNPOU
100
AcDbMText
 10
184.2822995537523
 20
232.5630643078675
 30
0.0
 40
3.0
 41
0.0
 71
     5
 72
     1
  1
\A1;2000
  7
EXT08
 73
     1
 44
1.0
  0
POINT
  5
1B40
330
E69
100
AcDbEntity
  8
DEFPOINTS
 62
     0
100
AcDbPoint
 10
134.2822995537523
 20
217.4176795065857
 30
0.0
  0
POINT
  5
1B41
330
E69
100
AcDbEntity
  8
DEFPOINTS
 62
     0
100
AcDbPoint
 10
234.2822995537523
 20
217.4176795065857
 30
0.0
  0
POINT
  5
1B42
330
E69
100
AcDbEntity
  8
DEFPOINTS
 62
     0
100
AcDbPoint
 10
234.2822995537523
 20
229.8630643078676
 30
0.0
  0
ENDBLK
  5
14B4
330
E69
100
AcDbEntity
  8
0
100
AcDbBlockEnd
  0
BLOCK
  5
16AB
330
1057
100
AcDbEntity
  8
0
100
AcDbBlockBegin
  2
*D3
 70
     1
 10
0.0
 20
0.0
 30
0.0
  3
*D3
  1

  0
LINE
  5
1B34
330
1057
100
AcDbEntity
  8
SUNPOU
370
    -2
100
AcDbLine
 10
77.64698040168055
 20
32.69039938384049
 30
0.0
 11
86.0918442823482
 21
41.45555468801982
 31
0.0
  0
MTEXT
  5
1B35
330
1057
100
AcDbEntity
  8
SUNPOU
100
AcDbMText
 10
79.23120245453006
 20
38.22616764878653
 30
0.0
 40
3.0
 41
0.0
 71
     5
 72
     1
  1
\A1;R531
  7
EXT08
 11
0.6938268446557922
 21
0.7201418677142631
 31
0.0
 73
     1
 44
1.0
  0
LINE
  5
1B36
330
1057
100
AcDbEntity
  8
SUNPOU
370
    -2
100
AcDbLine
 10
124.4251830161849
 20
81.24277590054543
 30
0.0
 11
87.47949797165977
 21
42.89583842344834
 31
0.0
  0
SOLID
  5
1B37
330
1057
100
AcDbEntity
  8
SUNPOU
100
AcDbTrace
 10
85.8517969931101
 20
41.68683030290508
 30
0.0
 11
86.33189157158629
 21
41.22427907313454
 31
0.0
 12
87.47949797165977
 22
42.89583842344834
 32
0.0
 13
87.47949797165977
 23
42.89583842344834
 33
0.0
  0
POINT
  5
1B38
330
1057
100
AcDbEntity
  8
DEFPOINTS
 62
     0
100
AcDbPoint
 10
87.47949797165977
 20
42.89583842344834
 30
0.0
  0
POINT
  5
1B39
330
1057
100
AcDbEntity
  8
DEFPOINTS
 62
     0
100
AcDbPoint
 10
124.4251830161849
 20
81.24277590054543
 30
0.0
  0
ENDBLK
  5
16B1
330
1057
100
AcDbEntity
  8
0
100
AcDbBlockEnd
  0
BLOCK
  5
1660
330
10CC
100
AcDbEntity
  8
0
100
AcDbBlockBegin
  2
*D4
 70
     1
 10
0.0
 20
0.0
 30
0.0
  3
*D4
  1

  0
LINE
  5
1B2E
330
10CC
100
AcDbEntity
  8
SUNPOU
370
    -2
100
AcDbLine
 10
79.09505315282854
 20
82.70245524245407
 30
0.0
 11
88.32615986046828
 21
90.63531994705837
 31
0.0
  0
MTEXT
  5
1B2F
330
10CC
100
AcDbEntity
  8
SUNPOU
100
AcDbMText
 10
81.19242704807447
 20
88.06487191215248
 30
0.0
 40
3.0
 41
0.0
 71
     5
 72
     1
  1
\A1;R341
  7
EXT08
 11
0.7584242600173489
 21
0.6517611846505872
 31
0.0
 73
     1
 44
1.0
  0
LINE
  5
1B30
330
10CC
100
AcDbEntity
  8
SUNPOU
370
    -2
100
AcDbLine
 10
115.7970613717544
 20
114.2427759005453
 30
0.0
 11
89.84300838050298
 21
91.93884231635953
 31
0.0
  0
SOLID
  5
1B31
330
10CC
100
AcDbEntity
  8
SUNPOU
100
AcDbTrace
 10
88.10890613225142
 20
90.88812803373082
 30
0.0
 11
88.54341358868515
 21
90.38251186038591
 31
0.0
 12
89.84300838050298
 22
91.93884231635953
 32
0.0
 13
89.84300838050298
 23
91.93884231635953
 33
0.0
  0
POINT
  5
1B32
330
10CC
100
AcDbEntity
  8
DEFPOINTS
 62
     0
100
AcDbPoint
 10
89.84300838050298
 20
91.93884231635953
 30
0.0
  0
POINT
  5
1B33
330
10CC
100
AcDbEntity
  8
DEFPOINTS
 62
     0
100
AcDbPoint
 10
115.7970613717544
 20
114.2427759005453
 30
0.0
  0
ENDBLK
  5
1666
330
10CC
100
AcDbEntity
  8
0
100
AcDbBlockEnd
  0
BLOCK
  5
12C6
330
12BF
100
AcDbEntity
  8
0
100
AcDbBlockBegin
  2
CALCOMP_TECHJET720A3
 70
     0
 10
0.0
 20
0.0
 30
0.0
  3
CALCOMP_TECHJET720A3
  1

  0
LWPOLYLINE
  5
12C0
330
12BF
100
AcDbEntity
  8
ZWAKU
 62
     2
100
AcDbPolyline
 90
        4
 70
     1
 43
0.0
 10
0.0
 20
0.0
 10
0.0
 20
267.0
 10
370.0
 20
267.0
 10
370.0
 20
0.0
  0
ENDBLK
  5
12C7
330
12BF
100
AcDbEntity
  8
0
100
AcDbBlockEnd
  0
BLOCK
  5
14B6
330
14B5
100
AcDbEntity
  8
0
100
AcDbBlockBegin
  2
*D6
 70
     1
 10
0.0
 20
0.0
 30
0.0
  3
*D6
  1

  0
LINE
  5
1B1C
330
14B5
100
AcDbEntity
  8
SUNPOU
370
    -2
100
AcDbLine
 10
241.9238658802055
 20
215.9176795065857
 30
0.0
 11
251.2848632691801
 21
215.9176795065857
 31
0.0
  0
LINE
  5
1B1D
330
14B5
100
AcDbEntity
  8
SUNPOU
370
    -2
100
AcDbLine
 10
241.9238658802055
 20
196.1148545065859
 30
0.0
 11
251.2848632691801
 21
196.1148545065859
 31
0.0
  0
LINE
  5
1B1E
330
14B5
100
AcDbEntity
  8
SUNPOU
370
    -2
100
AcDbLine
 10
250.28486326918
 20
213.9176795065857
 30
0.0
 11
250.28486326918
 21
198.1148545065859
 31
0.0
  0
SOLID
  5
1B1F
330
14B5
100
AcDbEntity
  8
SUNPOU
100
AcDbTrace
 10
249.9515299358467
 20
213.9176795065857
 30
0.0
 11
250.6181966025134
 21
213.9176795065857
 31
0.0
 12
250.28486326918
 22
215.9176795065857
 32
0.0
 13
250.28486326918
 23
215.9176795065857
 33
0.0
  0
SOLID
  5
1B20
330
14B5
100
AcDbEntity
  8
SUNPOU
100
AcDbTrace
 10
249.9515299358467
 20
198.1148545065859
 30
0.0
 11
250.6181966025134
 21
198.1148545065859
 31
0.0
 12
250.28486326918
 22
196.1148545065859
 32
0.0
 13
250.28486326918
 23
196.1148545065859
 33
0.0
  0
MTEXT
  5
1B21
330
14B5
100
AcDbEntity
  8
SUNPOU
100
AcDbMText
 10
247.58486326918
 20
206.0162670065858
 30
0.0
 40
3.0
 41
0.0
 71
     5
 72
     1
  1
\A1;400
  7
EXT08
 11
0.0000000000000001
 21
1.0
 31
0.0
 73
     1
 44
1.0
  0
POINT
  5
1B22
330
14B5
100
AcDbEntity
  8
DEFPOINTS
 62
     0
100
AcDbPoint
 10
240.9238658802055
 20
215.9176795065857
 30
0.0
  0
POINT
  5
1B23
330
14B5
100
AcDbEntity
  8
DEFPOINTS
 62
     0
100
AcDbPoint
 10
240.9238658802055
 20
196.1148545065859
 30
0.0
  0
POINT
  5
1B24
330
14B5
100
AcDbEntity
  8
DEFPOINTS
 62
     0
100
AcDbPoint
 10
250.28486326918
 20
196.1148545065859
 30
0.0
  0
ENDBLK
  5
14C0
330
14B5
100
AcDbEntity
  8
0
100
AcDbBlockEnd
  0
BLOCK
  5
15B7
330
14C2
100
AcDbEntity
  8
0
100
AcDbBlockBegin
  2
*D7
 70
     1
 10
0.0
 20
0.0
 30
0.0
  3
*D7
  1

  0
LINE
  5
1B13
330
14C2
100
AcDbEntity
  8
SUNPOU
370
    -2
100
AcDbLine
 10
241.9238658802055
 20
196.1148545065859
 30
0.0
 11
251.2848632691801
 21
196.1148545065859
 31
0.0
  0
LINE
  5
1B14
330
14C2
100
AcDbEntity
  8
SUNPOU
370
    -2
100
AcDbLine
 10
241.9238658802055
 20
170.9326225787937
 30
0.0
 11
251.2848632691801
 21
170.9326225787937
 31
0.0
  0
LINE
  5
1B15
330
14C2
100
AcDbEntity
  8
SUNPOU
370
    -2
100
AcDbLine
 10
250.2848632691801
 20
194.1148545065859
 30
0.0
 11
250.28486326918
 21
172.9326225787937
 31
0.0
  0
SOLID
  5
1B16
330
14C2
100
AcDbEntity
  8
SUNPOU
100
AcDbTrace
 10
249.9515299358467
 20
194.1148545065859
 30
0.0
 11
250.6181966025134
 21
194.1148545065859
 31
0.0
 12
250.2848632691801
 22
196.1148545065859
 32
0.0
 13
250.2848632691801
 23
196.1148545065859
 33
0.0
  0
SOLID
  5
1B17
330
14C2
100
AcDbEntity
  8
SUNPOU
100
AcDbTrace
 10
249.9515299358467
 20
172.9326225787937
 30
0.0
 11
250.6181966025134
 21
172.9326225787937
 31
0.0
 12
250.28486326918
 22
170.9326225787937
 32
0.0
 13
250.28486326918
 23
170.9326225787937
 33
0.0
  0
MTEXT
  5
1B18
330
14C2
100
AcDbEntity
  8
SUNPOU
100
AcDbMText
 10
247.58486326918
 20
183.5237385426898
 30
0.0
 40
3.0
 41
0.0
 71
     5
 72
     1
  1
\A1;500
  7
EXT08
 11
0.0000000000000001
 21
1.0
 31
0.0
 73
     1
 44
1.0
  0
POINT
  5
1B19
330
14C2
100
AcDbEntity
  8
DEFPOINTS
 62
     0
100
AcDbPoint
 10
240.9238658802055
 20
196.1148545065859
 30
0.0
  0
POINT
  5
1B1A
330
14C2
100
AcDbEntity
  8
DEFPOINTS
 62
     0
100
AcDbPoint
 10
240.9238658802054
 20
170.9326225787937
 30
0.0
  0
POINT
  5
1B1B
330
14C2
100
AcDbEntity
  8
DEFPOINTS
 62
     0
100
AcDbPoint
 10
250.28486326918
 20
170.9326225787937
 30
0.0
  0
ENDBLK
  5
15C1
330
14C2
100
AcDbEntity
  8
0
100
AcDbBlockEnd
  0
BLOCK
  5
15AB
330
15AA
100
AcDbEntity
  8
0
100
AcDbBlockBegin
  2
*D8
 70
     1
 10
0.0
 20
0.0
 30
0.0
  3
*D8
  1

  0
LINE
  5
1B0A
330
15AA
100
AcDbEntity
  8
SUNPOU
370
    -2
100
AcDbLine
 10
326.808087827866
 20
165.9176795065856
 30
0.0
 11
332.3359818894528
 21
165.9176795065856
 31
0.0
  0
LINE
  5
1B0B
330
15AA
100
AcDbEntity
  8
SUNPOU
370
    -2
100
AcDbLine
 10
307.7755878278654
 20
217.4347455554021
 30
0.0
 11
332.3359818894528
 21
217.4347455554021
 31
0.0
  0
LINE
  5
1B0C
330
15AA
100
AcDbEntity
  8
SUNPOU
370
    -2
100
AcDbLine
 10
331.3359818894528
 20
167.9176795065856
 30
0.0
 11
331.3359818894528
 21
215.4347455554021
 31
0.0
  0
SOLID
  5
1B0D
330
15AA
100
AcDbEntity
  8
SUNPOU
100
AcDbTrace
 10
331.0026485561195
 20
167.9176795065856
 30
0.0
 11
331.6693152227861
 21
167.9176795065856
 31
0.0
 12
331.3359818894528
 22
165.9176795065856
 32
0.0
 13
331.3359818894528
 23
165.9176795065856
 33
0.0
  0
SOLID
  5
1B0E
330
15AA
100
AcDbEntity
  8
SUNPOU
100
AcDbTrace
 10
331.0026485561195
 20
215.4347455554021
 30
0.0
 11
331.6693152227861
 21
215.4347455554021
 31
0.0
 12
331.3359818894528
 22
217.4347455554021
 32
0.0
 13
331.3359818894528
 23
217.4347455554021
 33
0.0
  0
MTEXT
  5
1B0F
330
15AA
100
AcDbEntity
  8
SUNPOU
100
AcDbMText
 10
328.6359818894528
 20
191.6762125309939
 30
0.0
 40
3.0
 41
0.0
 71
     5
 72
     1
  1
\A1;1030
  7
EXT08
 11
0.0000000000000001
 21
1.0
 31
0.0
 73
     1
 44
1.0
  0
POINT
  5
1B10
330
15AA
100
AcDbEntity
  8
DEFPOINTS
 62
     0
100
AcDbPoint
 10
325.808087827866
 20
165.9176795065856
 30
0.0
  0
POINT
  5
1B11
330
15AA
100
AcDbEntity
  8
DEFPOINTS
 62
     0
100
AcDbPoint
 10
306.7755878278654
 20
217.4347455554021
 30
0.0
  0
POINT
  5
1B12
330
15AA
100
AcDbEntity
  8
DEFPOINTS
 62
     0
100
AcDbPoint
 10
331.3359818894528
 20
217.4347455554021
 30
0.0
  0
ENDBLK
  5
15B5
330
15AA
100
AcDbEntity
  8
0
100
AcDbBlockEnd
  0
BLOCK
  5
15C3
330
15C2
100
AcDbEntity
  8
0
100
AcDbBlockBegin
  2
*D9
 70
     1
 10
0.0
 20
0.0
 30
0.0
  3
*D9
  1

  0
LINE
  5
1B01
330
15C2
100
AcDbEntity
  8
SUNPOU
370
    -2
100
AcDbLine
 10
326.808087827866
 20
165.9176795065856
 30
0.0
 11
332.3359818894528
 21
165.9176795065856
 31
0.0
  0
LINE
  5
1B02
330
15C2
100
AcDbEntity
  8
SUNPOU
370
    -2
100
AcDbLine
 10
322.7755878278661
 20
140.9176795065856
 30
0.0
 11
332.3359818894528
 21
140.9176795065856
 31
0.0
  0
LINE
  5
1B03
330
15C2
100
AcDbEntity
  8
SUNPOU
370
    -2
100
AcDbLine
 10
331.3359818894528
 20
163.9176795065856
 30
0.0
 11
331.3359818894528
 21
142.9176795065856
 31
0.0
  0
SOLID
  5
1B04
330
15C2
100
AcDbEntity
  8
SUNPOU
100
AcDbTrace
 10
331.0026485561195
 20
163.9176795065856
 30
0.0
 11
331.6693152227861
 21
163.9176795065856
 31
0.0
 12
331.3359818894528
 22
165.9176795065856
 32
0.0
 13
331.3359818894528
 23
165.9176795065856
 33
0.0
  0
SOLID
  5
1B05
330
15C2
100
AcDbEntity
  8
SUNPOU
100
AcDbTrace
 10
331.0026485561195
 20
142.9176795065856
 30
0.0
 11
331.6693152227861
 21
142.9176795065856
 31
0.0
 12
331.3359818894528
 22
140.9176795065856
 32
0.0
 13
331.3359818894528
 23
140.9176795065856
 33
0.0
  0
MTEXT
  5
1B06
330
15C2
100
AcDbEntity
  8
SUNPOU
100
AcDbMText
 10
328.6359818894528
 20
153.4176795065857
 30
0.0
 40
3.0
 41
0.0
 71
     5
 72
     1
  1
\A1;500
  7
EXT08
 11
0.0000000000000001
 21
1.0
 31
0.0
 73
     1
 44
1.0
  0
POINT
  5
1B07
330
15C2
100
AcDbEntity
  8
DEFPOINTS
 62
     0
100
AcDbPoint
 10
325.808087827866
 20
165.9176795065856
 30
0.0
  0
POINT
  5
1B08
330
15C2
100
AcDbEntity
  8
DEFPOINTS
 62
     0
100
AcDbPoint
 10
321.775587827866
 20
140.9176795065856
 30
0.0
  0
POINT
  5
1B09
330
15C2
100
AcDbEntity
  8
DEFPOINTS
 62
     0
100
AcDbPoint
 10
331.3359818894528
 20
140.9176795065856
 30
0.0
  0
ENDBLK
  5
15CD
330
15C2
100
AcDbEntity
  8
0
100
AcDbBlockEnd
  0
BLOCK
  5
15D0
330
15CF
100
AcDbEntity
  8
0
100
AcDbBlockBegin
  2
*D10
 70
     1
 10
0.0
 20
0.0
 30
0.0
  3
*D10
  1

  0
LINE
  5
1AF8
330
15CF
100
AcDbEntity
  8
SUNPOU
370
    -2
100
AcDbLine
 10
322.7755878278661
 20
140.9176795065856
 30
0.0
 11
338.2998392673492
 21
140.9176795065856
 31
0.0
  0
LINE
  5
1AF9
330
15CF
100
AcDbEntity
  8
SUNPOU
370
    -2
100
AcDbLine
 10
307.7755878278654
 20
217.4347455554021
 30
0.0
 11
338.2998392673492
 21
217.4347455554021
 31
0.0
  0
LINE
  5
1AFA
330
15CF
100
AcDbEntity
  8
SUNPOU
370
    -2
100
AcDbLine
 10
337.2998392673492
 20
142.9176795065856
 30
0.0
 11
337.2998392673492
 21
215.4347455554021
 31
0.0
  0
SOLID
  5
1AFB
330
15CF
100
AcDbEntity
  8
SUNPOU
100
AcDbTrace
 10
336.9665059340158
 20
142.9176795065856
 30
0.0
 11
337.6331726006825
 21
142.9176795065856
 31
0.0
 12
337.2998392673492
 22
140.9176795065856
 32
0.0
 13
337.2998392673492
 23
140.9176795065856
 33
0.0
  0
SOLID
  5
1AFC
330
15CF
100
AcDbEntity
  8
SUNPOU
100
AcDbTrace
 10
336.9665059340158
 20
215.4347455554021
 30
0.0
 11
337.6331726006825
 21
215.4347455554021
 31
0.0
 12
337.2998392673492
 22
217.4347455554021
 32
0.0
 13
337.2998392673492
 23
217.4347455554021
 33
0.0
  0
MTEXT
  5
1AFD
330
15CF
100
AcDbEntity
  8
SUNPOU
100
AcDbMText
 10
334.5998392673491
 20
179.1762125309939
 30
0.0
 40
3.0
 41
0.0
 71
     5
 72
     1
  1
\A1;1530
  7
EXT08
 11
0.0000000000000001
 21
1.0
 31
0.0
 73
     1
 44
1.0
  0
POINT
  5
1AFE
330
15CF
100
AcDbEntity
  8
DEFPOINTS
 62
     0
100
AcDbPoint
 10
321.775587827866
 20
140.9176795065856
 30
0.0
  0
POINT
  5
1AFF
330
15CF
100
AcDbEntity
  8
DEFPOINTS
 62
     0
100
AcDbPoint
 10
306.7755878278654
 20
217.4347455554021
 30
0.0
  0
POINT
  5
1B00
330
15CF
100
AcDbEntity
  8
DEFPOINTS
 62
     0
100
AcDbPoint
 10
337.2998392673492
 20
217.4347455554021
 30
0.0
  0
ENDBLK
  5
15DA
330
15CF
100
AcDbEntity
  8
0
100
AcDbBlockEnd
  0
BLOCK
  5
15DD
330
15DC
100
AcDbEntity
  8
0
100
AcDbBlockBegin
  2
*D11
 70
     1
 10
0.0
 20
0.0
 30
0.0
  3
*D11
  1

  0
LINE
  5
1AEF
330
15DC
100
AcDbEntity
  8
SUNPOU
370
    -2
100
AcDbLine
 10
294.275587827866
 20
139.9176795065856
 30
0.0
 11
294.275587827866
 21
127.0275436808844
 31
0.0
  0
LINE
  5
1AF0
330
15DC
100
AcDbEntity
  8
SUNPOU
370
    -2
100
AcDbLine
 10
319.275587827866
 20
139.9176795065856
 30
0.0
 11
319.275587827866
 21
127.0275436808844
 31
0.0
  0
LINE
  5
1AF1
330
15DC
100
AcDbEntity
  8
SUNPOU
370
    -2
100
AcDbLine
 10
296.275587827866
 20
128.0275436808844
 30
0.0
 11
317.275587827866
 21
128.0275436808844
 31
0.0
  0
SOLID
  5
1AF2
330
15DC
100
AcDbEntity
  8
SUNPOU
100
AcDbTrace
 10
296.275587827866
 20
128.3608770142177
 30
0.0
 11
296.275587827866
 21
127.694210347551
 31
0.0
 12
294.275587827866
 22
128.0275436808844
 32
0.0
 13
294.275587827866
 23
128.0275436808844
 33
0.0
  0
SOLID
  5
1AF3
330
15DC
100
AcDbEntity
  8
SUNPOU
100
AcDbTrace
 10
317.275587827866
 20
128.3608770142177
 30
0.0
 11
317.275587827866
 21
127.694210347551
 31
0.0
 12
319.275587827866
 22
128.0275436808844
 32
0.0
 13
319.275587827866
 23
128.0275436808844
 33
0.0
  0
MTEXT
  5
1AF4
330
15DC
100
AcDbEntity
  8
SUNPOU
100
AcDbMText
 10
306.775587827866
 20
130.7275436808843
 30
0.0
 40
3.0
 41
0.0
 71
     5
 72
     1
  1
\A1;500
  7
EXT08
 73
     1
 44
1.0
  0
POINT
  5
1AF5
330
15DC
100
AcDbEntity
  8
DEFPOINTS
 62
     0
100
AcDbPoint
 10
294.275587827866
 20
140.9176795065856
 30
0.0
  0
POINT
  5
1AF6
330
15DC
100
AcDbEntity
  8
DEFPOINTS
 62
     0
100
AcDbPoint
 10
319.275587827866
 20
140.9176795065856
 30
0.0
  0
POINT
  5
1AF7
330
15DC
100
AcDbEntity
  8
DEFPOINTS
 62
     0
100
AcDbPoint
 10
319.275587827866
 20
128.0275436808844
 30
0.0
  0
ENDBLK
  5
15E7
330
15DC
100
AcDbEntity
  8
0
100
AcDbBlockEnd
  0
BLOCK
  5
162E
330
162D
100
AcDbEntity
  8
0
100
AcDbBlockBegin
  2
*D12
 70
     1
 10
0.0
 20
0.0
 30
0.0
  3
*D12
  1

  0
LINE
  5
1AE6
330
162D
100
AcDbEntity
  8
SUNPOU
370
    -2
100
AcDbLine
 10
71.17603976221653
 20
123.2427759005452
 30
0.0
 11
71.17603976221653
 21
138.7131374344119
 31
0.0
  0
LINE
  5
1AE7
330
162D
100
AcDbEntity
  8
SUNPOU
370
    -2
100
AcDbLine
 10
81.17603976221653
 20
123.2427759005452
 30
0.0
 11
81.17603976221653
 21
138.7131374344119
 31
0.0
  0
LINE
  5
1AE8
330
162D
100
AcDbEntity
  8
SUNPOU
370
    -2
100
AcDbLine
 10
73.17603976221653
 20
137.7131374344119
 30
0.0
 11
79.17603976221653
 21
137.7131374344119
 31
0.0
  0
SOLID
  5
1AE9
330
162D
100
AcDbEntity
  8
SUNPOU
100
AcDbTrace
 10
73.17603976221653
 20
138.0464707677452
 30
0.0
 11
73.17603976221653
 21
137.3798041010785
 31
0.0
 12
71.17603976221653
 22
137.7131374344119
 32
0.0
 13
71.17603976221653
 23
137.7131374344119
 33
0.0
  0
SOLID
  5
1AEA
330
162D
100
AcDbEntity
  8
SUNPOU
100
AcDbTrace
 10
79.17603976221653
 20
138.0464707677452
 30
0.0
 11
79.17603976221653
 21
137.3798041010785
 31
0.0
 12
81.17603976221653
 22
137.7131374344119
 32
0.0
 13
81.17603976221653
 23
137.7131374344119
 33
0.0
  0
MTEXT
  5
1AEB
330
162D
100
AcDbEntity
  8
SUNPOU
100
AcDbMText
 10
76.17603976221653
 20
140.4131374344119
 30
0.0
 40
3.0
 41
0.0
 71
     5
 72
     1
  1
\A1;100
  7
EXT08
 73
     1
 44
1.0
  0
POINT
  5
1AEC
330
162D
100
AcDbEntity
  8
DEFPOINTS
 62
     0
100
AcDbPoint
 10
71.17603976221653
 20
122.2427759005452
 30
0.0
  0
POINT
  5
1AED
330
162D
100
AcDbEntity
  8
DEFPOINTS
 62
     0
100
AcDbPoint
 10
81.17603976221653
 20
122.2427759005452
 30
0.0
  0
POINT
  5
1AEE
330
162D
100
AcDbEntity
  8
DEFPOINTS
 62
     0
100
AcDbPoint
 10
81.17603976221653
 20
137.7131374344119
 30
0.0
  0
ENDBLK
  5
163A
330
162D
100
AcDbEntity
  8
0
100
AcDbBlockEnd
  0
BLOCK
  5
1668
330
1667
100
AcDbEntity
  8
0
100
AcDbBlockBegin
  2
*D13
 70
     1
 10
0.0
 20
0.0
 30
0.0
  3
*D13
  1

  0
LINE
  5
1ADD
330
1667
100
AcDbEntity
  8
SUNPOU
370
    -2
100
AcDbLine
 10
65.51103976221773
 20
125.2769079981781
 30
0.0
 11
33.86857487674212
 21
125.2769079981781
 31
0.0
  0
LINE
  5
1ADE
330
1667
100
AcDbEntity
  8
SUNPOU
370
    -2
100
AcDbLine
 10
55.57603976221679
 20
118.2427759005452
 30
0.0
 11
33.86857487674212
 21
118.2427759005452
 31
0.0
  0
LINE
  5
1ADF
330
1667
100
AcDbEntity
  8
SUNPOU
370
    -2
100
AcDbLine
 10
34.86857487674212
 20
123.2769079981781
 30
0.0
 11
34.86857487674212
 21
120.2427759005452
 31
0.0
  0
SOLID
  5
1AE0
330
1667
100
AcDbEntity
  8
SUNPOU
100
AcDbTrace
 10
34.53524154340878
 20
123.2769079981781
 30
0.0
 11
35.20190821007545
 21
123.2769079981781
 31
0.0
 12
34.86857487674212
 22
125.2769079981781
 32
0.0
 13
34.86857487674212
 23
125.2769079981781
 33
0.0
  0
SOLID
  5
1AE1
330
1667
100
AcDbEntity
  8
SUNPOU
100
AcDbTrace
 10
34.53524154340878
 20
120.2427759005452
 30
0.0
 11
35.20190821007545
 21
120.2427759005452
 31
0.0
 12
34.86857487674212
 22
118.2427759005452
 32
0.0
 13
34.86857487674212
 23
118.2427759005452
 33
0.0
  0
MTEXT
  5
1AE2
330
1667
100
AcDbEntity
  8
SUNPOU
100
AcDbMText
 10
32.16857487674209
 20
121.7598419493617
 30
0.0
 40
3.0
 41
0.0
 71
     5
 72
     1
  1
\A1;70
  7
EXT08
 11
0.0000000000000001
 21
1.0
 31
0.0
 73
     1
 44
1.0
  0
POINT
  5
1AE3
330
1667
100
AcDbEntity
  8
DEFPOINTS
 62
     0
100
AcDbPoint
 10
66.51103976221773
 20
125.2769079981781
 30
0.0
  0
POINT
  5
1AE4
330
1667
100
AcDbEntity
  8
DEFPOINTS
 62
     0
100
AcDbPoint
 10
56.57603976221679
 20
118.2427759005452
 30
0.0
  0
POINT
  5
1AE5
330
1667
100
AcDbEntity
  8
DEFPOINTS
 62
     0
100
AcDbPoint
 10
34.86857487674212
 20
118.2427759005452
 30
0.0
  0
ENDBLK
  5
1674
330
1667
100
AcDbEntity
  8
0
100
AcDbBlockEnd
  0
BLOCK
  5
1677
330
1676
100
AcDbEntity
  8
0
100
AcDbBlockBegin
  2
*D14
 70
     1
 10
0.0
 20
0.0
 30
0.0
  3
*D14
  1

  0
LINE
  5
1AD4
330
1676
100
AcDbEntity
  8
SUNPOU
370
    -2
100
AcDbLine
 10
55.57603976221679
 20
118.2427759005452
 30
0.0
 11
33.86857487674213
 21
118.2427759005452
 31
0.0
  0
LINE
  5
1AD5
330
1676
100
AcDbEntity
  8
SUNPOU
370
    -2
100
AcDbLine
 10
55.57603976221679
 20
90.74277590054524
 30
0.0
 11
33.86857487674212
 21
90.74277590054524
 31
0.0
  0
LINE
  5
1AD6
330
1676
100
AcDbEntity
  8
SUNPOU
370
    -2
100
AcDbLine
 10
34.86857487674213
 20
116.2427759005452
 30
0.0
 11
34.86857487674212
 21
92.74277590054524
 31
0.0
  0
SOLID
  5
1AD7
330
1676
100
AcDbEntity
  8
SUNPOU
100
AcDbTrace
 10
34.53524154340879
 20
116.2427759005452
 30
0.0
 11
35.20190821007546
 21
116.2427759005452
 31
0.0
 12
34.86857487674213
 22
118.2427759005452
 32
0.0
 13
34.86857487674213
 23
118.2427759005452
 33
0.0
  0
SOLID
  5
1AD8
330
1676
100
AcDbEntity
  8
SUNPOU
100
AcDbTrace
 10
34.53524154340878
 20
92.74277590054524
 30
0.0
 11
35.20190821007545
 21
92.74277590054524
 31
0.0
 12
34.86857487674212
 22
90.74277590054524
 32
0.0
 13
34.86857487674212
 23
90.74277590054524
 33
0.0
  0
MTEXT
  5
1AD9
330
1676
100
AcDbEntity
  8
SUNPOU
100
AcDbMText
 10
32.1685748767421
 20
104.4927759005452
 30
0.0
 40
3.0
 41
0.0
 71
     5
 72
     1
  1
\A1;275
  7
EXT08
 11
0.0000000000000001
 21
1.0
 31
0.0
 73
     1
 44
1.0
  0
POINT
  5
1ADA
330
1676
100
AcDbEntity
  8
DEFPOINTS
 62
     0
100
AcDbPoint
 10
56.57603976221679
 20
118.2427759005452
 30
0.0
  0
POINT
  5
1ADB
330
1676
100
AcDbEntity
  8
DEFPOINTS
 62
     0
100
AcDbPoint
 10
56.57603976221679
 20
90.74277590054524
 30
0.0
  0
POINT
  5
1ADC
330
1676
100
AcDbEntity
  8
DEFPOINTS
 62
     0
100
AcDbPoint
 10
34.86857487674212
 20
90.74277590054524
 30
0.0
  0
ENDBLK
  5
1681
330
1676
100
AcDbEntity
  8
0
100
AcDbBlockEnd
  0
BLOCK
  5
16B3
330
16B2
100
AcDbEntity
  8
0
100
AcDbBlockBegin
  2
*D15
 70
     1
 10
0.0
 20
0.0
 30
0.0
  3
*D15
  1

  0
LINE
  5
1ACB
330
16B2
100
AcDbEntity
  8
SUNPOU
370
    -2
100
AcDbLine
 10
55.57603976221679
 20
90.74277590054524
 30
0.0
 11
33.86857487674213
 21
90.74277590054524
 31
0.0
  0
LINE
  5
1ACC
330
16B2
100
AcDbEntity
  8
SUNPOU
370
    -2
100
AcDbLine
 10
55.57603976221679
 20
42.24277590054524
 30
0.0
 11
33.86857487674212
 21
42.24277590054525
 31
0.0
  0
LINE
  5
1ACD
330
16B2
100
AcDbEntity
  8
SUNPOU
370
    -2
100
AcDbLine
 10
34.86857487674213
 20
88.74277590054523
 30
0.0
 11
34.86857487674212
 21
44.24277590054525
 31
0.0
  0
SOLID
  5
1ACE
330
16B2
100
AcDbEntity
  8
SUNPOU
100
AcDbTrace
 10
34.53524154340879
 20
88.74277590054523
 30
0.0
 11
35.20190821007547
 21
88.74277590054523
 31
0.0
 12
34.86857487674213
 22
90.74277590054524
 32
0.0
 13
34.86857487674213
 23
90.74277590054524
 33
0.0
  0
SOLID
  5
1ACF
330
16B2
100
AcDbEntity
  8
SUNPOU
100
AcDbTrace
 10
34.53524154340878
 20
44.24277590054525
 30
0.0
 11
35.20190821007545
 21
44.24277590054525
 31
0.0
 12
34.86857487674212
 22
42.24277590054525
 32
0.0
 13
34.86857487674212
 23
42.24277590054525
 33
0.0
  0
MTEXT
  5
1AD0
330
16B2
100
AcDbEntity
  8
SUNPOU
100
AcDbMText
 10
32.16857487674211
 20
66.49277590054525
 30
0.0
 40
3.0
 41
0.0
 71
     5
 72
     1
  1
\A1;485
  7
EXT08
 11
0.0000000000000001
 21
1.0
 31
0.0
 73
     1
 44
1.0
  0
POINT
  5
1AD1
330
16B2
100
AcDbEntity
  8
DEFPOINTS
 62
     0
100
AcDbPoint
 10
56.57603976221679
 20
90.74277590054524
 30
0.0
  0
POINT
  5
1AD2
330
16B2
100
AcDbEntity
  8
DEFPOINTS
 62
     0
100
AcDbPoint
 10
56.57603976221679
 20
42.24277590054524
 30
0.0
  0
POINT
  5
1AD3
330
16B2
100
AcDbEntity
  8
DEFPOINTS
 62
     0
100
AcDbPoint
 10
34.86857487674212
 20
42.24277590054525
 30
0.0
  0
ENDBLK
  5
16BD
330
16B2
100
AcDbEntity
  8
0
100
AcDbBlockEnd
  0
BLOCK
  5
16C0
330
16BF
100
AcDbEntity
  8
0
100
AcDbBlockBegin
  2
*D16
 70
     1
 10
0.0
 20
0.0
 30
0.0
  3
*D16
  1

  0
LINE
  5
1AC2
330
16BF
100
AcDbEntity
  8
SUNPOU
370
    -2
100
AcDbLine
 10
55.57603976221679
 20
42.24277590054524
 30
0.0
 11
33.86857487674212
 21
42.24277590054525
 31
0.0
  0
LINE
  5
1AC3
330
16BF
100
AcDbEntity
  8
SUNPOU
370
    -2
100
AcDbLine
 10
50.3873602516631
 20
22.2427759005453
 30
0.0
 11
33.86857487674212
 21
22.2427759005453
 31
0.0
  0
LINE
  5
1AC4
330
16BF
100
AcDbEntity
  8
SUNPOU
370
    -2
100
AcDbLine
 10
34.86857487674212
 20
40.24277590054524
 30
0.0
 11
34.86857487674212
 21
24.2427759005453
 31
0.0
  0
SOLID
  5
1AC5
330
16BF
100
AcDbEntity
  8
SUNPOU
100
AcDbTrace
 10
34.53524154340878
 20
40.24277590054524
 30
0.0
 11
35.20190821007545
 21
40.24277590054524
 31
0.0
 12
34.86857487674212
 22
42.24277590054525
 32
0.0
 13
34.86857487674212
 23
42.24277590054525
 33
0.0
  0
SOLID
  5
1AC6
330
16BF
100
AcDbEntity
  8
SUNPOU
100
AcDbTrace
 10
34.53524154340878
 20
24.2427759005453
 30
0.0
 11
35.20190821007545
 21
24.2427759005453
 31
0.0
 12
34.86857487674212
 22
22.2427759005453
 32
0.0
 13
34.86857487674212
 23
22.2427759005453
 33
0.0
  0
MTEXT
  5
1AC7
330
16BF
100
AcDbEntity
  8
SUNPOU
100
AcDbMText
 10
32.16857487674211
 20
32.24277590054529
 30
0.0
 40
3.0
 41
0.0
 71
     5
 72
     1
  1
\A1;200
  7
EXT08
 11
0.0000000000000001
 21
1.0
 31
0.0
 73
     1
 44
1.0
  0
POINT
  5
1AC8
330
16BF
100
AcDbEntity
  8
DEFPOINTS
 62
     0
100
AcDbPoint
 10
56.57603976221679
 20
42.24277590054524
 30
0.0
  0
POINT
  5
1AC9
330
16BF
100
AcDbEntity
  8
DEFPOINTS
 62
     0
100
AcDbPoint
 10
51.38736025166309
 20
22.2427759005453
 30
0.0
  0
POINT
  5
1ACA
330
16BF
100
AcDbEntity
  8
DEFPOINTS
 62
     0
100
AcDbPoint
 10
34.86857487674212
 20
22.2427759005453
 30
0.0
  0
ENDBLK
  5
16CA
330
16BF
100
AcDbEntity
  8
0
100
AcDbBlockEnd
  0
BLOCK
  5
16CD
330
16CC
100
AcDbEntity
  8
0
100
AcDbBlockBegin
  2
*D17
 70
     1
 10
0.0
 20
0.0
 30
0.0
  3
*D17
  1

  0
LINE
  5
1AB9
330
16CC
100
AcDbEntity
  8
SUNPOU
370
    -2
100
AcDbLine
 10
65.51103976221773
 20
125.2769079981781
 30
0.0
 11
27.35516406661398
 21
125.2769079981781
 31
0.0
  0
LINE
  5
1ABA
330
16CC
100
AcDbEntity
  8
SUNPOU
370
    -2
100
AcDbLine
 10
50.3873602516631
 20
22.2427759005453
 30
0.0
 11
27.35516406661395
 21
22.2427759005453
 31
0.0
  0
LINE
  5
1ABB
330
16CC
100
AcDbEntity
  8
SUNPOU
370
    -2
100
AcDbLine
 10
28.35516406661398
 20
123.2769079981781
 30
0.0
 11
28.35516406661396
 21
24.2427759005453
 31
0.0
  0
SOLID
  5
1ABC
330
16CC
100
AcDbEntity
  8
SUNPOU
100
AcDbTrace
 10
28.02183073328065
 20
123.2769079981781
 30
0.0
 11
28.68849739994731
 21
123.2769079981781
 31
0.0
 12
28.35516406661398
 22
125.2769079981781
 32
0.0
 13
28.35516406661398
 23
125.2769079981781
 33
0.0
  0
SOLID
  5
1ABD
330
16CC
100
AcDbEntity
  8
SUNPOU
100
AcDbTrace
 10
28.02183073328063
 20
24.2427759005453
 30
0.0
 11
28.68849739994729
 21
24.2427759005453
 31
0.0
 12
28.35516406661395
 22
22.2427759005453
 32
0.0
 13
28.35516406661395
 23
22.2427759005453
 33
0.0
  0
MTEXT
  5
1ABE
330
16CC
100
AcDbEntity
  8
SUNPOU
100
AcDbMText
 10
25.65516406661395
 20
73.75984194936171
 30
0.0
 40
3.0
 41
0.0
 71
     5
 72
     1
  1
\A1;1030
  7
EXT08
 11
0.0000000000000001
 21
1.0
 31
0.0
 73
     1
 44
1.0
  0
POINT
  5
1ABF
330
16CC
100
AcDbEntity
  8
DEFPOINTS
 62
     0
100
AcDbPoint
 10
66.51103976221773
 20
125.2769079981781
 30
0.0
  0
POINT
  5
1AC0
330
16CC
100
AcDbEntity
  8
DEFPOINTS
 62
     0
100
AcDbPoint
 10
51.38736025166309
 20
22.2427759005453
 30
0.0
  0
POINT
  5
1AC1
330
16CC
100
AcDbEntity
  8
DEFPOINTS
 62
     0
100
AcDbPoint
 10
28.35516406661395
 20
22.2427759005453
 30
0.0
  0
ENDBLK
  5
16D7
330
16CC
100
AcDbEntity
  8
0
100
AcDbBlockEnd
  0
BLOCK
  5
16E9
330
16E8
100
AcDbEntity
  8
0
100
AcDbBlockBegin
  2
*D18
 70
     1
 10
0.0
 20
0.0
 30
0.0
  3
*D18
  1

  0
LINE
  5
1AB0
330
16E8
100
AcDbEntity
  8
SUNPOU
370
    -2
100
AcDbLine
 10
103.5126632875925
 20
32.27266204496129
 30
0.0
 11
137.827797252223
 21
32.27266204496129
 31
0.0
  0
LINE
  5
1AB1
330
16E8
100
AcDbEntity
  8
SUNPOU
370
    -2
100
AcDbLine
 10
103.6760397622166
 20
22.2427759005453
 30
0.0
 11
137.827797252223
 21
22.24277590054528
 31
0.0
  0
LINE
  5
1AB2
330
16E8
100
AcDbEntity
  8
SUNPOU
370
    -2
100
AcDbLine
 10
136.827797252223
 20
30.27266204496128
 30
0.0
 11
136.827797252223
 21
24.24277590054528
 31
0.0
  0
SOLID
  5
1AB3
330
16E8
100
AcDbEntity
  8
SUNPOU
100
AcDbTrace
 10
136.4944639188897
 20
30.27266204496128
 30
0.0
 11
137.1611305855564
 21
30.27266204496128
 31
0.0
 12
136.827797252223
 22
32.27266204496129
 32
0.0
 13
136.827797252223
 23
32.27266204496129
 33
0.0
  0
SOLID
  5
1AB4
330
16E8
100
AcDbEntity
  8
SUNPOU
100
AcDbTrace
 10
136.4944639188897
 20
24.24277590054528
 30
0.0
 11
137.1611305855564
 21
24.24277590054528
 31
0.0
 12
136.827797252223
 22
22.24277590054528
 32
0.0
 13
136.827797252223
 23
22.24277590054528
 33
0.0
  0
MTEXT
  5
1AB5
330
16E8
100
AcDbEntity
  8
SUNPOU
100
AcDbMText
 10
134.127797252223
 20
27.25771897275331
 30
0.0
 40
3.0
 41
0.0
 71
     5
 72
     1
  1
\A1;100
  7
EXT08
 11
0.0000000000000001
 21
1.0
 31
0.0
 73
     1
 44
1.0
  0
POINT
  5
1AB6
330
16E8
100
AcDbEntity
  8
DEFPOINTS
 62
     0
100
AcDbPoint
 10
102.5126632875925
 20
32.27266204496129
 30
0.0
  0
POINT
  5
1AB7
330
16E8
100
AcDbEntity
  8
DEFPOINTS
 62
     0
100
AcDbPoint
 10
102.6760397622166
 20
22.2427759005453
 30
0.0
  0
POINT
  5
1AB8
330
16E8
100
AcDbEntity
  8
DEFPOINTS
 62
     0
100
AcDbPoint
 10
136.827797252223
 20
22.24277590054528
 30
0.0
  0
ENDBLK
  5
16F5
330
16E8
100
AcDbEntity
  8
0
100
AcDbBlockEnd
  0
BLOCK
  5
16F8
330
16F7
100
AcDbEntity
  8
0
100
AcDbBlockBegin
  2
*D19
 70
     1
 10
0.0
 20
0.0
 30
0.0
  3
*D19
  1

  0
LINE
  5
1AA7
330
16F7
100
AcDbEntity
  8
SUNPOU
370
    -2
100
AcDbLine
 10
103.5126632875925
 20
32.27266204496129
 30
0.0
 11
137.827797252223
 21
32.27266204496129
 31
0.0
  0
LINE
  5
1AA8
330
16F7
100
AcDbEntity
  8
SUNPOU
370
    -2
100
AcDbLine
 10
103.5226717913914
 20
82.26769625159301
 30
0.0
 11
137.827797252223
 21
82.26769625159301
 31
0.0
  0
LINE
  5
1AA9
330
16F7
100
AcDbEntity
  8
SUNPOU
370
    -2
100
AcDbLine
 10
136.827797252223
 20
34.27266204496129
 30
0.0
 11
136.827797252223
 21
80.26769625159301
 31
0.0
  0
SOLID
  5
1AAA
330
16F7
100
AcDbEntity
  8
SUNPOU
100
AcDbTrace
 10
136.4944639188896
 20
34.27266204496129
 30
0.0
 11
137.1611305855563
 21
34.27266204496129
 31
0.0
 12
136.827797252223
 22
32.27266204496129
 32
0.0
 13
136.827797252223
 23
32.27266204496129
 33
0.0
  0
SOLID
  5
1AAB
330
16F7
100
AcDbEntity
  8
SUNPOU
100
AcDbTrace
 10
136.4944639188897
 20
80.26769625159301
 30
0.0
 11
137.1611305855564
 21
80.26769625159301
 31
0.0
 12
136.827797252223
 22
82.26769625159301
 32
0.0
 13
136.827797252223
 23
82.26769625159301
 33
0.0
  0
MTEXT
  5
1AAC
330
16F7
100
AcDbEntity
  8
SUNPOU
100
AcDbMText
 10
134.127797252223
 20
57.27017914827717
 30
0.0
 40
3.0
 41
0.0
 71
     5
 72
     1
  1
\A1;500
  7
EXT08
 11
0.0000000000000001
 21
1.0
 31
0.0
 73
     1
 44
1.0
  0
POINT
  5
1AAD
330
16F7
100
AcDbEntity
  8
DEFPOINTS
 62
     0
100
AcDbPoint
 10
102.5126632875925
 20
32.27266204496129
 30
0.0
  0
POINT
  5
1AAE
330
16F7
100
AcDbEntity
  8
DEFPOINTS
 62
     0
100
AcDbPoint
 10
102.5226717913914
 20
82.26769625159301
 30
0.0
  0
POINT
  5
1AAF
330
16F7
100
AcDbEntity
  8
DEFPOINTS
 62
     0
100
AcDbPoint
 10
136.827797252223
 20
82.26769625159301
 30
0.0
  0
ENDBLK
  5
1702
330
16F7
100
AcDbEntity
  8
0
100
AcDbBlockEnd
  0
BLOCK
  5
1705
330
1704
100
AcDbEntity
  8
0
100
AcDbBlockBegin
  2
*D20
 70
     1
 10
0.0
 20
0.0
 30
0.0
  3
*D20
  1

  0
LINE
  5
1A9E
330
1704
100
AcDbEntity
  8
SUNPOU
370
    -2
100
AcDbLine
 10
82.57603976221657
 20
122.2427759005452
 30
0.0
 11
137.827797252223
 21
122.2427759005452
 31
0.0
  0
LINE
  5
1A9F
330
1704
100
AcDbEntity
  8
SUNPOU
370
    -2
100
AcDbLine
 10
103.5226717913914
 20
82.26769625159301
 30
0.0
 11
137.827797252223
 21
82.26769625159301
 31
0.0
  0
LINE
  5
1AA0
330
1704
100
AcDbEntity
  8
SUNPOU
370
    -2
100
AcDbLine
 10
136.827797252223
 20
120.2427759005452
 30
0.0
 11
136.827797252223
 21
84.267696251593
 31
0.0
  0
SOLID
  5
1AA1
330
1704
100
AcDbEntity
  8
SUNPOU
100
AcDbTrace
 10
136.4944639188897
 20
120.2427759005452
 30
0.0
 11
137.1611305855564
 21
120.2427759005452
 31
0.0
 12
136.827797252223
 22
122.2427759005452
 32
0.0
 13
136.827797252223
 23
122.2427759005452
 33
0.0
  0
SOLID
  5
1AA2
330
1704
100
AcDbEntity
  8
SUNPOU
100
AcDbTrace
 10
136.4944639188897
 20
84.267696251593
 30
0.0
 11
137.1611305855564
 21
84.267696251593
 31
0.0
 12
136.827797252223
 22
82.26769625159301
 32
0.0
 13
136.827797252223
 23
82.26769625159301
 33
0.0
  0
MTEXT
  5
1AA3
330
1704
100
AcDbEntity
  8
SUNPOU
100
AcDbMText
 10
134.127797252223
 20
102.2552360760691
 30
0.0
 40
3.0
 41
0.0
 71
     5
 72
     1
  1
\A1;400
  7
EXT08
 11
0.0000000000000001
 21
1.0
 31
0.0
 73
     1
 44
1.0
  0
POINT
  5
1AA4
330
1704
100
AcDbEntity
  8
DEFPOINTS
 62
     0
100
AcDbPoint
 10
81.57603976221656
 20
122.2427759005452
 30
0.0
  0
POINT
  5
1AA5
330
1704
100
AcDbEntity
  8
DEFPOINTS
 62
     0
100
AcDbPoint
 10
102.5226717913914
 20
82.26769625159301
 30
0.0
  0
POINT
  5
1AA6
330
1704
100
AcDbEntity
  8
DEFPOINTS
 62
     0
100
AcDbPoint
 10
136.827797252223
 20
82.26769625159301
 30
0.0
  0
ENDBLK
  5
170F
330
1704
100
AcDbEntity
  8
0
100
AcDbBlockEnd
  0
ENDSEC
  0
SECTION
  2
ENTITIES
  0
LINE
  5
2F7
330
18
100
AcDbEntity
  8
KEN
100
AcDbLine
 10
51.38736025166309
 20
22.2427759005453
 30
0.0
 11
102.6760397622166
 21
22.2427759005453
 31
0.0
  0
LINE
  5
2F8
330
18
100
AcDbEntity
  8
KEN
100
AcDbLine
 10
70.32603976221657
 20
123.2427759005452
 30
0.0
 11
70.32603976221657
 21
22.2427759005453
 31
0.0
  0
LINE
  5
2F9
330
18
100
AcDbEntity
  8
KEN
100
AcDbLine
 10
70.7760397622165
 20
122.2427759005452
 30
0.0
 11
71.17603976221653
 21
122.2427759005452
 31
0.0
  0
LINE
  5
2FA
330
18
100
AcDbEntity
  8
KEN
100
AcDbLine
 10
70.7760397622165
 20
122.2427759005452
 30
0.0
 11
70.7760397622165
 21
81.24277590054527
 31
0.0
  0
LINE
  5
2FB
330
18
100
AcDbEntity
  8
KEN
100
AcDbLine
 10
71.17603976221653
 20
122.2427759005452
 30
0.0
 11
71.17603976221653
 21
81.24277590054527
 31
0.0
  0
LINE
  5
2FC
330
18
100
AcDbEntity
  8
KEN
100
AcDbLine
 10
81.17603976221653
 20
122.2427759005452
 30
0.0
 11
81.17603976221653
 21
114.2427759005453
 31
0.0
  0
LINE
  5
2FD
330
18
100
AcDbEntity
  8
KEN
100
AcDbLine
 10
81.57603976221656
 20
122.2427759005452
 30
0.0
 11
81.57603976221656
 21
114.2427759005453
 31
0.0
  0
ARC
  5
2FE
330
18
100
AcDbEntity
  8
KEN
100
AcDbCircle
 10
115.7970613717544
 20
114.2427759005453
 30
0.0
 40
34.22102160953792
100
AcDbArc
 50
180.0
 51
247.4543176247415
  0
ARC
  5
2FF
330
18
100
AcDbEntity
  8
KEN
100
AcDbCircle
 10
115.7970613717544
 20
114.2427759005453
 30
0.0
 40
34.62102160953792
100
AcDbArc
 50
180.0
 51
247.4543176247415
  0
LINE
  5
300
330
18
100
AcDbEntity
  8
KEN
100
AcDbLine
 10
102.6770914629341
 20
82.63965921584455
 30
0.0
 11
102.5226717913914
 21
82.26769625159297
 31
0.0
  0
ARC
  5
301
330
18
100
AcDbEntity
  8
KEN
100
AcDbCircle
 10
124.4251830161848
 20
81.24277590054527
 30
0.0
 40
53.24914325396823
100
AcDbArc
 50
180.0
 51
245.8930498714547
  0
LINE
  5
303
330
18
100
AcDbEntity
  8
KEN
100
AcDbLine
 10
70.32603976221657
 20
121.2427759005452
 30
0.0
 11
70.7760397622165
 21
121.2427759005452
 31
0.0
  0
LINE
  5
308
330
18
100
AcDbEntity
  8
KEN
100
AcDbLine
 10
81.17603976221653
 20
122.2427759005452
 30
0.0
 11
81.57603976221656
 21
122.2427759005452
 31
0.0
  0
LINE
  5
309
330
18
100
AcDbEntity
  8
KEN
100
AcDbLine
 10
70.32603976221657
 20
81.24277590054527
 30
0.0
 11
70.7760397622165
 21
81.24277590054527
 31
0.0
  0
ARC
  5
30A
330
18
100
AcDbEntity
  8
KEN
100
AcDbCircle
 10
124.4251830161848
 20
81.24277590054527
 30
0.0
 40
53.64914325396823
100
AcDbArc
 50
180.0
 51
245.8930498714548
  0
LINE
  5
30B
330
18
100
AcDbEntity
  8
KEN
100
AcDbLine
 10
102.6760397622166
 20
32.63777590054528
 30
0.0
 11
102.5126632875925
 21
32.27266204496129
 31
0.0
  0
LINE
  5
30C
330
18
100
AcDbEntity
  8
KEN
100
AcDbLine
 10
71.17603976221653
 20
121.7427759005453
 30
0.0
 11
81.17603976221653
 21
121.7427759005452
 31
0.0
  0
LINE
  5
30D
330
18
100
AcDbEntity
  8
KEN
100
AcDbLine
 10
71.17603976221653
 20
114.7427759005453
 30
0.0
 11
81.17603976221653
 21
114.7427759005452
 31
0.0
  0
LINE
  5
30E
330
18
100
AcDbEntity
  8
KEN
100
AcDbLine
 10
71.81603976221651
 20
97.24277590054526
 30
0.0
 11
84.7307251708392
 21
97.24277590054526
 31
0.0
  0
ARC
  5
30F
330
18
100
AcDbEntity
  8
KEN
100
AcDbCircle
 10
115.7970613717544
 20
114.2427759005453
 30
0.0
 40
34.94102160953792
100
AcDbArc
 50
200.8457417439835
 51
208.2320441623918
  0
LINE
  5
310
330
18
100
AcDbEntity
  8
KEN
100
AcDbLine
 10
71.49603976221652
 20
96.60277590054528
 30
0.0
 11
71.49603976221652
 21
84.88277590054526
 31
0.0
  0
LINE
  5
311
330
18
100
AcDbEntity
  8
KEN
100
AcDbLine
 10
71.81603976221651
 20
96.92277590054528
 30
0.0
 11
84.7307251708392
 21
96.92277590054528
 31
0.0
  0
ARC
  5
312
330
18
100
AcDbEntity
  8
KEN
100
AcDbCircle
 10
115.7970613717544
 20
114.2427759005453
 30
0.0
 40
34.94102160953792
100
AcDbArc
 50
239.3023249458193
 51
247.0666495743112
  0
ARC
  5
313
330
18
100
AcDbEntity
  8
KEN
100
AcDbCircle
 10
84.7307251708392
 20
97.56277590054526
 30
0.0
 40
0.32
100
AcDbArc
 50
270.0
 51
28.2320441623898
  0
ARC
  5
314
330
18
100
AcDbEntity
  8
KEN
100
AcDbCircle
 10
71.81603976221651
 20
96.60277590054528
 30
0.0
 40
0.32
100
AcDbArc
 50
90.0
 51
180.0
  0
LINE
  5
315
330
18
100
AcDbEntity
  8
KEN
100
AcDbLine
 10
83.44226671488645
 20
101.9227759005453
 30
0.0
 11
83.14321331296884
 21
101.8089028888109
 31
0.0
  0
LINE
  5
316
330
18
100
AcDbEntity
  8
KEN
100
AcDbLine
 10
102.3066312198721
 20
82.35824310476363
 30
0.0
 11
102.181939993331
 21
82.06353630466622
 31
0.0
  0
ARC
  5
317
330
18
100
AcDbEntity
  8
KEN
100
AcDbCircle
 10
84.7307251708392
 20
97.56277590054526
 30
0.0
 40
0.6400000000000001
100
AcDbArc
 50
270.0
 51
28.2320441623898
  0
ARC
  5
318
330
18
100
AcDbEntity
  8
KEN
100
AcDbCircle
 10
71.81603976221651
 20
96.60277590054528
 30
0.0
 40
0.6400000000000001
100
AcDbArc
 50
90.0
 51
180.0
  0
LINE
  5
31A
330
18
100
AcDbEntity
  8
KEN
100
AcDbLine
 10
70.96603976221655
 20
47.24277590054529
 30
0.0
 11
81.84621314548582
 21
47.24277590054526
 31
0.0
  0
LINE
  5
31B
330
18
100
AcDbEntity
  8
KEN
100
AcDbLine
 10
70.96603976221655
 20
37.24277590054527
 30
0.0
 11
93.07157596293036
 21
37.24277590054527
 31
0.0
  0
ARC
  5
31C
330
18
100
AcDbEntity
  8
KEN
100
AcDbCircle
 10
124.4251830161848
 20
81.24277590054527
 30
0.0
 40
53.96914325396823
100
AcDbArc
 50
213.7335356375212
 51
218.3440257230943
  0
LINE
  5
31D
330
18
100
AcDbEntity
  8
KEN
100
AcDbLine
 10
71.81603976221651
 20
84.24277590054527
 30
0.0
 11
97.79602681958778
 21
84.24277590054527
 31
0.0
  0
LINE
  5
31E
330
18
100
AcDbEntity
  8
KEN
100
AcDbLine
 10
71.81603976221651
 20
84.56277590054526
 30
0.0
 11
97.79602681958778
 21
84.56277590054526
 31
0.0
  0
ARC
  5
31F
330
18
100
AcDbEntity
  8
KEN
100
AcDbCircle
 10
71.81603976221651
 20
84.88277590054526
 30
0.0
 40
0.32
100
AcDbArc
 50
180.0
 51
270.0
  0
ARC
  5
320
330
18
100
AcDbEntity
  8
KEN
100
AcDbCircle
 10
97.79602681958778
 20
83.92277590054527
 30
0.0
 40
0.32
100
AcDbArc
 50
59.30232494581808
 51
90.0
  0
ARC
  5
321
330
18
100
AcDbEntity
  8
KEN
100
AcDbCircle
 10
97.79602681958778
 20
83.92277590054527
 30
0.0
 40
0.6400000000000001
100
AcDbArc
 50
59.30232494581808
 51
90.0
  0
ARC
  5
322
330
18
100
AcDbEntity
  8
KEN
100
AcDbCircle
 10
71.81603976221651
 20
84.88277590054526
 30
0.0
 40
0.6400000000000001
100
AcDbArc
 50
180.0
 51
270.0
  0
LINE
  5
323
330
18
100
AcDbEntity
  8
KEN
100
AcDbLine
 10
97.54463431289503
 20
34.81361832370704
 30
0.0
 11
97.3843004275181
 21
34.53668323167295
 31
0.0
  0
LINE
  5
324
330
18
100
AcDbEntity
  8
KEN
100
AcDbLine
 10
79.80898758178369
 20
51.449728442386
 30
0.0
 11
79.54286622973478
 21
51.27202243240407
 31
0.0
  0
ARC
  5
325
330
18
100
AcDbEntity
  8
KEN
100
AcDbCircle
 10
124.4251830161848
 20
81.24277590054527
 30
0.0
 40
53.96914325396823
100
AcDbArc
 50
234.722999528928
 51
239.9309457120035
  0
LINE
  5
326
330
18
100
AcDbEntity
  8
KEN
100
AcDbLine
 10
70.64603976221651
 20
46.60277590054528
 30
0.0
 11
70.64603976221651
 21
37.88277590054529
 31
0.0
  0
LINE
  5
327
330
18
100
AcDbEntity
  8
KEN
100
AcDbLine
 10
70.96603976221655
 20
46.92277590054527
 30
0.0
 11
81.84621314548582
 21
46.92277590054527
 31
0.0
  0
LINE
  5
328
330
18
100
AcDbEntity
  8
KEN
100
AcDbLine
 10
70.96603976221655
 20
37.56277590054526
 30
0.0
 11
93.07157596293036
 21
37.56277590054526
 31
0.0
  0
ARC
  5
329
330
18
100
AcDbEntity
  8
KEN
100
AcDbCircle
 10
93.07157596293036
 20
36.92277590054528
 30
0.0
 40
0.32
100
AcDbArc
 50
54.72299952892972
 51
90.0
  0
ARC
  5
32A
330
18
100
AcDbEntity
  8
KEN
100
AcDbCircle
 10
81.84621314548582
 20
47.56277590054529
 30
0.0
 40
0.32
100
AcDbArc
 50
270.0
 51
38.34402572309214
  0
ARC
  5
32B
330
18
100
AcDbEntity
  8
KEN
100
AcDbCircle
 10
70.96603976221655
 20
46.60277590054528
 30
0.0
 40
0.32
100
AcDbArc
 50
90.00000000000003
 51
180.0
  0
ARC
  5
32C
330
18
100
AcDbEntity
  8
KEN
100
AcDbCircle
 10
70.96603976221655
 20
37.88277590054529
 30
0.0
 40
0.32
100
AcDbArc
 50
180.0
 51
270.0
  0
ARC
  5
32D
330
18
100
AcDbEntity
  8
KEN
100
AcDbCircle
 10
93.07157596293036
 20
36.92277590054528
 30
0.0
 40
0.6400000000000001
100
AcDbArc
 50
54.72299952892972
 51
90.0
  0
ARC
  5
32E
330
18
100
AcDbEntity
  8
KEN
100
AcDbCircle
 10
81.84621314548582
 20
47.56277590054529
 30
0.0
 40
0.6400000000000001
100
AcDbArc
 50
270.0
 51
38.34402572309214
  0
ARC
  5
32F
330
18
100
AcDbEntity
  8
KEN
100
AcDbCircle
 10
70.96603976221655
 20
46.60277590054528
 30
0.0
 40
0.6400000000000001
100
AcDbArc
 50
90.00000000000003
 51
180.0
  0
ARC
  5
330
330
18
100
AcDbEntity
  8
KEN
100
AcDbCircle
 10
70.96603976221655
 20
37.88277590054529
 30
0.0
 40
0.6400000000000001
100
AcDbArc
 50
180.0
 51
270.0
  0
LINE
  5
33C
330
18
100
AcDbEntity
  8
KEN
100
AcDbLine
 10
72.34603976221655
 20
43.44277590054526
 30
0.0
 11
72.34603976221655
 21
41.04277590054528
 31
0.0
  0
LINE
  5
33D
330
18
100
AcDbEntity
  8
KEN
100
AcDbLine
 10
71.04603976221653
 20
43.62777590054526
 30
0.0
 11
72.23922996241646
 21
43.62777590054526
 31
0.0
  0
LINE
  5
33E
330
18
100
AcDbEntity
  8
KEN
100
AcDbLine
 10
71.04603976221653
 20
40.85777590054528
 30
0.0
 11
72.23922996241646
 21
40.85777590054528
 31
0.0
  0
LINE
  5
33F
330
18
100
AcDbEntity
  8
KEN
100
AcDbLine
 10
72.34603976221655
 20
43.44277590054526
 30
0.0
 11
72.23922996241646
 21
43.62777590054526
 31
0.0
  0
LINE
  5
340
330
18
100
AcDbEntity
  8
KEN
100
AcDbLine
 10
72.34603976221655
 20
41.04277590054528
 30
0.0
 11
72.23922996241646
 21
40.85777590054528
 31
0.0
  0
ARC
  5
341
330
18
100
AcDbEntity
  8
KEN
100
AcDbCircle
 10
69.29665508706211
 20
42.24277590054526
 30
0.0
 40
3.049384675154434
100
AcDbArc
 50
344.7905695430097
 51
15.20943045699049
  0
ARC
  5
342
330
18
100
AcDbEntity
  8
KEN
100
AcDbCircle
 10
69.40109690065099
 20
44.01488737754468
 30
0.0
 40
3.0
100
AcDbArc
 50
341.0927482323052
 51
349.0061384993094
  0
ARC
  5
343
330
18
100
AcDbEntity
  8
KEN
100
AcDbCircle
 10
69.40109690065106
 20
40.47066442354579
 30
0.0
 40
3.0
100
AcDbArc
 50
10.99386150069181
 51
18.90725176769475
  0
LINE
  5
344
330
18
100
AcDbEntity
  8
KEN
100
AcDbLine
 10
73.57603976221657
 20
42.94277590054528
 30
0.0
 11
73.57603976221657
 21
41.54277590054528
 31
0.0
  0
LINE
  5
345
330
18
100
AcDbEntity
  8
KEN
100
AcDbLine
 10
73.57603976221657
 20
42.94277590054526
 30
0.0
 11
73.47239012718006
 21
43.04277590054527
 31
0.0
  0
LINE
  5
346
330
18
100
AcDbEntity
  8
KEN
100
AcDbLine
 10
73.57603976221657
 20
41.54277590054528
 30
0.0
 11
73.47239012718006
 21
41.44277590054531
 31
0.0
  0
LINE
  5
347
330
18
100
AcDbEntity
  8
KEN
100
AcDbLine
 10
71.04603976221653
 20
43.04277590054527
 30
0.0
 11
72.23922996241658
 21
43.04277590054527
 31
0.0
  0
LINE
  5
348
330
18
100
AcDbEntity
  8
KEN
100
AcDbLine
 10
71.04603976221653
 20
41.44277590054525
 30
0.0
 11
72.23922996241646
 21
41.44277590054525
 31
0.0
  0
LINE
  5
349
330
18
100
AcDbEntity
  8
KEN
100
AcDbLine
 10
72.34603976221655
 20
43.04277590054527
 30
0.0
 11
73.47239012718006
 21
43.04277590054527
 31
0.0
  0
LINE
  5
34A
330
18
100
AcDbEntity
  8
KEN
100
AcDbLine
 10
72.34603976221655
 20
41.44277590054528
 30
0.0
 11
73.47239012718006
 21
41.44277590054528
 31
0.0
  0
LINE
  5
34B
330
18
100
AcDbEntity
  8
KEN
100
AcDbLine
 10
71.04603976221653
 20
43.64277590054527
 30
0.0
 11
71.04603976221653
 21
40.84277590054526
 31
0.0
  0
LINE
  5
34C
330
18
100
AcDbEntity
  8
KEN
100
AcDbLine
 10
70.64603976221651
 20
43.64277590054527
 30
0.0
 11
71.04603976221659
 21
43.64277590054527
 31
0.0
  0
LINE
  5
34D
330
18
100
AcDbEntity
  8
KEN
100
AcDbLine
 10
70.64603976221651
 20
40.84277590054523
 30
0.0
 11
71.04603976221659
 21
40.84277590054523
 31
0.0
  0
LINE
  5
34E
330
18
100
AcDbEntity
  8
KEN
100
AcDbLine
 10
71.49603976221652
 20
89.34277590054524
 30
0.0
 11
71.89603976221651
 21
89.34277590054524
 31
0.0
  0
LINE
  5
34F
330
18
100
AcDbEntity
  8
KEN
100
AcDbLine
 10
71.49603976221652
 20
92.14277590054525
 30
0.0
 11
71.89603976221651
 21
92.14277590054525
 31
0.0
  0
LINE
  5
350
330
18
100
AcDbEntity
  8
KEN
100
AcDbLine
 10
71.89603976221651
 20
92.14277590054525
 30
0.0
 11
71.89603976221651
 21
89.35777590054527
 31
0.0
  0
LINE
  5
351
330
18
100
AcDbEntity
  8
KEN
100
AcDbLine
 10
73.19603976221657
 20
89.94277590054526
 30
0.0
 11
73.47239012718006
 21
89.94277590054526
 31
0.0
  0
LINE
  5
352
330
18
100
AcDbEntity
  8
KEN
100
AcDbLine
 10
73.19603976221657
 20
91.54277590054528
 30
0.0
 11
73.47239012718006
 21
91.54277590054528
 31
0.0
  0
LINE
  5
353
330
18
100
AcDbEntity
  8
KEN
100
AcDbLine
 10
71.89603976221651
 20
89.94277590054526
 30
0.0
 11
73.08922996241648
 21
89.94277590054526
 31
0.0
  0
LINE
  5
354
330
18
100
AcDbEntity
  8
KEN
100
AcDbLine
 10
71.89603976221651
 20
91.54277590054528
 30
0.0
 11
73.08922996241659
 21
91.54277590054528
 31
0.0
  0
LINE
  5
355
330
18
100
AcDbEntity
  8
KEN
100
AcDbLine
 10
73.57603976221657
 20
90.04277590054527
 30
0.0
 11
73.47239012718006
 21
89.94277590054528
 31
0.0
  0
LINE
  5
356
330
18
100
AcDbEntity
  8
KEN
100
AcDbLine
 10
73.57603976221657
 20
91.44277590054526
 30
0.0
 11
73.47239012718006
 21
91.54277590054528
 31
0.0
  0
LINE
  5
357
330
18
100
AcDbEntity
  8
KEN
100
AcDbLine
 10
73.57603976221657
 20
91.44277590054526
 30
0.0
 11
73.57603976221657
 21
90.04277590054527
 31
0.0
  0
ARC
  5
358
330
18
100
AcDbEntity
  8
KEN
100
AcDbCircle
 10
70.25109690065102
 20
88.97066442354576
 30
0.0
 40
3.0
100
AcDbArc
 50
10.99386150069181
 51
18.90725176769475
  0
ARC
  5
359
330
18
100
AcDbEntity
  8
KEN
100
AcDbCircle
 10
70.25109690065102
 20
92.51488737754469
 30
0.0
 40
3.0
100
AcDbArc
 50
341.0927482323052
 51
349.0061384993094
  0
ARC
  5
35A
330
18
100
AcDbEntity
  8
KEN
100
AcDbCircle
 10
70.14665508706213
 20
90.74277590054526
 30
0.0
 40
3.049384675154434
100
AcDbArc
 50
344.7905695430097
 51
15.20943045699049
  0
LINE
  5
35B
330
18
100
AcDbEntity
  8
KEN
100
AcDbLine
 10
73.19603976221657
 20
89.54277590054529
 30
0.0
 11
73.08922996241648
 21
89.35777590054527
 31
0.0
  0
LINE
  5
35C
330
18
100
AcDbEntity
  8
KEN
100
AcDbLine
 10
73.19603976221657
 20
91.94277590054525
 30
0.0
 11
73.08922996241648
 21
92.12777590054527
 31
0.0
  0
LINE
  5
35D
330
18
100
AcDbEntity
  8
KEN
100
AcDbLine
 10
71.49603976221652
 20
89.35777590054527
 30
0.0
 11
73.08922996241648
 21
89.35777590054527
 31
0.0
  0
LINE
  5
35E
330
18
100
AcDbEntity
  8
KEN
100
AcDbLine
 10
71.89603976221651
 20
92.12777590054527
 30
0.0
 11
73.08922996241648
 21
92.12777590054527
 31
0.0
  0
LINE
  5
35F
330
18
100
AcDbEntity
  8
KEN
100
AcDbLine
 10
73.19603976221657
 20
91.94277590054525
 30
0.0
 11
73.19603976221657
 21
89.54277590054529
 31
0.0
  0
LINE
  5
378
330
18
100
AcDbEntity
  8
CENTER
100
AcDbLine
 10
77.80603976221659
 20
118.2427759005453
 30
0.0
 11
83.60603976221653
 21
118.2427759005452
 31
0.0
  0
LINE
  5
379
330
18
100
AcDbEntity
  8
KEN
100
AcDbLine
 10
81.80603976221659
 20
119.4427759005453
 30
0.0
 11
81.80603976221659
 21
117.0427759005453
 31
0.0
  0
LINE
  5
37A
330
18
100
AcDbEntity
  8
KEN
100
AcDbLine
 10
82.60603976221654
 20
119.1927759005453
 30
0.0
 11
82.60603976221654
 21
117.2927759005479
 31
0.0
  0
LINE
  5
37B
330
18
100
AcDbEntity
  8
KEN
100
AcDbLine
 10
81.57603976221656
 20
119.4427759005453
 30
0.0
 11
81.80603976221659
 21
119.4427759005453
 31
0.0
  0
LINE
  5
37C
330
18
100
AcDbEntity
  8
KEN
100
AcDbLine
 10
82.60603976221654
 20
119.1927759005453
 30
0.0
 11
82.51943722183813
 21
119.3427759005453
 31
0.0
  0
LINE
  5
37D
330
18
100
AcDbEntity
  8
KEN
100
AcDbLine
 10
81.80603976221659
 20
119.3427759005453
 30
0.0
 11
82.51943722183813
 21
119.3427759005453
 31
0.0
  0
LINE
  5
37E
330
18
100
AcDbEntity
  8
KEN
100
AcDbLine
 10
81.80603976221659
 20
117.1427759005453
 30
0.0
 11
82.51943722183813
 21
117.1427759005453
 31
0.0
  0
LINE
  5
37F
330
18
100
AcDbEntity
  8
KEN
100
AcDbLine
 10
82.60603976221654
 20
117.2927759005452
 30
0.0
 11
82.51943722183813
 21
117.1427759005452
 31
0.0
  0
LINE
  5
380
330
18
100
AcDbEntity
  8
KEN
100
AcDbLine
 10
81.57603976221656
 20
117.0427759005453
 30
0.0
 11
81.80603976221659
 21
117.0427759005453
 31
0.0
  0
ARC
  5
381
330
18
100
AcDbEntity
  8
KEN
100
AcDbCircle
 10
80.48427752294418
 20
118.2427759005452
 30
0.0
 40
2.121762239272342
100
AcDbArc
 50
343.5735785965275
 51
16.4264214034725
  0
ARC
  5
382
330
18
100
AcDbEntity
  8
KEN
100
AcDbCircle
 10
80.62919103483057
 20
119.4962048197875
 30
0.0
 40
2.0
100
AcDbArc
 50
340.9305225934839
 51
351.2737049105776
  0
LINE
  5
383
330
18
100
AcDbEntity
  8
KEN
100
AcDbLine
 10
81.80603976221659
 20
118.8427759005453
 30
0.0
 11
82.5194372218379
 21
118.8427759005453
 31
0.0
  0
LINE
  5
384
330
18
100
AcDbEntity
  8
KEN
100
AcDbLine
 10
81.80603976221659
 20
117.6427759005453
 30
0.0
 11
82.5194372218379
 21
117.6427759005453
 31
0.0
  0
ARC
  5
385
330
18
100
AcDbEntity
  8
KEN
100
AcDbCircle
 10
80.62919103483057
 20
116.989346981303
 30
0.0
 40
2.0
100
AcDbArc
 50
8.726295089422348
 51
19.06947740651615
  0
LINE
  5
386
330
18
100
AcDbEntity
  8
KEN
100
AcDbLine
 10
84.1037129042562
 20
98.27779353469118
 30
0.0
 11
84.37560524036717
 21
98.40457901321338
 31
0.0
  0
LINE
  5
387
330
18
100
AcDbEntity
  8
KEN
100
AcDbLine
 10
84.63688331410327
 20
98.38849274003417
 30
0.0
 11
84.42843252308483
 21
98.29129053983377
 31
0.0
  0
LINE
  5
388
330
18
100
AcDbEntity
  8
KEN
100
AcDbLine
 10
82.49579811531186
 20
98.12935152078029
 30
0.0
 11
82.58882293872625
 21
98.09549325400958
 31
0.0
  0
LINE
  5
389
330
18
100
AcDbEntity
  8
KEN
100
AcDbLine
 10
82.58882293872625
 20
98.09549325400958
 30
0.0
 11
83.17792300030005
 21
98.37019512414101
 31
0.0
  0
LINE
  5
38A
330
18
100
AcDbEntity
  8
KEN
100
AcDbLine
 10
82.08168102463742
 20
99.18306259845355
 30
0.0
 11
82.6707810862112
 21
99.45776446858497
 31
0.0
  0
LINE
  5
38B
330
18
100
AcDbEntity
  8
KEN
100
AcDbLine
 10
82.04782275786669
 20
99.09003777503912
 30
0.0
 11
82.08168102463742
 21
99.18306259845355
 31
0.0
  0
LINE
  5
38C
330
18
100
AcDbEntity
  8
KEN
100
AcDbLine
 10
82.04782275786669
 20
99.09003777503912
 30
0.0
 11
82.49579811531186
 21
98.12935152078029
 31
0.0
  0
LINE
  5
38D
330
18
100
AcDbEntity
  8
KEN
100
AcDbLine
 10
82.522864694602
 20
99.77497219404781
 30
0.0
 11
83.32583939190817
 21
98.05298739868062
 31
0.0
  0
LINE
  5
38E
330
18
100
AcDbEntity
  8
KEN
100
AcDbLine
 10
82.522864694602
 20
99.77497219404781
 30
0.0
 11
82.53796051206297
 21
99.94751817718038
 31
0.0
  0
LINE
  5
38F
330
18
100
AcDbEntity
  8
KEN
100
AcDbLine
 10
83.18451818497015
 20
100.2490129714958
 30
0.0
 11
82.53796051206297
 21
99.94751817718038
 31
0.0
  0
LINE
  5
390
330
18
100
AcDbEntity
  8
KEN
100
AcDbLine
 10
84.11427836079969
 20
98.25513584001525
 30
0.0
 11
83.46772068789254
 21
97.95364104569976
 31
0.0
  0
LINE
  5
391
330
18
100
AcDbEntity
  8
KEN
100
AcDbLine
 10
83.3258393919093
 20
98.05298739867817
 30
0.0
 11
83.46772068789254
 21
97.95364104569973
 31
0.0
  0
ARC
  5
392
330
18
100
AcDbEntity
  8
KEN
100
AcDbCircle
 10
84.84732168294845
 20
99.81067526575134
 30
0.0
 40
2.121762239272342
100
AcDbArc
 50
188.5735785965275
 51
221.4264214034725
  0
ARC
  5
393
330
18
100
AcDbEntity
  8
KEN
100
AcDbCircle
 10
84.18626348761335
 20
100.8854245592613
 30
0.0
 40
2.0
100
AcDbArc
 50
213.7262950894224
 51
224.0694774065162
  0
LINE
  5
394
330
18
100
AcDbEntity
  8
KEN
100
AcDbLine
 10
83.39582731584057
 20
99.79585907797753
 30
0.0
 11
82.74926964293348
 21
99.49436428366212
 31
0.0
  0
LINE
  5
395
330
18
100
AcDbEntity
  8
KEN
100
AcDbLine
 10
83.9029692299294
 20
98.70828973353358
 30
0.0
 11
83.25641155702232
 21
98.40679493921818
 31
0.0
  0
ARC
  5
396
330
18
100
AcDbEntity
  8
KEN
100
AcDbCircle
 10
85.24570738974473
 20
98.61343977924901
 30
0.0
 40
2.0
100
AcDbArc
 50
185.9305225934838
 51
196.2737049105776
  0
ARC
  5
397
330
18
100
AcDbEntity
  8
KEN
100
AcDbCircle
 10
84.45386858297082
 20
98.24419927962603
 30
0.0
 40
2.0
100
AcDbArc
 50
33.72629508942235
 51
44.06947740651615
  0
LINE
  5
398
330
18
100
AcDbEntity
  8
KEN
100
AcDbLine
 10
85.2443047547436
 20
99.33376476090982
 30
0.0
 11
85.89086242765068
 21
99.63525955522522
 31
0.0
  0
LINE
  5
399
330
18
100
AcDbEntity
  8
KEN
100
AcDbLine
 10
84.73716284065478
 20
100.4213341053538
 30
0.0
 11
85.38372051356185
 21
100.7228288996692
 31
0.0
  0
ARC
  5
39A
330
18
100
AcDbEntity
  8
KEN
100
AcDbCircle
 10
83.39442468083944
 20
100.5161840596383
 30
0.0
 40
2.0
100
AcDbArc
 50
5.930522593483871
 51
16.27370491057767
  0
ARC
  5
39B
330
18
100
AcDbEntity
  8
KEN
100
AcDbCircle
 10
83.7928103876357
 20
99.31894857313602
 30
0.0
 40
2.121762239272342
100
AcDbArc
 50
8.573578596527546
 51
41.4264214034725
  0
LINE
  5
39C
330
18
100
AcDbEntity
  8
KEN
100
AcDbLine
 10
85.28942492076959
 20
98.69277788848746
 30
0.0
 11
85.49787571178802
 21
98.7899800886878
 31
0.0
  0
LINE
  5
39D
330
18
100
AcDbEntity
  8
KEN
100
AcDbLine
 10
86.11726737598218
 20
99.35465164483952
 30
0.0
 11
86.1021715585212
 21
99.18210566170698
 31
0.0
  0
LINE
  5
39E
330
18
100
AcDbEntity
  8
KEN
100
AcDbLine
 10
85.45561388561401
 20
98.88061086739151
 30
0.0
 11
86.1021715585212
 21
99.18210566170699
 31
0.0
  0
LINE
  5
39F
330
18
100
AcDbEntity
  8
KEN
100
AcDbLine
 10
83.19508364151369
 20
100.2263552768199
 30
0.0
 11
83.46697597762471
 21
100.3531407553421
 31
0.0
  0
LINE
  5
3A0
330
18
100
AcDbEntity
  8
KEN
100
AcDbLine
 10
83.18451818497015
 20
100.2490129714958
 30
0.0
 11
84.11427836079974
 21
98.25513584001525
 31
0.0
  0
LINE
  5
3A1
330
18
100
AcDbEntity
  8
KEN
100
AcDbLine
 10
83.4141486949071
 20
100.4664292287217
 30
0.0
 11
84.42843252308483
 21
98.29129053983377
 31
0.0
  0
LINE
  5
3A2
330
18
100
AcDbEntity
  8
KEN
100
AcDbLine
 10
83.62259948592555
 20
100.5636314289221
 30
0.0
 11
83.4141486949071
 21
100.4664292287217
 31
0.0
  0
LINE
  5
3A3
330
18
100
AcDbEntity
  8
KEN
100
AcDbLine
 10
84.52585370978448
 20
100.8744879988721
 30
0.0
 11
85.17241138269168
 21
101.1759827931876
 31
0.0
  0
LINE
  5
3A4
330
18
100
AcDbEntity
  8
KEN
100
AcDbLine
 10
85.31429267867492
 20
101.0766364402092
 30
0.0
 11
85.17241138269168
 21
101.1759827931876
 31
0.0
  0
LINE
  5
3A5
330
18
100
AcDbEntity
  8
KEN
100
AcDbLine
 10
84.27514109259192
 20
100.8679165773754
 30
0.0
 11
84.48359188361036
 21
100.9651187775758
 31
0.0
  0
LINE
  5
3A6
330
18
100
AcDbEntity
  8
KEN
100
AcDbLine
 10
85.31429267867492
 20
101.0766364402092
 30
0.0
 11
86.11726737598104
 21
99.35465164484197
 31
0.0
  0
LINE
  5
3A7
330
18
100
AcDbEntity
  8
KEN
100
AcDbLine
 10
84.48359188361036
 20
100.9651187775758
 30
0.0
 11
85.49787571178802
 21
98.7899800886878
 31
0.0
  0
LINE
  5
3A8
330
18
100
AcDbEntity
  8
CENTER
100
AcDbLine
 10
81.36550264955264
 20
98.18707638616899
 30
0.0
 11
86.62208781436522
 21
100.638262304265
 31
0.0
  0
LINE
  5
3A9
330
18
100
AcDbEntity
  8
KEN
100
AcDbLine
 10
100.6513865584706
 20
82.14982443960037
 30
0.0
 11
100.7875837083924
 21
82.41712639685687
 31
0.0
  0
LINE
  5
3AA
330
18
100
AcDbEntity
  8
KEN
100
AcDbLine
 10
101.003377338856
 20
82.56530908495278
 30
0.0
 11
100.8989595239159
 21
82.36037758438943
 31
0.0
  0
LINE
  5
3AB
330
18
100
AcDbEntity
  8
KEN
100
AcDbLine
 10
99.47572244318383
 20
81.04291934519213
 30
0.0
 11
99.5698722348588
 21
81.07351046690354
 31
0.0
  0
LINE
  5
3AC
330
18
100
AcDbEntity
  8
KEN
100
AcDbLine
 10
99.5698722348588
 20
81.07351046690354
 30
0.0
 11
99.8649660596895
 21
81.65266470762597
 31
0.0
  0
LINE
  5
3AD
330
18
100
AcDbEntity
  8
KEN
100
AcDbLine
 10
98.50066440583276
 20
81.61829906659098
 30
0.0
 11
98.79575823066346
 21
82.19745330731342
 31
0.0
  0
LINE
  5
3AE
330
18
100
AcDbEntity
  8
KEN
100
AcDbLine
 10
98.53125552754415
 20
81.52414927491605
 30
0.0
 11
98.50066440583276
 21
81.61829906659098
 31
0.0
  0
LINE
  5
3AF
330
18
100
AcDbEntity
  8
KEN
100
AcDbLine
 10
98.53125552754415
 20
81.52414927491605
 30
0.0
 11
99.47572244318383
 21
81.04291934519213
 31
0.0
  0
LINE
  5
3B0
330
18
100
AcDbEntity
  8
KEN
100
AcDbLine
 10
98.48390594719745
 20
82.35634998222227
 30
0.0
 11
100.176818343153
 21
81.49376803271835
 31
0.0
  0
LINE
  5
3B1
330
18
100
AcDbEntity
  8
KEN
100
AcDbLine
 10
98.48390594719745
 20
82.35634998222227
 30
0.0
 11
98.38957169915438
 21
82.50161198567168
 31
0.0
  0
LINE
  5
3B2
330
18
100
AcDbEntity
  8
KEN
100
AcDbLine
 10
98.71344736836086
 20
83.13725377653389
 30
0.0
 11
98.38957169915438
 21
82.50161198567168
 31
0.0
  0
LINE
  5
3B3
330
18
100
AcDbEntity
  8
KEN
100
AcDbLine
 10
100.6736617215753
 20
82.1384746771069
 30
0.0
 11
100.3497860523687
 21
81.50283288624468
 31
0.0
  0
LINE
  5
3B4
330
18
100
AcDbEntity
  8
KEN
100
AcDbLine
 10
100.1768183431554
 20
81.49376803271712
 30
0.0
 11
100.3497860523687
 21
81.50283288624468
 31
0.0
  0
ARC
  5
3B5
330
18
100
AcDbEntity
  8
KEN
100
AcDbCircle
 10
100.2936220445121
 20
83.8155630054379
 30
0.0
 40
2.121762239272342
100
AcDbArc
 50
226.5735785965275
 51
259.4264214034725
  0
ARC
  5
3B6
330
18
100
AcDbEntity
  8
KEN
100
AcDbCircle
 10
99.11101934218066
 20
84.25548894233884
 30
0.0
 40
2.0
100
AcDbArc
 50
251.7262950894223
 51
262.0694774065162
  0
LINE
  5
3B7
330
18
100
AcDbEntity
  8
KEN
100
AcDbLine
 10
99.15895063045509
 20
82.91025852666411
 30
0.0
 11
98.83507496124861
 21
82.27461673580206
 31
0.0
  0
LINE
  5
3B8
330
18
100
AcDbEntity
  8
KEN
100
AcDbLine
 10
100.2281584594811
 20
82.36546992697668
 30
0.0
 11
99.90428279027463
 21
81.72982813611463
 31
0.0
  0
ARC
  5
3B9
330
18
100
AcDbEntity
  8
KEN
100
AcDbCircle
 10
101.344646031483
 20
83.11739929946929
 30
0.0
 40
2.0
100
AcDbArc
 50
223.9305225934839
 51
234.2737049105777
  0
ARC
  5
3BA
330
18
100
AcDbEntity
  8
KEN
100
AcDbCircle
 10
101.1905697099044
 20
82.81500749208953
 30
0.0
 40
2.0
100
AcDbArc
 50
71.72629508942235
 51
82.06947740651614
  0
LINE
  5
3BB
330
18
100
AcDbEntity
  8
KEN
100
AcDbLine
 10
101.1426384216301
 20
84.16023790776426
 30
0.0
 11
101.4665140908365
 21
84.79587969862633
 31
0.0
  0
LINE
  5
3BC
330
18
100
AcDbEntity
  8
KEN
100
AcDbLine
 10
100.0734305926041
 20
84.70502650745173
 30
0.0
 11
100.3973062618105
 21
85.34066829831379
 31
0.0
  0
ARC
  5
3BD
330
18
100
AcDbEntity
  8
KEN
100
AcDbCircle
 10
98.95694302060206
 20
83.95309713495908
 30
0.0
 40
2.0
100
AcDbArc
 50
43.93052259348385
 51
54.27370491057764
  0
ARC
  5
3BE
330
18
100
AcDbEntity
  8
KEN
100
AcDbCircle
 10
100.0079670075729
 20
83.25493342899051
 30
0.0
 40
2.121762239272342
100
AcDbArc
 50
46.57357859652752
 51
79.4264214034725
  0
LINE
  5
3BF
330
18
100
AcDbEntity
  8
KEN
100
AcDbLine
 10
101.572824521203
 20
83.68291210735719
 30
0.0
 11
101.6772423361431
 21
83.88784360792056
 31
0.0
  0
LINE
  5
3C0
330
18
100
AcDbEntity
  8
KEN
100
AcDbLine
 10
101.8176831048877
 20
84.71414645220614
 30
0.0
 11
101.9120173529308
 21
84.56888444875671
 31
0.0
  0
LINE
  5
3C1
330
18
100
AcDbEntity
  8
KEN
100
AcDbLine
 10
101.5881416837243
 20
83.93324265789448
 30
0.0
 11
101.9120173529308
 21
84.56888444875671
 31
0.0
  0
LINE
  5
3C2
330
18
100
AcDbEntity
  8
KEN
100
AcDbLine
 10
98.73572253146557
 20
83.12590401404042
 30
0.0
 11
98.87191968138745
 21
83.39320597129693
 31
0.0
  0
LINE
  5
3C3
330
18
100
AcDbEntity
  8
KEN
100
AcDbLine
 10
98.71344736836086
 20
83.13725377653389
 30
0.0
 11
100.6736617215753
 21
82.1384746771069
 31
0.0
  0
LINE
  5
3C4
330
18
100
AcDbEntity
  8
KEN
100
AcDbLine
 10
98.76054386586389
 20
83.44995478376436
 30
0.0
 11
100.8989595239159
 21
82.36037758438943
 31
0.0
  0
LINE
  5
3C5
330
18
100
AcDbEntity
  8
KEN
100
AcDbLine
 10
98.86496168080402
 20
83.65488628432769
 30
0.0
 11
98.76054386586389
 21
83.44995478376436
 31
0.0
  0
LINE
  5
3C6
330
18
100
AcDbEntity
  8
KEN
100
AcDbLine
 10
99.62792733050992
 20
84.93202175732148
 30
0.0
 11
99.95180299971639
 21
85.56766354818369
 31
0.0
  0
LINE
  5
3C7
330
18
100
AcDbEntity
  8
KEN
100
AcDbLine
 10
100.1247707089297
 20
85.57672840171125
 30
0.0
 11
99.95180299971639
 21
85.56766354818373
 31
0.0
  0
LINE
  5
3C8
330
18
100
AcDbEntity
  8
KEN
100
AcDbLine
 10
99.43440886315096
 20
84.77248930673212
 30
0.0
 11
99.53882667809104
 21
84.97742080729546
 31
0.0
  0
LINE
  5
3C9
330
18
100
AcDbEntity
  8
KEN
100
AcDbLine
 10
100.1247707089297
 20
85.57672840171125
 30
0.0
 11
101.8176831048853
 21
84.71414645220733
 31
0.0
  0
LINE
  5
3CA
330
18
100
AcDbEntity
  8
KEN
100
AcDbLine
 10
99.53882667809104
 20
84.97742080729546
 30
0.0
 11
101.6772423361431
 21
83.88784360792056
 31
0.0
  0
LINE
  5
3CB
330
18
100
AcDbEntity
  8
CENTER
100
AcDbLine
 10
98.54949848562439
 20
80.39252778586575
 30
0.0
 11
101.1826433841138
 21
85.56036562615828
 31
0.0
  0
LINE
  5
3CC
330
18
100
AcDbEntity
  8
KEN
100
AcDbLine
 10
96.1739419603934
 20
35.56621790092834
 30
0.0
 11
96.0184656784267
 21
35.28652677531681
 31
0.0
  0
LINE
  5
3CD
330
18
100
AcDbEntity
  8
KEN
100
AcDbLine
 10
81.19731578476734
 20
49.37065537950437
 30
0.0
 11
80.93119443271854
 21
49.19294936952247
 31
0.0
  0
LINE
  5
3CE
330
18
100
AcDbEntity
  8
KEN
100
AcDbLine
 10
80.96631909106411
 20
48.33928996433482
 30
0.0
 11
81.20902418937658
 21
48.51562554002256
 31
0.0
  0
LINE
  5
3CF
330
18
100
AcDbEntity
  8
KEN
100
AcDbLine
 10
81.46857125461934
 20
48.54968902375296
 30
0.0
 11
81.2824973459131
 21
48.41449841572568
 31
0.0
  0
LINE
  5
3D0
330
18
100
AcDbEntity
  8
KEN
100
AcDbLine
 10
79.41627029711475
 20
47.88677064278462
 30
0.0
 11
79.51404645438145
 21
47.87128442083885
 31
0.0
  0
LINE
  5
3D1
330
18
100
AcDbEntity
  8
KEN
100
AcDbLine
 10
79.51404645438145
 20
47.87128442083885
 30
0.0
 11
80.03990750072517
 21
48.25334483482897
 31
0.0
  0
LINE
  5
3D2
330
18
100
AcDbEntity
  8
KEN
100
AcDbLine
 10
78.80870415163053
 20
48.84210481408877
 30
0.0
 11
79.33456519797426
 21
49.22416522807887
 31
0.0
  0
LINE
  5
3D3
330
18
100
AcDbEntity
  8
KEN
100
AcDbLine
 10
78.79321792968477
 20
48.74432865682206
 30
0.0
 11
78.80870415163053
 21
48.84210481408877
 31
0.0
  0
LINE
  5
3D4
330
18
100
AcDbEntity
  8
KEN
100
AcDbLine
 10
78.79321792968477
 20
48.74432865682206
 30
0.0
 11
79.41627029711475
 21
47.88677064278462
 31
0.0
  0
LINE
  5
3D5
330
18
100
AcDbEntity
  8
KEN
100
AcDbLine
 10
79.12884035967187
 20
49.50732117611011
 30
0.0
 11
80.24563233902602
 21
47.97018888679988
 31
0.0
  0
LINE
  5
3D6
330
18
100
AcDbEntity
  8
KEN
100
AcDbLine
 10
79.12884035967187
 20
49.50732117611011
 30
0.0
 11
79.11073549875021
 21
49.67957742131187
 31
0.0
  0
LINE
  5
3D7
330
18
100
AcDbEntity
  8
KEN
100
AcDbLine
 10
79.68788616732798
 20
50.09890192710034
 30
0.0
 11
79.11073549875021
 21
49.67957742131187
 31
0.0
  0
LINE
  5
3D8
330
18
100
AcDbEntity
  8
KEN
100
AcDbLine
 10
80.98101372237142
 20
48.31906453947545
 30
0.0
 11
80.4038630537936
 21
47.89974003368698
 31
0.0
  0
LINE
  5
3D9
330
18
100
AcDbEntity
  8
KEN
100
AcDbLine
 10
80.24563233902762
 20
47.9701888867977
 30
0.0
 11
80.40386305379366
 21
47.89974003368698
 31
0.0
  0
ARC
  5
3DA
330
18
100
AcDbEntity
  8
KEN
100
AcDbCircle
 10
81.40377805894411
 20
49.98589558456925
 30
0.0
 40
2.121762239272342
100
AcDbArc
 50
199.5735785965275
 51
232.4264214034725
  0
ARC
  5
3DB
330
18
100
AcDbEntity
  8
KEN
100
AcDbCircle
 10
80.54979353158598
 20
50.91476285633252
 30
0.0
 40
2.0
100
AcDbArc
 50
224.7262950894224
 51
235.0694774065162
  0
LINE
  5
3DC
330
18
100
AcDbEntity
  8
KEN
100
AcDbLine
 10
79.98177879347423
 20
49.69439342991285
 30
0.0
 11
79.40462812489665
 21
49.27506892412449
 31
0.0
  0
LINE
  5
3DD
330
18
100
AcDbEntity
  8
KEN
100
AcDbLine
 10
80.68712109622522
 20
48.72357303666294
 30
0.0
 11
80.10997042764751
 21
48.30424853087459
 31
0.0
  0
ARC
  5
3DE
330
18
100
AcDbEntity
  8
KEN
100
AcDbCircle
 10
82.02328759864093
 20
48.88667226251655
 30
0.0
 40
2.0
100
AcDbArc
 50
196.9305225934838
 51
207.2737049105777
  0
ARC
  5
3DF
330
18
100
AcDbEntity
  8
KEN
100
AcDbCircle
 10
81.3164515097883
 20
48.37312578363614
 30
0.0
 40
2.0
100
AcDbArc
 50
44.72629508942235
 51
55.06947740651614
  0
LINE
  5
3E0
330
18
100
AcDbEntity
  8
KEN
100
AcDbLine
 10
81.88446624790008
 20
49.59349521005581
 30
0.0
 11
82.46161691647769
 21
50.01281971584416
 31
0.0
  0
LINE
  5
3E1
330
18
100
AcDbEntity
  8
KEN
100
AcDbLine
 10
81.17912394514911
 20
50.56431560330572
 30
0.0
 11
81.7562746137267
 21
50.9836401090941
 31
0.0
  0
ARC
  5
3E2
330
18
100
AcDbEntity
  8
KEN
100
AcDbCircle
 10
79.84295744273339
 20
50.4012163774521
 30
0.0
 40
2.0
100
AcDbArc
 50
16.93052259348385
 51
27.27370491057766
  0
ARC
  5
3E3
330
18
100
AcDbEntity
  8
KEN
100
AcDbCircle
 10
80.46246698243022
 20
49.3019930553994
 30
0.0
 40
2.121762239272342
100
AcDbArc
 50
19.57357859652752
 51
52.4264214034725
  0
LINE
  5
3E4
330
18
100
AcDbEntity
  8
KEN
100
AcDbLine
 10
82.05106349056933
 20
48.97289440540356
 30
0.0
 11
82.23713739927559
 21
49.10808501343083
 31
0.0
  0
LINE
  5
3E5
330
18
100
AcDbEntity
  8
KEN
100
AcDbLine
 10
82.73740468170245
 20
49.78056746385854
 30
0.0
 11
82.75550954262412
 21
49.60831121865678
 31
0.0
  0
LINE
  5
3E6
330
18
100
AcDbEntity
  8
KEN
100
AcDbLine
 10
82.1783588740463
 20
49.18898671286831
 30
0.0
 11
82.75550954262412
 21
49.6083112186568
 31
0.0
  0
LINE
  5
3E7
330
18
100
AcDbEntity
  8
KEN
100
AcDbLine
 10
79.70258079863532
 20
50.07867650224096
 30
0.0
 11
79.94528589694772
 21
50.25501207792871
 31
0.0
  0
LINE
  5
3E8
330
18
100
AcDbEntity
  8
KEN
100
AcDbLine
 10
79.68788616732798
 20
50.09890192710034
 30
0.0
 11
80.98101372237142
 21
48.31906453947545
 31
0.0
  0
LINE
  5
3E9
330
18
100
AcDbEntity
  8
KEN
100
AcDbLine
 10
79.8718127404112
 20
50.35613920222556
 30
0.0
 11
81.2824973459131
 21
48.41449841572568
 31
0.0
  0
LINE
  5
3EA
330
18
100
AcDbEntity
  8
KEN
100
AcDbLine
 10
80.05788664911738
 20
50.49132981025284
 30
0.0
 11
79.8718127404112
 21
50.35613920222556
 31
0.0
  0
LINE
  5
3EB
330
18
100
AcDbEntity
  8
KEN
100
AcDbLine
 10
80.88523131900291
 20
50.96882410049321
 30
0.0
 11
81.46238198758068
 21
51.38814860628167
 31
0.0
  0
LINE
  5
3EC
330
18
100
AcDbEntity
  8
KEN
100
AcDbLine
 10
81.62061270234671
 20
51.31769975317095
 30
0.0
 11
81.4623819875806
 21
51.38814860628167
 31
0.0
  0
LINE
  5
3ED
330
18
100
AcDbEntity
  8
KEN
100
AcDbLine
 10
80.64037888506737
 20
50.91453519190344
 30
0.0
 11
80.82645279377363
 21
51.04972579993071
 31
0.0
  0
LINE
  5
3EE
330
18
100
AcDbEntity
  8
KEN
100
AcDbLine
 10
81.62061270234671
 20
51.31769975317095
 30
0.0
 11
82.73740468170087
 21
49.7805674638607
 31
0.0
  0
LINE
  5
3EF
330
18
100
AcDbEntity
  8
KEN
100
AcDbLine
 10
80.82645279377363
 20
51.04972579993071
 30
0.0
 11
82.23713739927559
 21
49.10808501343083
 31
0.0
  0
LINE
  5
3F0
330
18
100
AcDbEntity
  8
CENTER
100
AcDbLine
 10
78.29572711902483
 20
47.7277643975109
 30
0.0
 11
82.98802568639956
 21
51.13691886080721
 31
0.0
  0
LINE
  5
3F1
330
18
100
AcDbEntity
  8
KEN
100
AcDbLine
 10
95.64439308573913
 20
34.95046151255952
 30
0.0
 11
95.80778479624365
 21
35.20206268294316
 31
0.0
  0
LINE
  5
3F2
330
18
100
AcDbEntity
  8
KEN
100
AcDbLine
 10
96.03788559529021
 20
35.32687703419373
 30
0.0
 11
95.91261861723678
 21
35.13398280356629
 31
0.0
  0
LINE
  5
3F3
330
18
100
AcDbEntity
  8
KEN
100
AcDbLine
 10
94.35946629298603
 20
33.97251052336571
 30
0.0
 11
94.4562979651933
 21
33.99309273067081
 31
0.0
  0
LINE
  5
3F4
330
18
100
AcDbEntity
  8
KEN
100
AcDbLine
 10
94.4562979651933
 20
33.99309273067081
 30
0.0
 11
94.810313337953
 21
34.53822859983535
 31
0.0
  0
LINE
  5
3F5
330
18
100
AcDbEntity
  8
KEN
100
AcDbLine
 10
93.44989328365874
 20
34.64665957268886
 30
0.0
 11
93.80390865641851
 21
35.19179544185334
 31
0.0
  0
LINE
  5
3F6
330
18
100
AcDbEntity
  8
KEN
100
AcDbLine
 10
93.47047549096391
 20
34.54982790048163
 30
0.0
 11
93.44989328365874
 21
34.64665957268886
 31
0.0
  0
LINE
  5
3F7
330
18
100
AcDbEntity
  8
KEN
100
AcDbLine
 10
93.47047549096391
 20
34.54982790048163
 30
0.0
 11
94.35946629298603
 21
33.97251052336571
 31
0.0
  0
LINE
  5
3F8
330
18
100
AcDbEntity
  8
KEN
100
AcDbLine
 10
93.51037395763757
 20
35.38241910410864
 30
0.0
 11
95.10384803673167
 21
34.34760493758154
 31
0.0
  0
LINE
  5
3F9
330
18
100
AcDbEntity
  8
KEN
100
AcDbLine
 10
93.51037395763757
 20
35.38241910410864
 30
0.0
 11
93.43174049646739
 21
35.53674596108562
 31
0.0
  0
LINE
  5
3FA
330
18
100
AcDbEntity
  8
KEN
100
AcDbLine
 10
93.82028460045779
 20
36.13505141371721
 30
0.0
 11
93.43174049646739
 21
35.53674596108556
 31
0.0
  0
LINE
  5
3FB
330
18
100
AcDbEntity
  8
KEN
100
AcDbLine
 10
95.66535984993771
 20
34.93684553668416
 30
0.0
 11
95.27681574594732
 21
34.33854008405251
 31
0.0
  0
LINE
  5
3FC
330
18
100
AcDbEntity
  8
KEN
100
AcDbLine
 10
95.10384803673394
 20
34.34760493758006
 30
0.0
 11
95.27681574594732
 21
34.33854008405251
 31
0.0
  0
ARC
  5
3FD
330
18
100
AcDbEntity
  8
KEN
100
AcDbCircle
 10
95.4627055357144
 20
36.64447156310004
 30
0.0
 40
2.121762239272342
100
AcDbArc
 50
220.5735785965274
 51
253.4264214034725
  0
ARC
  5
3FE
330
18
100
AcDbEntity
  8
KEN
100
AcDbCircle
 10
94.33256603685988
 20
37.20560318281935
 30
0.0
 40
2.0
100
AcDbArc
 50
245.7262950894224
 51
256.0694774065162
  0
LINE
  5
3FF
330
18
100
AcDbEntity
  8
KEN
100
AcDbLine
 10
94.23961988443052
 20
35.86273189620971
 30
0.0
 11
93.85107578044022
 21
35.2644264435782
 31
0.0
  0
LINE
  5
400
330
18
100
AcDbEntity
  8
KEN
100
AcDbLine
 10
95.246024565965
 20
35.20916505419166
 30
0.0
 11
94.85748046197471
 21
34.61085960156021
 31
0.0
  0
ARC
  5
401
330
18
100
AcDbEntity
  8
KEN
100
AcDbCircle
 10
96.43499392402004
 20
35.84027054874733
 30
0.0
 40
2.0
100
AcDbArc
 50
217.9305225934839
 51
228.2737049105777
  0
ARC
  5
402
330
18
100
AcDbEntity
  8
KEN
100
AcDbCircle
 10
95.95914418535796
 20
35.10752620814128
 30
0.0
 40
2.0
100
AcDbArc
 50
65.72629508942235
 51
76.06947740651616
  0
LINE
  5
403
330
18
100
AcDbEntity
  8
KEN
100
AcDbLine
 10
96.05209033778733
 20
36.45039749475092
 30
0.0
 11
96.4406344417776
 21
37.04870294738242
 31
0.0
  0
LINE
  5
404
330
18
100
AcDbEntity
  8
KEN
100
AcDbLine
 10
95.04568565625282
 20
37.10396433676894
 30
0.0
 11
95.43422976024311
 21
37.70226978940042
 31
0.0
  0
ARC
  5
405
330
18
100
AcDbEntity
  8
KEN
100
AcDbCircle
 10
93.8567162981978
 20
36.4728588422133
 30
0.0
 40
2.0
100
AcDbArc
 50
37.93052259348383
 51
48.27370491057767
  0
ARC
  5
406
330
18
100
AcDbEntity
  8
KEN
100
AcDbCircle
 10
94.82900468650342
 20
35.66865782786059
 30
0.0
 40
2.121762239272342
100
AcDbArc
 50
40.5735785965275
 51
73.4264214034725
  0
LINE
  5
407
330
18
100
AcDbEntity
  8
KEN
100
AcDbLine
 10
96.43002570050107
 20
35.93071984311445
 30
0.0
 11
96.55529267855451
 21
36.12361407374192
 31
0.0
  0
LINE
  5
408
330
18
100
AcDbEntity
  8
KEN
100
AcDbLine
 10
96.78133626458027
 20
36.93071028685199
 30
0.0
 11
96.85996972575043
 21
36.77638342987504
 31
0.0
  0
LINE
  5
409
330
18
100
AcDbEntity
  8
KEN
100
AcDbLine
 10
96.47142562176004
 20
36.17807797724339
 30
0.0
 11
96.85996972575043
 21
36.77638342987504
 31
0.0
  0
LINE
  5
40A
330
18
100
AcDbEntity
  8
KEN
100
AcDbLine
 10
93.84125136465645
 20
36.12143543784185
 30
0.0
 11
94.00464307516092
 21
36.37303660822545
 31
0.0
  0
LINE
  5
40B
330
18
100
AcDbEntity
  8
KEN
100
AcDbLine
 10
93.82028460045779
 20
36.13505141371721
 30
0.0
 11
95.66535984993771
 21
34.93684553668413
 31
0.0
  0
LINE
  5
40C
330
18
100
AcDbEntity
  8
KEN
100
AcDbLine
 10
93.89980925416779
 20
36.44111648760236
 30
0.0
 11
95.91261861723678
 21
35.13398280356629
 31
0.0
  0
LINE
  5
40D
330
18
100
AcDbEntity
  8
KEN
100
AcDbLine
 10
94.02507623222124
 20
36.6340107182298
 30
0.0
 11
93.89980925416779
 21
36.44111648760236
 31
0.0
  0
LINE
  5
40E
330
18
100
AcDbEntity
  8
KEN
100
AcDbLine
 10
94.62635037228011
 20
37.37628385427647
 30
0.0
 11
95.01489447627051
 21
37.97458930690812
 31
0.0
  0
LINE
  5
40F
330
18
100
AcDbEntity
  8
KEN
100
AcDbLine
 10
95.18786218548388
 20
37.96552445338057
 30
0.0
 11
95.01489447627051
 21
37.97458930690812
 31
0.0
  0
LINE
  5
410
330
18
100
AcDbEntity
  8
KEN
100
AcDbLine
 10
94.41721633743208
 20
37.23785352715052
 30
0.0
 11
94.54248331548553
 21
37.43074775777797
 31
0.0
  0
LINE
  5
411
330
18
100
AcDbEntity
  8
KEN
100
AcDbLine
 10
95.18786218548388
 20
37.96552445338057
 30
0.0
 11
96.781336264578
 21
36.93071028685347
 31
0.0
  0
LINE
  5
412
330
18
100
AcDbEntity
  8
KEN
100
AcDbLine
 10
94.54248331548553
 20
37.43074775777797
 30
0.0
 11
96.55529267855451
 21
36.12361407374192
 31
0.0
  0
LINE
  5
413
330
18
100
AcDbEntity
  8
CENTER
100
AcDbLine
 10
93.61025185789134
 20
33.79194304753097
 30
0.0
 11
96.76915826097861
 21
38.65623234161441
 31
0.0
  0
LINE
  5
414
330
18
100
AcDbEntity
  8
KEN
100
AcDbLine
 10
144.0693812051893
 20
22.2427759005453
 30
0.0
 11
244.0693812051893
 21
22.2427759005453
 31
0.0
  0
LINE
  5
417
330
18
100
AcDbEntity
  8
CENTER
100
AcDbLine
 10
194.0693812051893
 20
21.2427759005453
 30
0.0
 11
194.0693812051893
 21
127.1391661832637
 31
0.0
  0
LINE
  5
41C
330
18
100
AcDbEntity
  8
KEN
100
AcDbLine
 10
144.0693812051893
 20
122.2427759005452
 30
0.0
 11
193.8193812051893
 21
122.2427759005452
 31
0.0
  0
LINE
  5
41D
330
18
100
AcDbEntity
  8
KEN
100
AcDbLine
 10
144.0693812051893
 20
83.79813931811327
 30
0.0
 11
193.8193812051893
 21
83.79813931811327
 31
0.0
  0
LINE
  5
41E
330
18
100
AcDbEntity
  8
KEN
100
AcDbLine
 10
144.0693812051893
 20
82.26769625159301
 30
0.0
 11
193.8193812051893
 21
82.26769625159301
 31
0.0
  0
LINE
  5
41F
330
18
100
AcDbEntity
  8
KEN
100
AcDbLine
 10
144.0693812051893
 20
32.27266204496129
 30
0.0
 11
193.8193812051893
 21
32.27266204496129
 31
0.0
  0
LINE
  5
420
330
18
100
AcDbEntity
  8
HASEN
100
AcDbLine
 10
186.5693812051893
 20
121.7427759005452
 30
0.0
 11
201.5693812051893
 21
121.7427759005452
 31
0.0
  0
LINE
  5
421
330
18
100
AcDbEntity
  8
HASEN
100
AcDbLine
 10
186.5693812051893
 20
114.7427759005452
 30
0.0
 11
201.5693812051893
 21
114.7427759005452
 31
0.0
  0
LINE
  5
422
330
18
100
AcDbEntity
  8
HASEN
100
AcDbLine
 10
186.5693812051893
 20
101.9227759005453
 30
0.0
 11
201.5693812051893
 21
101.9227759005453
 31
0.0
  0
LINE
  5
423
330
18
100
AcDbEntity
  8
HASEN
100
AcDbLine
 10
186.5693812051893
 20
97.24277590054526
 30
0.0
 11
201.5693812051893
 21
97.24277590054526
 31
0.0
  0
LINE
  5
424
330
18
100
AcDbEntity
  8
HASEN
100
AcDbLine
 10
186.5693812051893
 20
84.24277590054527
 30
0.0
 11
201.5693812051893
 21
84.24277590054527
 31
0.0
  0
LINE
  5
425
330
18
100
AcDbEntity
  8
HASEN
100
AcDbLine
 10
186.5693812051893
 20
51.449728442386
 30
0.0
 11
201.5693812051893
 21
51.449728442386
 31
0.0
  0
LINE
  5
426
330
18
100
AcDbEntity
  8
HASEN
100
AcDbLine
 10
186.5693812051893
 20
47.24277590054526
 30
0.0
 11
201.5693812051894
 21
47.24277590054526
 31
0.0
  0
LINE
  5
427
330
18
100
AcDbEntity
  8
HASEN
100
AcDbLine
 10
186.5693812051893
 20
37.24277590054527
 30
0.0
 11
201.5693812051893
 21
37.24277590054527
 31
0.0
  0
LINE
  5
428
330
18
100
AcDbEntity
  8
KEN
100
AcDbLine
 10
186.5693812051893
 20
82.06353630466617
 30
0.0
 11
186.5693812051893
 21
82.26769625159301
 31
0.0
  0
LINE
  5
429
330
18
100
AcDbEntity
  8
KEN
100
AcDbLine
 10
201.5693812051893
 20
82.06353630466617
 30
0.0
 11
201.5693812051894
 21
82.26769625159301
 31
0.0
  0
LINE
  5
42A
330
18
100
AcDbEntity
  8
HASEN
100
AcDbLine
 10
186.5693812051893
 20
121.7427759005452
 30
0.0
 11
186.5693812051893
 21
114.7427759005452
 31
0.0
  0
LINE
  5
42B
330
18
100
AcDbEntity
  8
HASEN
100
AcDbLine
 10
201.5693812051893
 20
121.7427759005452
 30
0.0
 11
201.5693812051893
 21
114.7427759005452
 31
0.0
  0
LINE
  5
42C
330
18
100
AcDbEntity
  8
HASEN
100
AcDbLine
 10
186.5693812051893
 20
101.9227759005453
 30
0.0
 11
186.5693812051893
 21
82.26769625159301
 31
0.0
  0
LINE
  5
42D
330
18
100
AcDbEntity
  8
HASEN
100
AcDbLine
 10
201.5693812051893
 20
101.9227759005453
 30
0.0
 11
201.5693812051893
 21
82.26769625159301
 31
0.0
  0
LINE
  5
42E
330
18
100
AcDbEntity
  8
HASEN
100
AcDbLine
 10
186.5693812051893
 20
34.53668323167295
 30
0.0
 11
201.5693812051893
 21
34.53668323167295
 31
0.0
  0
LINE
  5
42F
330
18
100
AcDbEntity
  8
HASEN
100
AcDbLine
 10
186.5693812051893
 20
51.449728442386
 30
0.0
 11
186.5693812051893
 21
34.53668323167295
 31
0.0
  0
LINE
  5
430
330
18
100
AcDbEntity
  8
HASEN
100
AcDbLine
 10
201.5693812051893
 20
51.449728442386
 30
0.0
 11
201.5693812051893
 21
34.53668323167295
 31
0.0
  0
LINE
  5
431
330
18
100
AcDbEntity
  8
KEN
100
AcDbLine
 10
186.5693812051893
 20
82.06353630466617
 30
0.0
 11
201.5693812051893
 21
82.06353630466617
 31
0.0
  0
LINE
  5
432
330
18
100
AcDbEntity
  8
CENTER
100
AcDbLine
 10
192.5693812051893
 20
118.2427759005453
 30
0.0
 11
195.5693812051893
 21
118.2427759005453
 31
0.0
  0
LINE
  5
433
330
18
100
AcDbEntity
  8
CENTER
100
AcDbLine
 10
194.0693812051893
 20
116.7427759005453
 30
0.0
 11
194.0693812051893
 21
119.7427759005453
 31
0.0
  0
LINE
  5
434
330
18
100
AcDbEntity
  8
CENTER
100
AcDbLine
 10
200.0693812051893
 20
116.7427759005453
 30
0.0
 11
200.0693812051893
 21
119.7427759005453
 31
0.0
  0
LINE
  5
435
330
18
100
AcDbEntity
  8
CENTER
100
AcDbLine
 10
198.5693812051893
 20
118.2427759005453
 30
0.0
 11
201.5693812051893
 21
118.2427759005453
 31
0.0
  0
LINE
  5
436
330
18
100
AcDbEntity
  8
CENTER
100
AcDbLine
 10
198.5693812051893
 20
99.78034723293143
 30
0.0
 11
201.5693812051893
 21
99.78034723293143
 31
0.0
  0
LINE
  5
437
330
18
100
AcDbEntity
  8
CENTER
100
AcDbLine
 10
200.0693812051893
 20
98.28034723293143
 30
0.0
 11
200.0693812051893
 21
101.2803472329314
 31
0.0
  0
LINE
  5
438
330
18
100
AcDbEntity
  8
CENTER
100
AcDbLine
 10
194.0693812051893
 20
89.24277590054527
 30
0.0
 11
194.0693812051893
 21
92.24277590054526
 31
0.0
  0
LINE
  5
439
330
18
100
AcDbEntity
  8
CENTER
100
AcDbLine
 10
192.5693812051893
 20
90.74277590054526
 30
0.0
 11
195.5693812051893
 21
90.74277590054526
 31
0.0
  0
LINE
  5
43A
330
18
100
AcDbEntity
  8
CENTER
100
AcDbLine
 10
200.0693812051893
 20
82.25162238205587
 30
0.0
 11
200.0693812051893
 21
85.25162238205586
 31
0.0
  0
LINE
  5
43B
330
18
100
AcDbEntity
  8
CENTER
100
AcDbLine
 10
198.5693812051893
 20
83.75162238205588
 30
0.0
 11
201.5693812051893
 21
83.75162238205588
 31
0.0
  0
LINE
  5
43C
330
18
100
AcDbEntity
  8
CENTER
100
AcDbLine
 10
200.0693812051893
 20
48.4437147986535
 30
0.0
 11
200.0693812051893
 21
51.4437147986535
 31
0.0
  0
LINE
  5
43D
330
18
100
AcDbEntity
  8
CENTER
100
AcDbLine
 10
198.5693812051893
 20
49.9437147986535
 30
0.0
 11
201.5693812051893
 21
49.9437147986535
 31
0.0
  0
LINE
  5
43E
330
18
100
AcDbEntity
  8
CENTER
100
AcDbLine
 10
188.0693812051893
 20
48.4437147986535
 30
0.0
 11
188.0693812051893
 21
51.4437147986535
 31
0.0
  0
LINE
  5
43F
330
18
100
AcDbEntity
  8
CENTER
100
AcDbLine
 10
186.5693812051893
 20
49.9437147986535
 30
0.0
 11
189.5693812051893
 21
49.9437147986535
 31
0.0
  0
LINE
  5
440
330
18
100
AcDbEntity
  8
CENTER
100
AcDbLine
 10
192.5693812051893
 20
42.24277590054526
 30
0.0
 11
195.5693812051893
 21
42.24277590054526
 31
0.0
  0
LINE
  5
441
330
18
100
AcDbEntity
  8
CENTER
100
AcDbLine
 10
194.0693812051893
 20
40.74277590054527
 30
0.0
 11
194.0693812051893
 21
43.74277590054527
 31
0.0
  0
LINE
  5
442
330
18
100
AcDbEntity
  8
CENTER
100
AcDbLine
 10
200.0693812051893
 20
35.08428668513247
 30
0.0
 11
200.0693812051893
 21
38.08428668513247
 31
0.0
  0
LINE
  5
443
330
18
100
AcDbEntity
  8
CENTER
100
AcDbLine
 10
198.5693812051893
 20
36.58428668513247
 30
0.0
 11
201.5693812051893
 21
36.58428668513247
 31
0.0
  0
LINE
  5
444
330
18
100
AcDbEntity
  8
CENTER
100
AcDbLine
 10
188.0693812051893
 20
35.08428668513247
 30
0.0
 11
188.0693812051893
 21
38.08428668513247
 31
0.0
  0
LINE
  5
445
330
18
100
AcDbEntity
  8
CENTER
100
AcDbLine
 10
186.5693812051893
 20
36.58428668513247
 30
0.0
 11
189.5693812051893
 21
36.58428668513247
 31
0.0
  0
LINE
  5
448
330
18
100
AcDbEntity
  8
SUNPOU
100
AcDbLine
 10
244.0693812051893
 20
80.72649625871179
 30
0.0
 11
240.0846024128223
 21
80.37787328772116
 31
0.0
  0
LINE
  5
449
330
18
100
AcDbEntity
  8
SUNPOU
100
AcDbLine
 10
240.0846024128223
 20
80.37787328772116
 30
0.0
 11
248.0541599975563
 21
79.68062734573988
 31
0.0
  0
LINE
  5
44A
330
18
100
AcDbEntity
  8
SUNPOU
100
AcDbLine
 10
248.0541599975563
 20
79.68062734573988
 30
0.0
 11
244.0693812051893
 21
79.33200437474926
 31
0.0
  0
LINE
  5
44B
330
18
100
AcDbEntity
  8
SUNPOU
100
AcDbLine
 10
244.0693812051893
 20
80.72649625871179
 30
0.0
 11
244.0693812051893
 21
127.1391661832637
 31
0.0
  0
LINE
  5
44C
330
18
100
AcDbEntity
  8
SUNPOU
100
AcDbLine
 10
244.0693812051893
 20
79.33200437474926
 30
0.0
 11
244.0693812051893
 21
21.24277590054527
 31
0.0
  0
LINE
  5
44D
330
18
100
AcDbEntity
  8
SUNPOU
100
AcDbLine
 10
144.0693812051893
 20
79.33200437474926
 30
0.0
 11
144.0693812051893
 21
21.2427759005453
 31
0.0
  0
LINE
  5
44E
330
18
100
AcDbEntity
  8
SUNPOU
100
AcDbLine
 10
144.0693812051893
 20
80.72649625871179
 30
0.0
 11
144.0693812051893
 21
127.1391661832637
 31
0.0
  0
LINE
  5
44F
330
18
100
AcDbEntity
  8
SUNPOU
100
AcDbLine
 10
148.0541599975562
 20
79.6806273457399
 30
0.0
 11
144.0693812051893
 21
79.33200437474926
 31
0.0
  0
LINE
  5
450
330
18
100
AcDbEntity
  8
SUNPOU
100
AcDbLine
 10
140.0846024128223
 20
80.37787328772116
 30
0.0
 11
148.0541599975562
 21
79.6806273457399
 31
0.0
  0
LINE
  5
451
330
18
100
AcDbEntity
  8
SUNPOU
100
AcDbLine
 10
144.0693812051893
 20
80.72649625871179
 30
0.0
 11
140.0846024128223
 21
80.37787328772116
 31
0.0
  0
LWPOLYLINE
  5
452
330
18
100
AcDbEntity
  8
KEN
100
AcDbPolyline
 90
        6
 70
     1
 43
0.0
 10
199.1193812051893
 20
118.7912586562754
 10
199.1193812051893
 20
117.6942931448151
 10
200.0693812051894
 20
117.145810389085
 10
201.0193812051893
 20
117.6942931448151
 10
201.0193812051893
 20
118.7912586562754
 10
200.0693812051893
 20
119.3397414120055
  0
LINE
  5
45A
330
18
100
AcDbEntity
  8
KEN
100
AcDbLine
 10
199.1193812051893
 20
100.6275000374575
 30
0.0
 11
199.1193812051893
 21
99.33846284441791
 31
0.0
  0
LINE
  5
45B
330
18
100
AcDbEntity
  8
KEN
100
AcDbLine
 10
199.1193812051893
 20
99.33846284441797
 30
0.0
 11
200.0693812051893
 21
98.7899800886878
 31
0.0
  0
LINE
  5
45C
330
18
100
AcDbEntity
  8
KEN
100
AcDbLine
 10
200.0693812051893
 20
98.7899800886878
 30
0.0
 11
201.0193812051893
 21
99.33846284441797
 31
0.0
  0
LINE
  5
45D
330
18
100
AcDbEntity
  8
KEN
100
AcDbLine
 10
201.0193812051893
 20
99.33846284441797
 30
0.0
 11
201.0193812051894
 21
100.6275000374575
 31
0.0
  0
LINE
  5
45E
330
18
100
AcDbEntity
  8
KEN
100
AcDbLine
 10
200.0693812051893
 20
83.45716433290567
 30
0.0
 11
201.0193812051894
 21
83.61300262745237
 31
0.0
  0
LINE
  5
45F
330
18
100
AcDbEntity
  8
KEN
100
AcDbLine
 10
200.0693812051893
 20
83.45716433290567
 30
0.0
 11
199.1193812051893
 21
83.61300262745237
 31
0.0
  0
LINE
  5
460
330
18
100
AcDbEntity
  8
KEN
100
AcDbLine
 10
200.0693812051893
 20
83.96503805169317
 30
0.0
 11
201.0193812051894
 21
84.12087634623986
 31
0.0
  0
LINE
  5
461
330
18
100
AcDbEntity
  8
KEN
100
AcDbLine
 10
200.0693812051893
 20
83.96503805169317
 30
0.0
 11
199.1193812051893
 21
84.12087634623986
 31
0.0
  0
LINE
  5
462
330
18
100
AcDbEntity
  8
KEN
100
AcDbLine
 10
200.0693812051893
 20
85.10065007672332
 30
0.0
 11
201.0193812051894
 21
84.94481178217666
 31
0.0
  0
LINE
  5
463
330
18
100
AcDbEntity
  8
KEN
100
AcDbLine
 10
200.0693812051893
 20
85.10065007672332
 30
0.0
 11
199.1193812051893
 21
84.94481178217666
 31
0.0
  0
LINE
  5
464
330
18
100
AcDbEntity
  8
KEN
100
AcDbLine
 10
199.1193812051893
 20
84.94481178217666
 30
0.0
 11
199.1193812051893
 21
83.61300262745237
 31
0.0
  0
LINE
  5
465
330
18
100
AcDbEntity
  8
KEN
100
AcDbLine
 10
201.0193812051893
 20
83.61300262745237
 30
0.0
 11
201.0193812051893
 21
84.94481178217666
 31
0.0
  0
LINE
  5
466
330
18
100
AcDbEntity
  8
KEN
100
AcDbLine
 10
200.0693812051894
 20
83.96503805169317
 30
0.0
 11
200.0693812051893
 21
83.4571643329057
 31
0.0
  0
LINE
  5
467
330
18
100
AcDbEntity
  8
KEN
100
AcDbLine
 10
200.0742738079477
 20
99.09147488300334
 30
0.0
 11
201.0242738079477
 21
99.63995763873345
 31
0.0
  0
LINE
  5
468
330
18
100
AcDbEntity
  8
KEN
100
AcDbLine
 10
199.1242738079477
 20
99.63995763873345
 30
0.0
 11
200.0742738079477
 21
99.09147488300334
 31
0.0
  0
LINE
  5
469
330
18
100
AcDbEntity
  8
KEN
100
AcDbLine
 10
201.0193812051893
 20
100.6275000374575
 30
0.0
 11
200.0693812051893
 21
101.1759827931876
 31
0.0
  0
LINE
  5
46A
330
18
100
AcDbEntity
  8
KEN
100
AcDbLine
 10
200.0693812051893
 20
101.1759827931876
 30
0.0
 11
199.1193812051893
 21
100.6275000374575
 31
0.0
  0
LWPOLYLINE
  5
46B
330
18
100
AcDbEntity
  8
KEN
100
AcDbPolyline
 90
        6
 70
     1
 43
0.0
 10
189.0193812051893
 20
118.7912586562754
 10
189.0193812051893
 20
117.6942931448151
 10
188.0693812051893
 20
117.145810389085
 10
187.1193812051893
 20
117.6942931448151
 10
187.1193812051893
 20
118.7912586562754
 10
188.0693812051893
 20
119.3397414120055
  0
LINE
  5
473
330
18
100
AcDbEntity
  8
CENTER
100
AcDbLine
 10
189.5693812051893
 20
118.2427759005453
 30
0.0
 11
186.5693812051893
 21
118.2427759005453
 31
0.0
  0
LINE
  5
474
330
18
100
AcDbEntity
  8
CENTER
100
AcDbLine
 10
188.0693812051893
 20
116.7427759005453
 30
0.0
 11
188.0693812051893
 21
119.7427759005453
 31
0.0
  0
LINE
  5
475
330
18
100
AcDbEntity
  8
KEN
100
AcDbLine
 10
188.0693812051893
 20
101.1759827931876
 30
0.0
 11
189.0193812051893
 21
100.6275000374575
 31
0.0
  0
LINE
  5
476
330
18
100
AcDbEntity
  8
KEN
100
AcDbLine
 10
187.1193812051893
 20
100.6275000374575
 30
0.0
 11
188.0693812051893
 21
101.1759827931876
 31
0.0
  0
LINE
  5
477
330
18
100
AcDbEntity
  8
KEN
100
AcDbLine
 10
189.0144886024309
 20
99.63995763873345
 30
0.0
 11
188.0644886024309
 21
99.09147488300334
 31
0.0
  0
LINE
  5
478
330
18
100
AcDbEntity
  8
KEN
100
AcDbLine
 10
188.0644886024309
 20
99.09147488300334
 30
0.0
 11
187.1144886024309
 21
99.63995763873345
 31
0.0
  0
LINE
  5
479
330
18
100
AcDbEntity
  8
KEN
100
AcDbLine
 10
187.1193812051893
 20
99.33846284441797
 30
0.0
 11
187.1193812051893
 21
100.6275000374575
 31
0.0
  0
LINE
  5
47A
330
18
100
AcDbEntity
  8
KEN
100
AcDbLine
 10
188.0693812051893
 20
98.7899800886878
 30
0.0
 11
187.1193812051894
 21
99.33846284441797
 31
0.0
  0
LINE
  5
47B
330
18
100
AcDbEntity
  8
KEN
100
AcDbLine
 10
189.0193812051894
 20
99.33846284441797
 30
0.0
 11
188.0693812051893
 21
98.7899800886878
 31
0.0
  0
LINE
  5
47C
330
18
100
AcDbEntity
  8
KEN
100
AcDbLine
 10
189.0193812051893
 20
100.6275000374575
 30
0.0
 11
189.0193812051893
 21
99.33846284441791
 31
0.0
  0
LINE
  5
47D
330
18
100
AcDbEntity
  8
CENTER
100
AcDbLine
 10
188.0693812051893
 20
98.28034723293143
 30
0.0
 11
188.0693812051893
 21
101.2803472329314
 31
0.0
  0
LINE
  5
47E
330
18
100
AcDbEntity
  8
CENTER
100
AcDbLine
 10
189.5693812051893
 20
99.78034723293143
 30
0.0
 11
186.5693812051893
 21
99.78034723293143
 31
0.0
  0
LINE
  5
47F
330
18
100
AcDbEntity
  8
KEN
100
AcDbLine
 10
188.0693812051893
 20
83.96503805169317
 30
0.0
 11
188.0693812051893
 21
83.4571643329057
 31
0.0
  0
LINE
  5
480
330
18
100
AcDbEntity
  8
KEN
100
AcDbLine
 10
187.1193812051893
 20
83.61300262745237
 30
0.0
 11
187.1193812051893
 21
84.94481178217666
 31
0.0
  0
LINE
  5
481
330
18
100
AcDbEntity
  8
KEN
100
AcDbLine
 10
189.0193812051893
 20
84.94481178217666
 30
0.0
 11
189.0193812051893
 21
83.61300262745237
 31
0.0
  0
LINE
  5
482
330
18
100
AcDbEntity
  8
KEN
100
AcDbLine
 10
188.0693812051893
 20
85.10065007672332
 30
0.0
 11
189.0193812051894
 21
84.94481178217666
 31
0.0
  0
LINE
  5
483
330
18
100
AcDbEntity
  8
KEN
100
AcDbLine
 10
188.0693812051893
 20
85.10065007672332
 30
0.0
 11
187.1193812051893
 21
84.94481178217666
 31
0.0
  0
LINE
  5
484
330
18
100
AcDbEntity
  8
KEN
100
AcDbLine
 10
188.0693812051893
 20
83.96503805169317
 30
0.0
 11
189.0193812051894
 21
84.12087634623986
 31
0.0
  0
LINE
  5
485
330
18
100
AcDbEntity
  8
KEN
100
AcDbLine
 10
188.0693812051893
 20
83.96503805169317
 30
0.0
 11
187.1193812051893
 21
84.12087634623986
 31
0.0
  0
LINE
  5
486
330
18
100
AcDbEntity
  8
KEN
100
AcDbLine
 10
188.0693812051893
 20
83.45716433290567
 30
0.0
 11
189.0193812051894
 21
83.61300262745237
 31
0.0
  0
LINE
  5
487
330
18
100
AcDbEntity
  8
KEN
100
AcDbLine
 10
188.0693812051893
 20
83.45716433290567
 30
0.0
 11
187.1193812051893
 21
83.61300262745237
 31
0.0
  0
LINE
  5
488
330
18
100
AcDbEntity
  8
CENTER
100
AcDbLine
 10
188.0693812051893
 20
82.25162238205587
 30
0.0
 11
188.0693812051893
 21
85.25162238205586
 31
0.0
  0
LINE
  5
489
330
18
100
AcDbEntity
  8
CENTER
100
AcDbLine
 10
189.5693812051893
 20
83.75162238205588
 30
0.0
 11
186.5693812051893
 21
83.75162238205588
 31
0.0
  0
LINE
  5
48A
330
18
100
AcDbEntity
  8
KEN
100
AcDbLine
 10
188.0693812051893
 20
83.96503805169317
 30
0.0
 11
188.0693812051893
 21
83.45716433290567
 31
0.0
  0
LINE
  5
48B
330
18
100
AcDbEntity
  8
KEN
100
AcDbLine
 10
200.0693812051893
 20
99.09429962852295
 30
0.0
 11
200.0693812051893
 21
98.78998008868784
 31
0.0
  0
LINE
  5
48C
330
18
100
AcDbEntity
  8
KEN
100
AcDbLine
 10
188.0693812051893
 20
99.09429962852293
 30
0.0
 11
188.0693812051894
 21
98.78998008868784
 31
0.0
  0
LINE
  5
493
330
18
100
AcDbEntity
  8
SUNPOU
100
AcDbLine
 10
240.9238658802055
 20
183.9920868641081
 30
0.0
 11
240.9238658802054
 21
162.3284233045854
 31
0.0
  0
LINE
  5
494
330
18
100
AcDbEntity
  8
SUNPOU
100
AcDbLine
 10
240.9238658802055
 20
185.3865787480706
 30
0.0
 11
240.9238658802055
 21
219.9370032038049
 31
0.0
  0
LINE
  5
495
330
18
100
AcDbEntity
  8
SUNPOU
100
AcDbLine
 10
244.9086446725725
 20
184.3407098350987
 30
0.0
 11
240.9238658802054
 21
183.9920868641081
 31
0.0
  0
LINE
  5
496
330
18
100
AcDbEntity
  8
SUNPOU
100
AcDbLine
 10
236.9390870878385
 20
185.03795577708
 30
0.0
 11
244.9086446725725
 21
184.3407098350987
 31
0.0
  0
LINE
  5
497
330
18
100
AcDbEntity
  8
SUNPOU
100
AcDbLine
 10
240.9238658802054
 20
185.3865787480706
 30
0.0
 11
236.9390870878385
 21
185.03795577708
 31
0.0
  0
LINE
  5
498
330
18
100
AcDbEntity
  8
KEN
100
AcDbLine
 10
194.3193812051893
 20
122.2427759005452
 30
0.0
 11
194.3193812051893
 21
82.26769625159301
 31
0.0
  0
LINE
  5
499
330
18
100
AcDbEntity
  8
KEN
100
AcDbLine
 10
193.8193812051893
 20
122.2427759005452
 30
0.0
 11
193.8193812051893
 21
82.26769625159301
 31
0.0
  0
LINE
  5
49A
330
18
100
AcDbEntity
  8
KEN
100
AcDbLine
 10
194.3193812051893
 20
122.2427759005452
 30
0.0
 11
244.0693812051893
 21
122.2427759005452
 31
0.0
  0
LINE
  5
49B
330
18
100
AcDbEntity
  8
KEN
100
AcDbLine
 10
193.8193812051893
 20
121.7427759005452
 30
0.0
 11
194.3193812051893
 21
121.7427759005452
 31
0.0
  0
LINE
  5
49C
330
18
100
AcDbEntity
  8
KEN
100
AcDbLine
 10
193.8193812051893
 20
114.7427759005452
 30
0.0
 11
194.3193812051893
 21
114.7427759005452
 31
0.0
  0
LINE
  5
49D
330
18
100
AcDbEntity
  8
KEN
100
AcDbLine
 10
193.8193812051893
 20
101.9227759005453
 30
0.0
 11
194.3193812051893
 21
101.9227759005453
 31
0.0
  0
LINE
  5
49E
330
18
100
AcDbEntity
  8
KEN
100
AcDbLine
 10
193.8193812051893
 20
97.24277590054526
 30
0.0
 11
194.3193812051893
 21
97.24277590054526
 31
0.0
  0
LINE
  5
49F
330
18
100
AcDbEntity
  8
KEN
100
AcDbLine
 10
193.8193812051893
 20
84.24277590054527
 30
0.0
 11
194.3193812051893
 21
84.24277590054527
 31
0.0
  0
LINE
  5
4A0
330
18
100
AcDbEntity
  8
KEN
100
AcDbLine
 10
194.3193812051893
 20
32.27266204496129
 30
0.0
 11
244.0693812051893
 21
32.27266204496129
 31
0.0
  0
LINE
  5
4A1
330
18
100
AcDbEntity
  8
KEN
100
AcDbLine
 10
193.8193812051893
 20
51.449728442386
 30
0.0
 11
194.3193812051893
 21
51.449728442386
 31
0.0
  0
LINE
  5
4A2
330
18
100
AcDbEntity
  8
KEN
100
AcDbLine
 10
193.8193812051893
 20
47.24277590054526
 30
0.0
 11
194.3193812051893
 21
47.24277590054526
 31
0.0
  0
LINE
  5
4A3
330
18
100
AcDbEntity
  8
KEN
100
AcDbLine
 10
193.8193812051893
 20
37.24277590054527
 30
0.0
 11
194.3193812051893
 21
37.24277590054527
 31
0.0
  0
LINE
  5
4A4
330
18
100
AcDbEntity
  8
KEN
100
AcDbLine
 10
193.8193812051893
 20
34.53668323167295
 30
0.0
 11
194.3193812051893
 21
34.53668323167295
 31
0.0
  0
LINE
  5
4A5
330
18
100
AcDbEntity
  8
KEN
100
AcDbLine
 10
194.3193812051893
 20
83.79813931811325
 30
0.0
 11
244.0693812051893
 21
83.79813931811325
 31
0.0
  0
LINE
  5
4A6
330
18
100
AcDbEntity
  8
KEN
100
AcDbLine
 10
193.8193812051893
 20
82.06353630466617
 30
0.0
 11
193.8193812051893
 21
29.86418976287857
 31
0.0
  0
LINE
  5
4A7
330
18
100
AcDbEntity
  8
KEN
100
AcDbLine
 10
194.3193812051893
 20
82.06353630466617
 30
0.0
 11
194.3193812051893
 21
29.86418976287857
 31
0.0
  0
LINE
  5
4A8
330
18
100
AcDbEntity
  8
KEN
100
AcDbLine
 10
194.3193812051893
 20
82.26769625159301
 30
0.0
 11
244.0693812051893
 21
82.26769625159301
 31
0.0
  0
LINE
  5
4A9
330
18
100
AcDbEntity
  8
KEN
100
AcDbLine
 10
240.9238658802054
 20
215.9176795065857
 30
0.0
 11
26.78229955375235
 21
215.9176795065856
 31
0.0
  0
LINE
  5
4AA
330
18
100
AcDbEntity
  8
KEN
100
AcDbLine
 10
240.9238658802055
 20
196.1148545065859
 30
0.0
 11
24.28229955375235
 21
196.1148545065859
 31
0.0
  0
LINE
  5
4AB
330
18
100
AcDbEntity
  8
KEN
100
AcDbLine
 10
240.9238658802055
 20
170.9326225787937
 30
0.0
 11
24.28229955375235
 21
170.9326225787937
 31
0.0
  0
LINE
  5
4AC
330
18
100
AcDbEntity
  8
KEN
100
AcDbLine
 10
234.2822995537523
 20
215.9176795065857
 30
0.0
 11
234.2822995537523
 21
170.9326225787937
 31
0.0
  0
LINE
  5
4AF
330
18
100
AcDbEntity
  8
CENTER
100
AcDbLine
 10
231.2822995537524
 20
213.1676795065857
 30
0.0
 11
231.2822995537524
 21
214.6676795065857
 31
0.0
  0
LINE
  5
4B0
330
18
100
AcDbEntity
  8
CENTER
100
AcDbLine
 10
232.0322995537523
 20
213.9176795065857
 30
0.0
 11
230.5322995537523
 21
213.9176795065857
 31
0.0
  0
LINE
  5
4B1
330
18
100
AcDbEntity
  8
CENTER
100
AcDbLine
 10
236.5322995537523
 20
213.9176795065857
 30
0.0
 11
238.0322995537524
 21
213.9176795065857
 31
0.0
  0
LINE
  5
4B2
330
18
100
AcDbEntity
  8
CENTER
100
AcDbLine
 10
237.2822995537524
 20
213.1676795065857
 30
0.0
 11
237.2822995537524
 21
214.6676795065857
 31
0.0
  0
LINE
  5
4B3
330
18
100
AcDbEntity
  8
CENTER
100
AcDbLine
 10
234.2822995537523
 20
213.1676795065857
 30
0.0
 11
234.2822995537523
 21
214.6676795065857
 31
0.0
  0
LINE
  5
4B4
330
18
100
AcDbEntity
  8
CENTER
100
AcDbLine
 10
233.5322995537524
 20
213.9176795065857
 30
0.0
 11
235.0322995537524
 21
213.9176795065857
 31
0.0
  0
LINE
  5
4B5
330
18
100
AcDbEntity
  8
HASEN
100
AcDbLine
 10
238.0322995537524
 20
215.6676795065856
 30
0.0
 11
238.0322995537524
 21
212.1676795065856
 31
0.0
  0
LINE
  5
4B6
330
18
100
AcDbEntity
  8
HASEN
100
AcDbLine
 10
230.5322995537523
 20
215.6676795065856
 30
0.0
 11
230.5322995537523
 21
212.1676795065856
 31
0.0
  0
LINE
  5
4B7
330
18
100
AcDbEntity
  8
HASEN
100
AcDbLine
 10
230.5322995537523
 20
212.1676795065856
 30
0.0
 11
238.0322995537524
 21
212.1676795065856
 31
0.0
  0
LINE
  5
4B8
330
18
100
AcDbEntity
  8
HASEN
100
AcDbLine
 10
230.5322995537523
 20
215.6676795065857
 30
0.0
 11
238.0322995537524
 21
215.6676795065856
 31
0.0
  0
LINE
  5
4B9
330
18
100
AcDbEntity
  8
CENTER
100
AcDbLine
 10
232.0322995537523
 20
196.6721027473409
 30
0.0
 11
230.5322995537523
 21
196.6721027473409
 31
0.0
  0
LINE
  5
4BA
330
18
100
AcDbEntity
  8
CENTER
100
AcDbLine
 10
231.2822995537524
 20
195.9221027473409
 30
0.0
 11
231.2822995537524
 21
197.4221027473409
 31
0.0
  0
LINE
  5
4BB
330
18
100
AcDbEntity
  8
CENTER
100
AcDbLine
 10
232.0322995537523
 20
204.6864651727787
 30
0.0
 11
230.5322995537523
 21
204.6864651727787
 31
0.0
  0
LINE
  5
4BC
330
18
100
AcDbEntity
  8
CENTER
100
AcDbLine
 10
231.2822995537524
 20
203.9364651727787
 30
0.0
 11
231.2822995537524
 21
205.4364651727787
 31
0.0
  0
LINE
  5
4BD
330
18
100
AcDbEntity
  8
CENTER
100
AcDbLine
 10
236.5322995537523
 20
196.6721027473409
 30
0.0
 11
238.0322995537524
 21
196.6721027473409
 31
0.0
  0
LINE
  5
4BE
330
18
100
AcDbEntity
  8
CENTER
100
AcDbLine
 10
237.2822995537524
 20
195.9221027473409
 30
0.0
 11
237.2822995537524
 21
197.4221027473409
 31
0.0
  0
LINE
  5
4BF
330
18
100
AcDbEntity
  8
CENTER
100
AcDbLine
 10
237.2822995537524
 20
203.9364651727787
 30
0.0
 11
237.2822995537524
 21
205.4364651727787
 31
0.0
  0
LINE
  5
4C0
330
18
100
AcDbEntity
  8
CENTER
100
AcDbLine
 10
236.5322995537523
 20
204.6864651727787
 30
0.0
 11
238.0322995537524
 21
204.6864651727787
 31
0.0
  0
LINE
  5
4C1
330
18
100
AcDbEntity
  8
KEN
100
AcDbLine
 10
230.5322995537523
 20
195.8280597086461
 30
0.0
 11
238.0322995537524
 21
195.8280597086461
 31
0.0
  0
LINE
  5
4C2
330
18
100
AcDbEntity
  8
HASEN
100
AcDbLine
 10
238.0322995537524
 20
205.7576795065856
 30
0.0
 11
238.0322995537524
 21
195.9301396821095
 31
0.0
  0
LINE
  5
4C3
330
18
100
AcDbEntity
  8
HASEN
100
AcDbLine
 10
230.5322995537523
 20
205.7576795065856
 30
0.0
 11
230.5322995537523
 21
195.9301396821095
 31
0.0
  0
LINE
  5
4C4
330
18
100
AcDbEntity
  8
KEN
100
AcDbLine
 10
238.0322995537524
 20
195.8280597086461
 30
0.0
 11
238.0322995537524
 21
195.9301396821095
 31
0.0
  0
LINE
  5
4C5
330
18
100
AcDbEntity
  8
KEN
100
AcDbLine
 10
230.5322995537523
 20
195.8280597086461
 30
0.0
 11
230.5322995537523
 21
195.9301396821095
 31
0.0
  0
LINE
  5
4C6
330
18
100
AcDbEntity
  8
HASEN
100
AcDbLine
 10
230.5322995537523
 20
196.9176795065856
 30
0.0
 11
238.0322995537524
 21
196.9176795065856
 31
0.0
  0
LINE
  5
4C7
330
18
100
AcDbEntity
  8
HASEN
100
AcDbLine
 10
230.5322995537523
 20
203.4176795065856
 30
0.0
 11
238.0322995537524
 21
203.4176795065856
 31
0.0
  0
LINE
  5
4C8
330
18
100
AcDbEntity
  8
HASEN
100
AcDbLine
 10
230.5322995537523
 20
205.7576795065856
 30
0.0
 11
238.0322995537524
 21
205.7576795065856
 31
0.0
  0
LINE
  5
4C9
330
18
100
AcDbEntity
  8
CENTER
100
AcDbLine
 10
230.5322995537523
 20
173.0884348988792
 30
0.0
 11
232.0322995537523
 21
173.0884348988792
 31
0.0
  0
LINE
  5
4CA
330
18
100
AcDbEntity
  8
CENTER
100
AcDbLine
 10
231.2822995537524
 20
172.3384348988792
 30
0.0
 11
231.2822995537524
 21
173.8384348988792
 31
0.0
  0
LINE
  5
4CB
330
18
100
AcDbEntity
  8
CENTER
100
AcDbLine
 10
236.5322995537523
 20
173.0884348988792
 30
0.0
 11
238.0322995537524
 21
173.0884348988792
 31
0.0
  0
LINE
  5
4CC
330
18
100
AcDbEntity
  8
CENTER
100
AcDbLine
 10
237.2822995537524
 20
172.3384348988792
 30
0.0
 11
237.2822995537524
 21
173.8384348988792
 31
0.0
  0
LINE
  5
4CD
330
18
100
AcDbEntity
  8
CENTER
100
AcDbLine
 10
234.2822995537523
 20
175.1676795065856
 30
0.0
 11
234.2822995537523
 21
176.6676795065857
 31
0.0
  0
LINE
  5
4CE
330
18
100
AcDbEntity
  8
CENTER
100
AcDbLine
 10
233.5322995537524
 20
175.9176795065856
 30
0.0
 11
235.0322995537524
 21
175.9176795065856
 31
0.0
  0
LINE
  5
4CF
330
18
100
AcDbEntity
  8
CENTER
100
AcDbLine
 10
230.5322995537523
 20
179.7681489556397
 30
0.0
 11
232.0322995537523
 21
179.7681489556397
 31
0.0
  0
LINE
  5
4D0
330
18
100
AcDbEntity
  8
CENTER
100
AcDbLine
 10
231.2822995537524
 20
179.0181489556397
 30
0.0
 11
231.2822995537524
 21
180.5181489556397
 31
0.0
  0
LINE
  5
4D1
330
18
100
AcDbEntity
  8
CENTER
100
AcDbLine
 10
236.5322995537523
 20
179.7681489556397
 30
0.0
 11
238.0322995537524
 21
179.7681489556397
 31
0.0
  0
LINE
  5
4D2
330
18
100
AcDbEntity
  8
CENTER
100
AcDbLine
 10
237.2822995537524
 20
179.0181489556397
 30
0.0
 11
237.2822995537524
 21
180.5181489556397
 31
0.0
  0
LINE
  5
4D3
330
18
100
AcDbEntity
  8
HASEN
100
AcDbLine
 10
238.0322995537524
 20
180.521155777506
 30
0.0
 11
238.0322995537524
 21
172.0646331721494
 31
0.0
  0
LINE
  5
4D4
330
18
100
AcDbEntity
  8
HASEN
100
AcDbLine
 10
230.5322995537523
 20
180.521155777506
 30
0.0
 11
230.5322995537523
 21
172.0646331721494
 31
0.0
  0
LINE
  5
4D5
330
18
100
AcDbEntity
  8
HASEN
100
AcDbLine
 10
230.5322995537523
 20
172.0646331721494
 30
0.0
 11
238.0322995537524
 21
172.0646331721494
 31
0.0
  0
LINE
  5
4D6
330
18
100
AcDbEntity
  8
HASEN
100
AcDbLine
 10
230.5322995537523
 20
173.4176795065856
 30
0.0
 11
238.0322995537524
 21
173.4176795065856
 31
0.0
  0
LINE
  5
4D7
330
18
100
AcDbEntity
  8
HASEN
100
AcDbLine
 10
230.5322995537523
 20
178.4176795065856
 30
0.0
 11
238.0322995537524
 21
178.4176795065856
 31
0.0
  0
LINE
  5
4D8
330
18
100
AcDbEntity
  8
HASEN
100
AcDbLine
 10
230.5322995537523
 20
180.521155777506
 30
0.0
 11
238.0322995537524
 21
180.521155777506
 31
0.0
  0
LINE
  5
4D9
330
18
100
AcDbEntity
  8
HASEN
100
AcDbLine
 10
130.5322995537523
 20
180.521155777506
 30
0.0
 11
138.0322995537523
 21
180.521155777506
 31
0.0
  0
LINE
  5
4DA
330
18
100
AcDbEntity
  8
HASEN
100
AcDbLine
 10
130.5322995537523
 20
178.4176795065856
 30
0.0
 11
138.0322995537523
 21
178.4176795065856
 31
0.0
  0
LINE
  5
4DB
330
18
100
AcDbEntity
  8
HASEN
100
AcDbLine
 10
130.5322995537523
 20
173.4176795065856
 30
0.0
 11
138.0322995537523
 21
173.4176795065856
 31
0.0
  0
LINE
  5
4DC
330
18
100
AcDbEntity
  8
HASEN
100
AcDbLine
 10
130.5322995537523
 20
172.0646331721494
 30
0.0
 11
138.0322995537523
 21
172.0646331721494
 31
0.0
  0
LINE
  5
4DD
330
18
100
AcDbEntity
  8
HASEN
100
AcDbLine
 10
130.5322995537523
 20
180.521155777506
 30
0.0
 11
130.5322995537523
 21
172.0646331721494
 31
0.0
  0
LINE
  5
4DE
330
18
100
AcDbEntity
  8
HASEN
100
AcDbLine
 10
138.0322995537523
 20
180.521155777506
 30
0.0
 11
138.0322995537523
 21
172.0646331721494
 31
0.0
  0
LINE
  5
4DF
330
18
100
AcDbEntity
  8
CENTER
100
AcDbLine
 10
137.2822995537523
 20
179.0181489556397
 30
0.0
 11
137.2822995537523
 21
180.5181489556397
 31
0.0
  0
LINE
  5
4E0
330
18
100
AcDbEntity
  8
CENTER
100
AcDbLine
 10
136.5322995537523
 20
179.7681489556397
 30
0.0
 11
138.0322995537523
 21
179.7681489556397
 31
0.0
  0
LINE
  5
4E1
330
18
100
AcDbEntity
  8
CENTER
100
AcDbLine
 10
131.2822995537523
 20
179.0181489556397
 30
0.0
 11
131.2822995537523
 21
180.5181489556397
 31
0.0
  0
LINE
  5
4E2
330
18
100
AcDbEntity
  8
CENTER
100
AcDbLine
 10
130.5322995537523
 20
179.7681489556397
 30
0.0
 11
132.0322995537523
 21
179.7681489556397
 31
0.0
  0
LINE
  5
4E3
330
18
100
AcDbEntity
  8
CENTER
100
AcDbLine
 10
133.5322995537523
 20
175.9176795065856
 30
0.0
 11
135.0322995537523
 21
175.9176795065856
 31
0.0
  0
LINE
  5
4E4
330
18
100
AcDbEntity
  8
CENTER
100
AcDbLine
 10
134.2822995537523
 20
175.1676795065856
 30
0.0
 11
134.2822995537523
 21
176.6676795065857
 31
0.0
  0
LINE
  5
4E5
330
18
100
AcDbEntity
  8
CENTER
100
AcDbLine
 10
137.2822995537523
 20
172.3384348988792
 30
0.0
 11
137.2822995537523
 21
173.8384348988792
 31
0.0
  0
LINE
  5
4E6
330
18
100
AcDbEntity
  8
CENTER
100
AcDbLine
 10
136.5322995537523
 20
173.0884348988792
 30
0.0
 11
138.0322995537523
 21
173.0884348988792
 31
0.0
  0
LINE
  5
4E7
330
18
100
AcDbEntity
  8
CENTER
100
AcDbLine
 10
131.2822995537523
 20
172.3384348988792
 30
0.0
 11
131.2822995537523
 21
173.8384348988792
 31
0.0
  0
LINE
  5
4E8
330
18
100
AcDbEntity
  8
CENTER
100
AcDbLine
 10
130.5322995537523
 20
173.0884348988792
 30
0.0
 11
132.0322995537523
 21
173.0884348988792
 31
0.0
  0
LINE
  5
4E9
330
18
100
AcDbEntity
  8
HASEN
100
AcDbLine
 10
130.5322995537523
 20
205.7576795065856
 30
0.0
 11
138.0322995537523
 21
205.7576795065856
 31
0.0
  0
LINE
  5
4EA
330
18
100
AcDbEntity
  8
HASEN
100
AcDbLine
 10
130.5322995537523
 20
203.4176795065856
 30
0.0
 11
138.0322995537523
 21
203.4176795065856
 31
0.0
  0
LINE
  5
4EB
330
18
100
AcDbEntity
  8
HASEN
100
AcDbLine
 10
130.5322995537523
 20
196.9176795065856
 30
0.0
 11
138.0322995537523
 21
196.9176795065856
 31
0.0
  0
LINE
  5
4EC
330
18
100
AcDbEntity
  8
KEN
100
AcDbLine
 10
130.5322995537523
 20
195.8280597086461
 30
0.0
 11
130.5322995537523
 21
195.9301396821095
 31
0.0
  0
LINE
  5
4ED
330
18
100
AcDbEntity
  8
KEN
100
AcDbLine
 10
138.0322995537523
 20
195.8280597086461
 30
0.0
 11
138.0322995537523
 21
195.9301396821095
 31
0.0
  0
LINE
  5
4EE
330
18
100
AcDbEntity
  8
HASEN
100
AcDbLine
 10
130.5322995537523
 20
205.7576795065856
 30
0.0
 11
130.5322995537523
 21
195.9301396821095
 31
0.0
  0
LINE
  5
4EF
330
18
100
AcDbEntity
  8
HASEN
100
AcDbLine
 10
138.0322995537523
 20
205.7576795065856
 30
0.0
 11
138.0322995537523
 21
195.9301396821095
 31
0.0
  0
LINE
  5
4F0
330
18
100
AcDbEntity
  8
KEN
100
AcDbLine
 10
130.5322995537523
 20
195.8280597086461
 30
0.0
 11
138.0322995537523
 21
195.8280597086461
 31
0.0
  0
LINE
  5
4F1
330
18
100
AcDbEntity
  8
CENTER
100
AcDbLine
 10
136.5322995537523
 20
204.6864651727787
 30
0.0
 11
138.0322995537523
 21
204.6864651727787
 31
0.0
  0
LINE
  5
4F2
330
18
100
AcDbEntity
  8
CENTER
100
AcDbLine
 10
137.2822995537523
 20
203.9364651727787
 30
0.0
 11
137.2822995537523
 21
205.4364651727787
 31
0.0
  0
LINE
  5
4F3
330
18
100
AcDbEntity
  8
CENTER
100
AcDbLine
 10
137.2822995537523
 20
195.9221027473409
 30
0.0
 11
137.2822995537523
 21
197.4221027473409
 31
0.0
  0
LINE
  5
4F4
330
18
100
AcDbEntity
  8
CENTER
100
AcDbLine
 10
136.5322995537523
 20
196.6721027473409
 30
0.0
 11
138.0322995537523
 21
196.6721027473409
 31
0.0
  0
LINE
  5
4F5
330
18
100
AcDbEntity
  8
CENTER
100
AcDbLine
 10
131.2822995537523
 20
203.9364651727787
 30
0.0
 11
131.2822995537523
 21
205.4364651727787
 31
0.0
  0
LINE
  5
4F6
330
18
100
AcDbEntity
  8
CENTER
100
AcDbLine
 10
132.0322995537523
 20
204.6864651727787
 30
0.0
 11
130.5322995537523
 21
204.6864651727787
 31
0.0
  0
LINE
  5
4F7
330
18
100
AcDbEntity
  8
CENTER
100
AcDbLine
 10
131.2822995537523
 20
195.9221027473409
 30
0.0
 11
131.2822995537523
 21
197.4221027473409
 31
0.0
  0
LINE
  5
4F8
330
18
100
AcDbEntity
  8
CENTER
100
AcDbLine
 10
132.0322995537523
 20
196.6721027473409
 30
0.0
 11
130.5322995537523
 21
196.6721027473409
 31
0.0
  0
LINE
  5
4F9
330
18
100
AcDbEntity
  8
HASEN
100
AcDbLine
 10
130.5322995537523
 20
215.6676795065857
 30
0.0
 11
138.0322995537523
 21
215.6676795065856
 31
0.0
  0
LINE
  5
4FA
330
18
100
AcDbEntity
  8
HASEN
100
AcDbLine
 10
130.5322995537523
 20
212.1676795065856
 30
0.0
 11
138.0322995537523
 21
212.1676795065856
 31
0.0
  0
LINE
  5
4FB
330
18
100
AcDbEntity
  8
HASEN
100
AcDbLine
 10
130.5322995537523
 20
215.6676795065856
 30
0.0
 11
130.5322995537523
 21
212.1676795065856
 31
0.0
  0
LINE
  5
4FC
330
18
100
AcDbEntity
  8
HASEN
100
AcDbLine
 10
138.0322995537523
 20
215.6676795065856
 30
0.0
 11
138.0322995537523
 21
212.1676795065856
 31
0.0
  0
LINE
  5
4FD
330
18
100
AcDbEntity
  8
CENTER
100
AcDbLine
 10
133.5322995537523
 20
213.9176795065857
 30
0.0
 11
135.0322995537523
 21
213.9176795065857
 31
0.0
  0
LINE
  5
4FE
330
18
100
AcDbEntity
  8
CENTER
100
AcDbLine
 10
134.2822995537523
 20
213.1676795065857
 30
0.0
 11
134.2822995537523
 21
214.6676795065857
 31
0.0
  0
LINE
  5
4FF
330
18
100
AcDbEntity
  8
CENTER
100
AcDbLine
 10
137.2822995537523
 20
213.1676795065857
 30
0.0
 11
137.2822995537523
 21
214.6676795065857
 31
0.0
  0
LINE
  5
500
330
18
100
AcDbEntity
  8
CENTER
100
AcDbLine
 10
136.5322995537523
 20
213.9176795065857
 30
0.0
 11
138.0322995537523
 21
213.9176795065857
 31
0.0
  0
LINE
  5
501
330
18
100
AcDbEntity
  8
CENTER
100
AcDbLine
 10
132.0322995537523
 20
213.9176795065857
 30
0.0
 11
130.5322995537523
 21
213.9176795065857
 31
0.0
  0
LINE
  5
502
330
18
100
AcDbEntity
  8
CENTER
100
AcDbLine
 10
131.2822995537523
 20
213.1676795065857
 30
0.0
 11
131.2822995537523
 21
214.6676795065857
 31
0.0
  0
LINE
  5
503
330
18
100
AcDbEntity
  8
KEN
100
AcDbLine
 10
134.2822995537523
 20
215.9176795065857
 30
0.0
 11
134.2822995537523
 21
170.9326225787937
 31
0.0
  0
LINE
  5
510
330
18
100
AcDbEntity
  8
CENTER
100
AcDbLine
 10
31.28229955375235
 20
213.1676795065857
 30
0.0
 11
31.28229955375235
 21
214.6676795065857
 31
0.0
  0
LINE
  5
511
330
18
100
AcDbEntity
  8
CENTER
100
AcDbLine
 10
32.03229955375235
 20
213.9176795065857
 30
0.0
 11
30.53229955375235
 21
213.9176795065857
 31
0.0
  0
LINE
  5
512
330
18
100
AcDbEntity
  8
CENTER
100
AcDbLine
 10
36.53229955375235
 20
213.9176795065857
 30
0.0
 11
38.03229955375235
 21
213.9176795065857
 31
0.0
  0
LINE
  5
513
330
18
100
AcDbEntity
  8
CENTER
100
AcDbLine
 10
37.28229955375236
 20
213.1676795065857
 30
0.0
 11
37.28229955375236
 21
214.6676795065857
 31
0.0
  0
LINE
  5
514
330
18
100
AcDbEntity
  8
CENTER
100
AcDbLine
 10
34.28229955375235
 20
213.1676795065857
 30
0.0
 11
34.28229955375235
 21
214.6676795065857
 31
0.0
  0
LINE
  5
515
330
18
100
AcDbEntity
  8
CENTER
100
AcDbLine
 10
33.53229955375236
 20
213.9176795065857
 30
0.0
 11
35.03229955375235
 21
213.9176795065857
 31
0.0
  0
LINE
  5
516
330
18
100
AcDbEntity
  8
HASEN
100
AcDbLine
 10
38.03229955375235
 20
215.6676795065856
 30
0.0
 11
38.03229955375235
 21
212.1676795065856
 31
0.0
  0
LINE
  5
517
330
18
100
AcDbEntity
  8
HASEN
100
AcDbLine
 10
30.53229955375235
 20
215.6676795065856
 30
0.0
 11
30.53229955375235
 21
212.1676795065856
 31
0.0
  0
LINE
  5
518
330
18
100
AcDbEntity
  8
HASEN
100
AcDbLine
 10
30.53229955375235
 20
212.1676795065856
 30
0.0
 11
38.03229955375235
 21
212.1676795065856
 31
0.0
  0
LINE
  5
519
330
18
100
AcDbEntity
  8
HASEN
100
AcDbLine
 10
30.53229955375235
 20
215.6676795065857
 30
0.0
 11
38.03229955375235
 21
215.6676795065856
 31
0.0
  0
LINE
  5
51A
330
18
100
AcDbEntity
  8
CENTER
100
AcDbLine
 10
32.03229955375235
 20
196.6721027473409
 30
0.0
 11
30.53229955375235
 21
196.6721027473409
 31
0.0
  0
LINE
  5
51B
330
18
100
AcDbEntity
  8
CENTER
100
AcDbLine
 10
31.28229955375235
 20
195.9221027473409
 30
0.0
 11
31.28229955375235
 21
197.4221027473409
 31
0.0
  0
LINE
  5
51C
330
18
100
AcDbEntity
  8
CENTER
100
AcDbLine
 10
32.03229955375235
 20
204.6864651727787
 30
0.0
 11
30.53229955375235
 21
204.6864651727787
 31
0.0
  0
LINE
  5
51D
330
18
100
AcDbEntity
  8
CENTER
100
AcDbLine
 10
31.28229955375235
 20
203.9364651727787
 30
0.0
 11
31.28229955375235
 21
205.4364651727787
 31
0.0
  0
LINE
  5
51E
330
18
100
AcDbEntity
  8
CENTER
100
AcDbLine
 10
36.53229955375235
 20
196.6721027473409
 30
0.0
 11
38.03229955375235
 21
196.6721027473409
 31
0.0
  0
LINE
  5
51F
330
18
100
AcDbEntity
  8
CENTER
100
AcDbLine
 10
37.28229955375236
 20
195.9221027473409
 30
0.0
 11
37.28229955375236
 21
197.4221027473409
 31
0.0
  0
LINE
  5
520
330
18
100
AcDbEntity
  8
CENTER
100
AcDbLine
 10
33.53229955375236
 20
200.1676795065856
 30
0.0
 11
35.03229955375235
 21
200.1676795065856
 31
0.0
  0
LINE
  5
521
330
18
100
AcDbEntity
  8
CENTER
100
AcDbLine
 10
34.28229955375235
 20
199.4176795065856
 30
0.0
 11
34.28229955375235
 21
200.9176795065856
 31
0.0
  0
LINE
  5
522
330
18
100
AcDbEntity
  8
CENTER
100
AcDbLine
 10
37.28229955375236
 20
203.9364651727787
 30
0.0
 11
37.28229955375236
 21
205.4364651727787
 31
0.0
  0
LINE
  5
523
330
18
100
AcDbEntity
  8
CENTER
100
AcDbLine
 10
36.53229955375235
 20
204.6864651727787
 30
0.0
 11
38.03229955375235
 21
204.6864651727787
 31
0.0
  0
LINE
  5
524
330
18
100
AcDbEntity
  8
KEN
100
AcDbLine
 10
30.53229955375235
 20
195.8280597086461
 30
0.0
 11
38.03229955375235
 21
195.8280597086461
 31
0.0
  0
LINE
  5
525
330
18
100
AcDbEntity
  8
HASEN
100
AcDbLine
 10
38.03229955375235
 20
205.7576795065856
 30
0.0
 11
38.03229955375235
 21
195.9301396821095
 31
0.0
  0
LINE
  5
526
330
18
100
AcDbEntity
  8
HASEN
100
AcDbLine
 10
30.53229955375235
 20
205.7576795065856
 30
0.0
 11
30.53229955375235
 21
195.9301396821095
 31
0.0
  0
LINE
  5
527
330
18
100
AcDbEntity
  8
KEN
100
AcDbLine
 10
38.03229955375235
 20
195.8280597086461
 30
0.0
 11
38.03229955375235
 21
195.9301396821095
 31
0.0
  0
LINE
  5
528
330
18
100
AcDbEntity
  8
KEN
100
AcDbLine
 10
30.53229955375235
 20
195.8280597086461
 30
0.0
 11
30.53229955375235
 21
195.9301396821095
 31
0.0
  0
LINE
  5
529
330
18
100
AcDbEntity
  8
HASEN
100
AcDbLine
 10
30.53229955375235
 20
196.9176795065856
 30
0.0
 11
38.03229955375235
 21
196.9176795065856
 31
0.0
  0
LINE
  5
52A
330
18
100
AcDbEntity
  8
HASEN
100
AcDbLine
 10
30.53229955375235
 20
203.4176795065856
 30
0.0
 11
38.03229955375235
 21
203.4176795065856
 31
0.0
  0
LINE
  5
52B
330
18
100
AcDbEntity
  8
HASEN
100
AcDbLine
 10
30.53229955375235
 20
205.7576795065856
 30
0.0
 11
38.03229955375235
 21
205.7576795065856
 31
0.0
  0
LINE
  5
52C
330
18
100
AcDbEntity
  8
CENTER
100
AcDbLine
 10
30.53229955375235
 20
173.0884348988792
 30
0.0
 11
32.03229955375235
 21
173.0884348988792
 31
0.0
  0
LINE
  5
52D
330
18
100
AcDbEntity
  8
CENTER
100
AcDbLine
 10
31.28229955375235
 20
172.3384348988792
 30
0.0
 11
31.28229955375235
 21
173.8384348988792
 31
0.0
  0
LINE
  5
52E
330
18
100
AcDbEntity
  8
CENTER
100
AcDbLine
 10
36.53229955375235
 20
173.0884348988792
 30
0.0
 11
38.03229955375235
 21
173.0884348988792
 31
0.0
  0
LINE
  5
52F
330
18
100
AcDbEntity
  8
CENTER
100
AcDbLine
 10
37.28229955375236
 20
172.3384348988792
 30
0.0
 11
37.28229955375236
 21
173.8384348988792
 31
0.0
  0
LINE
  5
530
330
18
100
AcDbEntity
  8
CENTER
100
AcDbLine
 10
34.28229955375235
 20
175.1676795065856
 30
0.0
 11
34.28229955375235
 21
176.6676795065857
 31
0.0
  0
LINE
  5
531
330
18
100
AcDbEntity
  8
CENTER
100
AcDbLine
 10
33.53229955375236
 20
175.9176795065856
 30
0.0
 11
35.03229955375235
 21
175.9176795065856
 31
0.0
  0
LINE
  5
532
330
18
100
AcDbEntity
  8
CENTER
100
AcDbLine
 10
30.53229955375235
 20
179.7681489556397
 30
0.0
 11
32.03229955375235
 21
179.7681489556397
 31
0.0
  0
LINE
  5
533
330
18
100
AcDbEntity
  8
CENTER
100
AcDbLine
 10
31.28229955375235
 20
179.0181489556397
 30
0.0
 11
31.28229955375235
 21
180.5181489556397
 31
0.0
  0
LINE
  5
534
330
18
100
AcDbEntity
  8
CENTER
100
AcDbLine
 10
36.53229955375235
 20
179.7681489556397
 30
0.0
 11
38.03229955375235
 21
179.7681489556397
 31
0.0
  0
LINE
  5
535
330
18
100
AcDbEntity
  8
CENTER
100
AcDbLine
 10
37.28229955375236
 20
179.0181489556397
 30
0.0
 11
37.28229955375236
 21
180.5181489556397
 31
0.0
  0
LINE
  5
536
330
18
100
AcDbEntity
  8
HASEN
100
AcDbLine
 10
38.03229955375235
 20
180.521155777506
 30
0.0
 11
38.03229955375235
 21
172.0646331721494
 31
0.0
  0
LINE
  5
537
330
18
100
AcDbEntity
  8
HASEN
100
AcDbLine
 10
30.53229955375235
 20
180.521155777506
 30
0.0
 11
30.53229955375235
 21
172.0646331721494
 31
0.0
  0
LINE
  5
538
330
18
100
AcDbEntity
  8
HASEN
100
AcDbLine
 10
30.53229955375235
 20
172.0646331721494
 30
0.0
 11
38.03229955375235
 21
172.0646331721494
 31
0.0
  0
LINE
  5
539
330
18
100
AcDbEntity
  8
HASEN
100
AcDbLine
 10
30.53229955375235
 20
173.4176795065856
 30
0.0
 11
38.03229955375235
 21
173.4176795065856
 31
0.0
  0
LINE
  5
53A
330
18
100
AcDbEntity
  8
HASEN
100
AcDbLine
 10
30.53229955375235
 20
178.4176795065856
 30
0.0
 11
38.03229955375235
 21
178.4176795065856
 31
0.0
  0
LINE
  5
53B
330
18
100
AcDbEntity
  8
HASEN
100
AcDbLine
 10
30.53229955375235
 20
180.521155777506
 30
0.0
 11
38.03229955375235
 21
180.521155777506
 31
0.0
  0
LINE
  5
53D
330
18
100
AcDbEntity
  8
SUNPOU
100
AcDbLine
 10
261.811575070502
 20
86.46854135464689
 30
0.0
 11
358.8273580006068
 21
86.46854135464687
 31
0.0
  0
LINE
  5
543
330
18
100
AcDbEntity
  8
SUNPOU
100
AcDbLine
 10
261.811575070502
 20
81.66854135464687
 30
0.0
 11
358.8273580006068
 21
81.66854135464689
 31
0.0
  0
LINE
  5
545
330
18
100
AcDbEntity
  8
SUNPOU
100
AcDbLine
 10
261.811575070502
 20
70.86854135464689
 30
0.0
 11
358.8273580006068
 21
70.86854135464689
 31
0.0
  0
LINE
  5
546
330
18
100
AcDbEntity
  8
SUNPOU
100
AcDbLine
 10
261.811575070502
 20
65.46854135464688
 30
0.0
 11
358.8273580006068
 21
65.4685413546469
 31
0.0
  0
LINE
  5
547
330
18
100
AcDbEntity
  8
SUNPOU
100
AcDbLine
 10
261.811575070502
 20
60.06854135464691
 30
0.0
 11
358.8273580006068
 21
60.06854135464689
 31
0.0
  0
LINE
  5
548
330
18
100
AcDbEntity
  8
SUNPOU
100
AcDbLine
 10
261.811575070502
 20
54.66854135464689
 30
0.0
 11
358.8273580006068
 21
54.6685413546469
 31
0.0
  0
LINE
  5
549
330
18
100
AcDbEntity
  8
SUNPOU
100
AcDbLine
 10
261.811575070502
 20
49.26854135464688
 30
0.0
 11
358.8273580006068
 21
49.26854135464688
 31
0.0
  0
LINE
  5
54A
330
18
100
AcDbEntity
  8
SUNPOU
100
AcDbLine
 10
261.811575070502
 20
43.86854135464689
 30
0.0
 11
358.8273580006068
 21
43.86854135464689
 31
0.0
  0
LINE
  5
54B
330
18
100
AcDbEntity
  8
SUNPOU
100
AcDbLine
 10
261.811575070502
 20
38.4685413546469
 30
0.0
 11
358.8273580006066
 21
38.4685413546469
 31
0.0
  0
LINE
  5
54C
330
18
100
AcDbEntity
  8
SUNPOU
100
AcDbLine
 10
261.811575070502
 20
33.06854135464688
 30
0.0
 11
358.8273580006066
 21
33.0685413546469
 31
0.0
  0
DIMENSION
  5
54D
330
18
100
AcDbEntity
  8
SUNPOU
100
AcDbDimension
  2
*D1
 10
134.2822995537523
 20
229.8630643078676
 30
0.0
 11
84.28229955375234
 21
232.5630643078675
 31
0.0
 70
    32
  1
2000
 71
     5
 42
100.0
  3
SJC
100
AcDbAlignedDimension
 13
34.28229955375235
 23
217.4176795065857
 33
0.0
 14
134.2822995537523
 24
217.4176795065857
 34
0.0
100
AcDbRotatedDimension
1001
ACAD
1000
DSTYLE
1002
{
1070
    40
1040
1.0
1070
    41
1040
2.0
1070
    42
1040
1.0
1070
    43
1040
6.0
1070
    44
1040
1.0
1070
    73
1070
     0
1070
    74
1070
     0
1070
    77
1070
     3
1070
   140
1040
3.0
1070
   147
1040
1.199999999999999
1070
   172
1070
     1
1070
   176
1070
   256
1070
   177
1070
   256
1070
   340
1005
97C
1002
}
  0
DIMENSION
  5
54E
330
18
100
AcDbEntity
  8
SUNPOU
100
AcDbDimension
  2
*D2
 10
234.2822995537523
 20
229.8630643078676
 30
0.0
 11
184.2822995537523
 21
232.5630643078675
 31
0.0
 70
    32
  1
2000
 71
     5
 42
99.99999999999994
  3
SJC
100
AcDbAlignedDimension
 13
134.2822995537523
 23
217.4176795065857
 33
0.0
 14
234.2822995537523
 24
217.4176795065857
 34
0.0
100
AcDbRotatedDimension
1001
ACAD
1000
DSTYLE
1002
{
1070
    40
1040
1.0
1070
    41
1040
2.0
1070
    42
1040
1.0
1070
    43
1040
6.0
1070
    44
1040
1.0
1070
    73
1070
     0
1070
    74
1070
     0
1070
    77
1070
     3
1070
   140
1040
3.0
1070
   147
1040
1.199999999999999
1070
   172
1070
     1
1070
   176
1070
   256
1070
   177
1070
   256
1070
   340
1005
97C
1002
}
  0
SOLID
  5
54F
330
18
100
AcDbEntity
  8
SUNPOU
100
AcDbTrace
 10
236.7822995537523
 20
229.4463976412009
 30
0.0
 11
236.7822995537523
 21
230.2797309745342
 31
0.0
 12
234.2822995537523
 22
229.8630643078676
 32
0.0
 13
234.2822995537523
 23
229.8630643078676
 33
0.0
  0
LINE
  5
550
330
18
100
AcDbEntity
  8
SUNPOU
100
AcDbLine
 10
235.5322995537523
 20
229.8630643078676
 30
0.0
 11
240.9238658802055
 21
229.8630643078676
 31
0.0
  0
TEXT
  5
552
330
18
100
AcDbEntity
  8
SUNPOU
100
AcDbText
 10
235.8822312989105
 20
231.0823807125351
 30
0.0
 40
3.0
  1
2000
 41
0.8
  7
EXT08
100
AcDbText
  0
SOLID
  5
558
330
18
100
AcDbEntity
  8
SUNPOU
100
AcDbTrace
 10
71.12628023579739
 20
25.77151668165431
 30
0.0
 11
71.77579928863574
 21
26.14651668165433
 31
0.0
 12
70.32603976221657
 22
27.90757384016933
 32
0.0
 13
70.32603976221657
 23
27.90757384016933
 33
0.0
  0
LINE
  5
559
330
18
100
AcDbEntity
  8
SUNPOU
100
AcDbLine
 10
71.07603976221657
 20
26.60853573449268
 30
0.0
 11
79.32603976221656
 21
12.31911657204944
 31
0.0
  0
LINE
  5
55B
330
18
100
AcDbEntity
  8
SUNPOU
100
AcDbLine
 10
79.32603976221656
 20
12.31911657204944
 30
0.0
 11
103.7781139095631
 21
12.31911657204944
 31
0.0
  0
TEXT
  5
55C
330
18
100
AcDbEntity
  8
SUNPOU
100
AcDbText
 10
82.32603976221657
 20
13.81911657204944
 30
0.0
 40
3.0
  1
1   φ76.3×t3.2
 41
0.8
  7
EXT08
100
AcDbText
  0
SOLID
  5
55D
330
18
100
AcDbEntity
  8
SUNPOU
100
AcDbTrace
 10
83.85824333761291
 20
110.0594186491895
 30
0.0
 11
83.20872428477462
 21
110.4344186491895
 31
0.0
 12
82.40848381119377
 22
108.2983614906745
 32
0.0
 13
82.40848381119377
 23
108.2983614906745
 33
0.0
  0
LINE
  5
55E
330
18
100
AcDbEntity
  8
SUNPOU
100
AcDbLine
 10
83.15848381119378
 20
109.5973995963512
 30
0.0
 11
86.51025791138636
 21
115.4028426333782
 31
0.0
  0
LINE
  5
560
330
18
100
AcDbEntity
  8
SUNPOU
100
AcDbLine
 10
86.51025791138636
 20
115.4028426333782
 30
0.0
 11
101.8832817375786
 21
115.4028426333782
 31
0.0
  0
TEXT
  5
561
330
18
100
AcDbEntity
  8
SUNPOU
100
AcDbText
 10
89.76328173757867
 20
116.9028426333782
 30
0.0
 40
3.0
  1
3  小レール
 41
0.8
  7
EXT08
100
AcDbText
  0
SOLID
  5
562
330
18
100
AcDbEntity
  8
SUNPOU
100
AcDbTrace
 10
77.19146290356383
 20
61.43093182819192
 30
0.0
 11
76.54194385072552
 21
61.80593182819189
 31
0.0
 12
75.74170337714469
 22
59.66987466967691
 32
0.0
 13
75.74170337714469
 23
59.66987466967691
 33
0.0
  0
LINE
  5
563
330
18
100
AcDbEntity
  8
SUNPOU
100
AcDbLine
 10
76.49170337714469
 20
60.9689127753536
 30
0.0
 11
79.20521175361699
 21
65.6688471501674
 31
0.0
  0
LINE
  5
565
330
18
100
AcDbEntity
  8
SUNPOU
100
AcDbLine
 10
79.20521175361699
 20
65.6688471501674
 30
0.0
 11
95.06319686590581
 21
65.6688471501674
 31
0.0
  0
TEXT
  5
566
330
18
100
AcDbEntity
  8
SUNPOU
100
AcDbText
 10
82.94319686590581
 20
67.16884715016741
 30
0.0
 40
3.0
  1
2   大レール
 41
0.8
  7
EXT08
100
AcDbText
  0
DIMENSION
  5
567
330
18
100
AcDbEntity
  8
SUNPOU
100
AcDbDimension
  2
*D3
 10
124.4251830161849
 20
81.24277590054543
 30
0.0
 11
79.23120245453006
 21
38.22616764878653
 31
0.0
 70
    36
  1
R531
 71
     5
 42
53.24914325396834
  3
SJC
100
AcDbRadialDimension
 15
87.47949797165977
 25
42.89583842344834
 35
0.0
 40
0.0
1001
ACAD
1000
DSTYLE
1002
{
1070
    40
1040
1.0
1070
    41
1040
2.0
1070
    42
1040
1.0
1070
    43
1040
6.0
1070
    44
1040
1.0
1070
    73
1070
     0
1070
    74
1070
     0
1070
    77
1070
     3
1070
   140
1040
3.0
1070
   147
1040
1.199999999999999
1070
   172
1070
     1
1070
   176
1070
   256
1070
   177
1070
   256
1070
   340
1005
97C
1002
}
  0
DIMENSION
  5
568
330
18
100
AcDbEntity
  8
SUNPOU
100
AcDbDimension
  2
*D4
 10
115.7970613717544
 20
114.2427759005453
 30
0.0
 11
81.19242704807447
 21
88.06487191215248
 31
0.0
 70
    36
  1
R341
 71
     5
 42
34.22102160953793
  3
SJC
100
AcDbRadialDimension
 15
89.84300838050298
 25
91.93884231635953
 35
0.0
 40
0.0
1001
ACAD
1000
DSTYLE
1002
{
1070
    40
1040
1.0
1070
    41
1040
2.0
1070
    42
1040
1.0
1070
    43
1040
6.0
1070
    44
1040
1.0
1070
    73
1070
     0
1070
    74
1070
     0
1070
    77
1070
     3
1070
   140
1040
3.0
1070
   147
1040
1.199999999999999
1070
   172
1070
     1
1070
   176
1070
   256
1070
   177
1070
   256
1070
   340
1005
97C
1002
}
  0
SOLID
  5
569
330
18
100
AcDbEntity
  8
SUNPOU
100
AcDbTrace
 10
76.00442611666401
 20
35.1067187420303
 30
0.0
 11
76.65394516950235
 21
35.4817187420303
 31
0.0
 12
75.20418564308318
 22
37.24277590054527
 32
0.0
 13
75.20418564308318
 23
37.24277590054527
 33
0.0
  0
LINE
  5
56A
330
18
100
AcDbEntity
  8
SUNPOU
100
AcDbLine
 10
75.95418564308317
 20
35.94373779486861
 30
0.0
 11
82.62785479119157
 21
24.38460375743998
 31
0.0
  0
LINE
  5
56C
330
18
100
AcDbEntity
  8
SUNPOU
100
AcDbLine
 10
82.62785479119157
 20
24.38460375743998
 30
0.0
 11
101.8780874762113
 21
24.38460375743998
 31
0.0
  0
TEXT
  5
56D
330
18
100
AcDbEntity
  8
SUNPOU
100
AcDbText
 10
85.43808747621131
 20
25.88460375743998
 30
0.0
 40
3.0
  1
4   大レール金具
 41
0.8
  7
EXT08
100
AcDbText
  0
SOLID
  5
56E
330
18
100
AcDbEntity
  8
SUNPOU
100
AcDbTrace
 10
76.90049194104822
 20
82.10671874203029
 30
0.0
 11
77.55001099388656
 21
82.48171874203029
 31
0.0
 12
76.10025146746739
 22
84.24277590054527
 32
0.0
 13
76.10025146746739
 23
84.24277590054527
 33
0.0
  0
LINE
  5
56F
330
18
100
AcDbEntity
  8
SUNPOU
100
AcDbLine
 10
76.85025146746738
 20
82.94373779486861
 30
0.0
 11
81.22880414920985
 21
75.35986208647367
 31
0.0
  0
LINE
  5
570
330
18
100
AcDbEntity
  8
SUNPOU
100
AcDbLine
 10
81.22880414920985
 20
75.35986208647367
 30
0.0
 11
102.2286549078982
 21
75.35986208647367
 31
0.0
  0
TEXT
  5
571
330
18
100
AcDbEntity
  8
SUNPOU
100
AcDbText
 10
85.78865490789823
 20
76.85986208647367
 30
0.0
 40
3.0
  1
5   小レール金具
 41
0.8
  7
EXT08
100
AcDbText
  0
SOLID
  5
572
330
18
100
AcDbEntity
  8
SUNPOU
100
AcDbTrace
 10
78.80450314802445
 20
123.5038330590603
 30
0.0
 11
78.1549840951861
 21
123.8788330590603
 31
0.0
 12
77.35474362160528
 22
121.7427759005453
 32
0.0
 13
77.35474362160528
 23
121.7427759005453
 33
0.0
  0
LINE
  5
573
330
18
100
AcDbEntity
  8
SUNPOU
100
AcDbLine
 10
78.10474362160528
 20
123.0418140062219
 30
0.0
 11
83.18496266035351
 21
131.8410114949126
 31
0.0
  0
LINE
  5
574
330
18
100
AcDbEntity
  8
SUNPOU
100
AcDbLine
 10
83.18496266035351
 20
131.8410114949126
 30
0.0
 11
104.3577466630697
 21
131.8410114949126
 31
0.0
  0
TEXT
  5
575
330
18
100
AcDbEntity
  8
SUNPOU
100
AcDbText
 10
86.233733297784
 20
133.3410114949126
 30
0.0
 40
3.0
  1
6   中間補強金具
 41
0.8
  7
EXT08
100
AcDbText
  0
SOLID
  5
576
330
18
100
AcDbEntity
  8
SUNPOU
100
AcDbTrace
 10
68.87628023579745
 20
81.8660345603598
 30
0.0
 11
69.52579928863568
 21
81.49103456035977
 31
0.0
 12
70.32603976221651
 22
83.62709171887479
 32
0.0
 13
70.32603976221651
 23
83.62709171887479
 33
0.0
  0
LINE
  5
577
330
18
100
AcDbEntity
  8
SUNPOU
100
AcDbLine
 10
69.57603976221657
 20
82.3280536131981
 30
0.0
 11
56.61253036312996
 21
59.87459668958351
 31
0.0
  0
LINE
  5
578
330
18
100
AcDbEntity
  8
SUNPOU
100
AcDbLine
 10
39.73312435736114
 20
59.87459668958354
 30
0.0
 11
56.61253036312996
 21
59.87459668958351
 31
0.0
  0
TEXT
  5
579
330
18
100
AcDbEntity
  8
SUNPOU
100
AcDbText
 10
39.73312435736114
 20
61.37459668958354
 30
0.0
 40
3.0
  1
7   スペーサー
 41
0.8
  7
EXT08
100
AcDbText
  0
SOLID
  5
57A
330
18
100
AcDbEntity
  8
SUNPOU
100
AcDbTrace
 10
59.92628023579766
 20
116.4817187420303
 30
0.0
 11
60.57579928863595
 21
116.1067187420303
 31
0.0
 12
61.3760397622168
 22
118.2427759005452
 32
0.0
 13
61.3760397622168
 23
118.2427759005452
 33
0.0
  0
LINE
  5
57B
330
18
100
AcDbEntity
  8
SUNPOU
100
AcDbLine
 10
60.6260397622168
 20
116.9437377948686
 30
0.0
 11
56.8057708355679
 21
110.3268379153361
 31
0.0
  0
LINE
  5
57C
330
18
100
AcDbEntity
  8
SUNPOU
100
AcDbLine
 10
57.0161230833321
 20
110.3268379153361
 30
0.0
 11
55.5161230833321
 21
110.3268379153361
 31
0.0
  0
LINE
  5
57D
330
18
100
AcDbEntity
  8
SUNPOU
100
AcDbLine
 10
40.09612308333214
 20
110.3268379153361
 30
0.0
 11
56.8057708355679
 21
110.3268379153361
 31
0.0
  0
TEXT
  5
57E
330
18
100
AcDbEntity
  8
SUNPOU
100
AcDbText
 10
40.09612308333214
 20
111.8268379153361
 30
0.0
 40
3.0
  1
8   取付ボルト
 41
0.8
  7
EXT08
100
AcDbText
  0
SOLID
  5
57F
330
18
100
AcDbEntity
  8
SUNPOU
100
AcDbTrace
 10
97.43435875145117
 20
39.2091745286312
 30
0.0
 11
96.78483969861284
 21
39.5841745286312
 31
0.0
 12
95.98459922503201
 22
37.4481173701162
 32
0.0
 13
95.98459922503201
 23
37.4481173701162
 33
0.0
  0
LINE
  5
580
330
18
100
AcDbEntity
  8
SUNPOU
100
AcDbLine
 10
96.73459922503207
 20
38.74715547579291
 30
0.0
 11
98.98459922503214
 21
42.64426979282291
 31
0.0
  0
LINE
  5
581
330
18
100
AcDbEntity
  8
SUNPOU
100
AcDbLine
 10
98.98459922503214
 20
42.64426979282291
 30
0.0
 11
115.9045992250321
 21
42.64426979282291
 31
0.0
  0
TEXT
  5
582
330
18
100
AcDbEntity
  8
SUNPOU
100
AcDbText
 10
101.984599225032
 20
44.14426979282291
 30
0.0
 40
3.0
  1
9   取付ボルト
 41
0.8
  7
EXT08
100
AcDbText
  0
CIRCLE
  5
583
330
18
100
AcDbEntity
  8
SUNPOU
100
AcDbCircle
 10
40.73210886727531
 20
113.3393783750985
 30
0.0
 40
2.167682756202585
  0
CIRCLE
  5
584
330
18
100
AcDbEntity
  8
SUNPOU
100
AcDbCircle
 10
40.40372226557275
 20
63.01131707447379
 30
0.0
 40
2.167682756202585
  0
CIRCLE
  5
585
330
18
100
AcDbEntity
  8
SUNPOU
100
AcDbCircle
 10
86.28672208103973
 20
27.55034497547936
 30
0.0
 40
2.167682756202585
  0
CIRCLE
  5
586
330
18
100
AcDbEntity
  8
SUNPOU
100
AcDbCircle
 10
82.72685687707417
 20
15.37467063042456
 30
0.0
 40
2.167682756202585
  0
CIRCLE
  5
587
330
18
100
AcDbEntity
  8
SUNPOU
100
AcDbCircle
 10
102.5929171261636
 20
45.77621537458685
 30
0.0
 40
2.167682756202585
  0
CIRCLE
  5
588
330
18
100
AcDbEntity
  8
SUNPOU
100
AcDbCircle
 10
83.68423077594332
 20
68.76877030714616
 30
0.0
 40
2.167682756202585
  0
CIRCLE
  5
589
330
18
100
AcDbEntity
  8
SUNPOU
100
AcDbCircle
 10
86.28720125563694
 20
78.42847761494477
 30
0.0
 40
2.167682756202585
  0
CIRCLE
  5
58A
330
18
100
AcDbEntity
  8
SUNPOU
100
AcDbCircle
 10
90.45656794727333
 20
118.4080334897945
 30
0.0
 40
2.167682756202585
  0
CIRCLE
  5
58B
330
18
100
AcDbEntity
  8
SUNPOU
100
AcDbCircle
 10
86.92574322704633
 20
134.977909308046
 30
0.0
 40
2.167682756202585
  0
TEXT
  5
58C
330
18
100
AcDbEntity
  8
SUNPOU
100
AcDbText
 10
263.7987520384434
 20
82.17367850711159
 30
0.0
 40
3.0
  1
図　番
 41
0.8
  7
EXT08
100
AcDbText
  0
TEXT
  5
58D
330
18
100
AcDbEntity
  8
SUNPOU
100
AcDbText
 10
297.2433914750615
 20
82.17367850711159
 30
0.0
 40
3.0
  1
　材　質
 41
0.8
  7
EXT08
100
AcDbText
  0
TEXT
  5
58E
330
18
100
AcDbEntity
  8
SUNPOU
100
AcDbText
 10
273.7783150914276
 20
82.17367850711159
 30
0.0
 40
3.0
  1
　品　　名
 41
0.8
  7
EXT08
100
AcDbText
  0
TEXT
  5
58F
330
18
100
AcDbEntity
  8
SUNPOU
100
AcDbText
 10
314.5203677508102
 20
82.17367850711159
 30
0.0
 40
3.0
  1
　　　摘　　要
 41
0.8
  7
EXT08
100
AcDbText
  0
TEXT
  5
590
330
18
100
AcDbEntity
  8
SUNPOU
100
AcDbText
 10
349.9352994835879
 20
82.17367850711159
 30
0.0
 40
3.0
  1
数　量
 41
0.8
  7
EXT08
100
AcDbText
  0
TEXT
  5
591
330
18
100
AcDbEntity
  8
SUNPOU
100
AcDbText
 10
349.9352994835879
 20
77.37367850711163
 30
0.0
 40
3.0
  1
　１
 41
0.8
  7
EXT08
100
AcDbText
  0
TEXT
  5
593
330
18
100
AcDbEntity
  8
SUNPOU
100
AcDbText
 10
273.7783150914276
 20
77.37367850711163
 30
0.0
 40
3.0
  1
　支　　柱
 41
0.8
  7
EXT08
100
AcDbText
  0
TEXT
  5
594
330
18
100
AcDbEntity
  8
SUNPOU
100
AcDbText
 10
297.2433914750615
 20
77.37367850711163
 30
0.0
 40
3.0
  1
STK400
 41
0.8
  7
EXT08
100
AcDbText
  0
TEXT
  5
595
330
18
100
AcDbEntity
  8
SUNPOU
100
AcDbText
 10
263.7987520384434
 20
77.37367850711163
 30
0.0
 40
3.599999999999999
  1
　１
 41
0.8
  7
EXT08
100
AcDbText
  0
TEXT
  5
596
330
18
100
AcDbEntity
  8
SUNPOU
100
AcDbText
 10
263.7987520384434
 20
66.57367850711167
 30
0.0
 40
3.0
  1
　３
 41
0.8
  7
EXT08
100
AcDbText
  0
TEXT
  5
597
330
18
100
AcDbEntity
  8
SUNPOU
100
AcDbText
 10
297.2433914750615
 20
66.57367850711167
 30
0.0
 40
3.0
  1
SGC400
 41
0.8
  7
EXT08
100
AcDbText
  0
TEXT
  5
598
330
18
100
AcDbEntity
  8
SUNPOU
100
AcDbText
 10
273.7783150914276
 20
66.57367850711167
 30
0.0
 40
3.0
  1
　小レール
 41
0.8
  7
EXT08
100
AcDbText
  0
TEXT
  5
599
330
18
100
AcDbEntity
  8
SUNPOU
100
AcDbText
 10
349.9352994835879
 20
66.57367850711167
 30
0.0
 40
3.0
  1
　１
 41
0.8
  7
EXT08
100
AcDbText
  0
TEXT
  5
59A
330
18
100
AcDbEntity
  8
SUNPOU
100
AcDbText
 10
349.9352994835879
 20
71.97367850711163
 30
0.0
 40
3.0
  1
　１
 41
0.8
  7
EXT08
100
AcDbText
  0
TEXT
  5
59B
330
18
100
AcDbEntity
  8
SUNPOU
100
AcDbText
 10
273.7783150914276
 20
71.97367850711163
 30
0.0
 40
3.0
  1
　大レール
 41
0.8
  7
EXT08
100
AcDbText
  0
TEXT
  5
59C
330
18
100
AcDbEntity
  8
SUNPOU
100
AcDbText
 10
297.2433914750615
 20
71.97367850711163
 30
0.0
 40
3.0
  1
SGC400
 41
0.8
  7
EXT08
100
AcDbText
  0
TEXT
  5
59D
330
18
100
AcDbEntity
  8
SUNPOU
100
AcDbText
 10
263.7987520384434
 20
71.97367850711163
 30
0.0
 40
3.0
  1
　２
 41
0.8
  7
EXT08
100
AcDbText
  0
TEXT
  5
59E
330
18
100
AcDbEntity
  8
SUNPOU
100
AcDbText
 10
263.7987520384434
 20
50.37367850711163
 30
0.0
 40
3.0
  1
　６
 41
0.8
  7
EXT08
100
AcDbText
  0
TEXT
  5
59F
330
18
100
AcDbEntity
  8
SUNPOU
100
AcDbText
 10
297.2433914750615
 20
50.37367850711163
 30
0.0
 40
3.0
  1
 SS400
 41
0.8
  7
EXT08
100
AcDbText
  0
TEXT
  5
5A0
330
18
100
AcDbEntity
  8
SUNPOU
100
AcDbText
 10
273.7783150914276
 20
50.37367850711163
 30
0.0
 40
3.0
  1
中間補強金具
 41
0.8
  7
EXT08
100
AcDbText
  0
TEXT
  5
5A1
330
18
100
AcDbEntity
  8
SUNPOU
100
AcDbText
 10
349.9352994835879
 20
50.37367850711163
 30
0.0
 40
3.0
  1
　２
 41
0.8
  7
EXT08
100
AcDbText
  0
TEXT
  5
5A2
330
18
100
AcDbEntity
  8
SUNPOU
100
AcDbText
 10
349.9352994835879
 20
44.97367850711166
 30
0.0
 40
3.0
  1
　１
 41
0.8
  7
EXT08
100
AcDbText
  0
TEXT
  5
5A3
330
18
100
AcDbEntity
  8
SUNPOU
100
AcDbText
 10
273.7783150914276
 20
44.97367850711166
 30
0.0
 40
3.0
  1
　スペーサー
 41
0.8
  7
EXT08
100
AcDbText
  0
TEXT
  5
5A4
330
18
100
AcDbEntity
  8
SUNPOU
100
AcDbText
 10
297.2433914750615
 20
44.97367850711166
 30
0.0
 40
3.0
  1
 SS400
 41
0.8
  7
EXT08
100
AcDbText
  0
TEXT
  5
5A5
330
18
100
AcDbEntity
  8
SUNPOU
100
AcDbText
 10
263.7987520384434
 20
44.97367850711166
 30
0.0
 40
3.0
  1
　７
 41
0.8
  7
EXT08
100
AcDbText
  0
TEXT
  5
5A6
330
18
100
AcDbEntity
  8
SUNPOU
100
AcDbText
 10
263.7987520384434
 20
55.77367850711162
 30
0.0
 40
3.0
  1
　５
 41
0.8
  7
EXT08
100
AcDbText
  0
TEXT
  5
5A7
330
18
100
AcDbEntity
  8
SUNPOU
100
AcDbText
 10
297.2433914750615
 20
55.77367850711162
 30
0.0
 40
3.0
  1
 SS400
 41
0.8
  7
EXT08
100
AcDbText
  0
TEXT
  5
5A8
330
18
100
AcDbEntity
  8
SUNPOU
100
AcDbText
 10
273.7783150914276
 20
55.77367850711162
 30
0.0
 40
3.0
  1
小レール金具
 41
0.8
  7
EXT08
100
AcDbText
  0
TEXT
  5
5A9
330
18
100
AcDbEntity
  8
SUNPOU
100
AcDbText
 10
349.9352994835879
 20
55.77367850711162
 30
0.0
 40
3.0
  1
　１
 41
0.8
  7
EXT08
100
AcDbText
  0
TEXT
  5
5AA
330
18
100
AcDbEntity
  8
SUNPOU
100
AcDbText
 10
349.9352994835879
 20
61.17367850711159
 30
0.0
 40
3.0
  1
　１
 41
0.8
  7
EXT08
100
AcDbText
  0
TEXT
  5
5AB
330
18
100
AcDbEntity
  8
SUNPOU
100
AcDbText
 10
273.7783150914276
 20
61.17367850711159
 30
0.0
 40
3.0
  1
大レール金具
 41
0.8
  7
EXT08
100
AcDbText
  0
TEXT
  5
5AC
330
18
100
AcDbEntity
  8
SUNPOU
100
AcDbText
 10
297.2433914750615
 20
61.17367850711159
 30
0.0
 40
3.0
  1
 SS400
 41
0.8
  7
EXT08
100
AcDbText
  0
TEXT
  5
5AD
330
18
100
AcDbEntity
  8
SUNPOU
100
AcDbText
 10
263.7987520384434
 20
61.17367850711159
 30
0.0
 40
3.0
  1
　４
 41
0.8
  7
EXT08
100
AcDbText
  0
TEXT
  5
5AE
330
18
100
AcDbEntity
  8
SUNPOU
100
AcDbText
 10
263.7987520384434
 20
34.17367850711167
 30
0.0
 40
3.0
  1
　９
 41
0.8
  7
EXT08
100
AcDbText
  0
TEXT
  5
5AF
330
18
100
AcDbEntity
  8
SUNPOU
100
AcDbText
 10
297.2433914750615
 20
34.17367850711168
 30
0.0
 40
3.0
  1
4T相当品
 41
0.8
  7
EXT08
100
AcDbText
  0
TEXT
  5
5B0
330
18
100
AcDbEntity
  8
SUNPOU
100
AcDbText
 10
273.7783150914276
 20
34.17367850711168
 30
0.0
 40
3.0
  1
　取付ボルト
 41
0.8
  7
EXT08
100
AcDbText
  0
TEXT
  5
5B1
330
18
100
AcDbEntity
  8
SUNPOU
100
AcDbText
 10
314.5203677508102
 20
34.17367850711168
 30
0.0
 40
3.0
  1
Ｍ１２×３５　亜鉛めっき
 41
0.8
  7
EXT08
100
AcDbText
  0
TEXT
  5
5B2
330
18
100
AcDbEntity
  8
SUNPOU
100
AcDbText
 10
349.9352994835879
 20
34.17367850711168
 30
0.0
 40
3.0
  1
 ２０
 41
0.8
  7
EXT08
100
AcDbText
  0
TEXT
  5
5B3
330
18
100
AcDbEntity
  8
SUNPOU
100
AcDbText
 10
349.9352994835879
 20
39.57367850711163
 30
0.0
 40
3.0
  1
　３
 41
0.8
  7
EXT08
100
AcDbText
  0
TEXT
  5
5B4
330
18
100
AcDbEntity
  8
SUNPOU
100
AcDbText
 10
314.5203677508102
 20
39.57367850711163
 30
0.0
 40
3.0
  1
Ｍ１２×１１０　亜鉛めっき
 41
0.8
  7
EXT08
100
AcDbText
  0
TEXT
  5
5B5
330
18
100
AcDbEntity
  8
SUNPOU
100
AcDbText
 10
273.7783150914276
 20
39.57367850711163
 30
0.0
 40
3.0
  1
　取付ボルト
 41
0.8
  7
EXT08
100
AcDbText
  0
TEXT
  5
5B6
330
18
100
AcDbEntity
  8
SUNPOU
100
AcDbText
 10
297.2433914750615
 20
39.57367850711163
 30
0.0
 40
3.0
  1
4T相当品
 41
0.8
  7
EXT08
100
AcDbText
  0
TEXT
  5
5B7
330
18
100
AcDbEntity
  8
SUNPOU
100
AcDbText
 10
263.7987520384434
 20
39.57367850711163
 30
0.0
 40
3.0
  1
　８
 41
0.8
  7
EXT08
100
AcDbText
  0
LINE
  5
5BC
330
18
100
AcDbEntity
  8
SUNPOU
100
AcDbLine
 10
277.7264057199661
 20
87.78563040720474
 30
0.0
 11
325.942671755449
 21
87.78563040720474
 31
0.0
  0
TEXT
  5
5BD
330
18
100
AcDbEntity
  8
SUNPOU
100
AcDbText
 10
277.8707396952379
 20
88.5856907558375
 30
0.0
 40
3.0
  1
７７ＢＳ－２Ｃ 部材数量表　（スパン当たり）
 41
0.8
  7
EXT08
100
AcDbText
  0
LINE
  5
5E2
330
18
100
AcDbEntity
  8
CENTER
100
AcDbLine
 10
37.28229955375236
 20
199.4176795065856
 30
0.0
 11
37.28229955375236
 21
200.9176795065856
 31
0.0
  0
LINE
  5
5E3
330
18
100
AcDbEntity
  8
CENTER
100
AcDbLine
 10
36.53229955375235
 20
200.1676795065856
 30
0.0
 11
38.03229955375235
 21
200.1676795065856
 31
0.0
  0
LINE
  5
5E4
330
18
100
AcDbEntity
  8
CENTER
100
AcDbLine
 10
32.03229955375235
 20
200.1676795065856
 30
0.0
 11
30.53229955375235
 21
200.1676795065856
 31
0.0
  0
LINE
  5
5E5
330
18
100
AcDbEntity
  8
CENTER
100
AcDbLine
 10
31.28229955375235
 20
199.4176795065856
 30
0.0
 11
31.28229955375235
 21
200.9176795065856
 31
0.0
  0
LINE
  5
5E6
330
18
100
AcDbEntity
  8
CENTER
100
AcDbLine
 10
131.2822995537523
 20
199.4176795065856
 30
0.0
 11
131.2822995537523
 21
200.9176795065856
 31
0.0
  0
LINE
  5
5E7
330
18
100
AcDbEntity
  8
CENTER
100
AcDbLine
 10
132.0322995537523
 20
200.1676795065856
 30
0.0
 11
130.5322995537523
 21
200.1676795065856
 31
0.0
  0
LINE
  5
5E8
330
18
100
AcDbEntity
  8
CENTER
100
AcDbLine
 10
136.5322995537523
 20
200.1676795065856
 30
0.0
 11
138.0322995537523
 21
200.1676795065856
 31
0.0
  0
LINE
  5
5E9
330
18
100
AcDbEntity
  8
CENTER
100
AcDbLine
 10
137.2822995537523
 20
199.4176795065856
 30
0.0
 11
137.2822995537523
 21
200.9176795065856
 31
0.0
  0
LINE
  5
5EA
330
18
100
AcDbEntity
  8
CENTER
100
AcDbLine
 10
134.2822995537523
 20
199.4176795065856
 30
0.0
 11
134.2822995537523
 21
200.9176795065856
 31
0.0
  0
LINE
  5
5EB
330
18
100
AcDbEntity
  8
CENTER
100
AcDbLine
 10
133.5322995537523
 20
200.1676795065856
 30
0.0
 11
135.0322995537523
 21
200.1676795065856
 31
0.0
  0
LINE
  5
5EC
330
18
100
AcDbEntity
  8
CENTER
100
AcDbLine
 10
233.5322995537523
 20
200.1676795065856
 30
0.0
 11
235.0322995537523
 21
200.1676795065856
 31
0.0
  0
LINE
  5
5ED
330
18
100
AcDbEntity
  8
CENTER
100
AcDbLine
 10
234.2822995537523
 20
199.4176795065856
 30
0.0
 11
234.2822995537523
 21
200.9176795065856
 31
0.0
  0
LINE
  5
5EE
330
18
100
AcDbEntity
  8
CENTER
100
AcDbLine
 10
237.2822995537523
 20
199.4176795065856
 30
0.0
 11
237.2822995537523
 21
200.9176795065856
 31
0.0
  0
LINE
  5
5EF
330
18
100
AcDbEntity
  8
CENTER
100
AcDbLine
 10
236.5322995537523
 20
200.1676795065856
 30
0.0
 11
238.0322995537523
 21
200.1676795065856
 31
0.0
  0
LINE
  5
5F0
330
18
100
AcDbEntity
  8
CENTER
100
AcDbLine
 10
232.0322995537523
 20
200.1676795065856
 30
0.0
 11
230.5322995537523
 21
200.1676795065856
 31
0.0
  0
LINE
  5
5F1
330
18
100
AcDbEntity
  8
CENTER
100
AcDbLine
 10
231.2822995537523
 20
199.4176795065856
 30
0.0
 11
231.2822995537523
 21
200.9176795065856
 31
0.0
  0
LINE
  5
5FA
330
18
100
AcDbEntity
  8
KEN
100
AcDbLine
 10
24.28229955375235
 20
213.4176795065856
 30
0.0
 11
24.28229955375235
 21
169.7283864377523
 31
0.0
  0
ARC
  5
5FB
330
18
100
AcDbEntity
  8
KEN
100
AcDbCircle
 10
26.78229955375235
 20
213.4176795065856
 30
0.0
 40
2.5
100
AcDbArc
 50
90.00000000000003
 51
180.0
  0
DIMENSION
  5
5FC
330
18
100
AcDbEntity
  8
SUNPOU
100
AcDbDimension
  2
*D0
 10
24.28229955375235
 20
229.8630643078676
 30
0.0
 11
29.28229955375235
 21
232.5630643078675
 31
0.0
 70
    32
  1
200
 71
     5
 42
10.0
  3
SJC
100
AcDbAlignedDimension
 13
34.28229955375235
 23
217.4176795065857
 33
0.0
 14
24.28229955375235
 24
213.4176795065856
 34
0.0
100
AcDbRotatedDimension
1001
ACAD
1000
DSTYLE
1002
{
1070
    40
1040
1.0
1070
    41
1040
2.0
1070
    42
1040
1.0
1070
    43
1040
6.0
1070
    44
1040
1.0
1070
    73
1070
     0
1070
    74
1070
     0
1070
    77
1070
     3
1070
   140
1040
3.0
1070
   147
1040
1.199999999999999
1070
   172
1070
     1
1070
   176
1070
   256
1070
   177
1070
   256
1070
   340
1005
97C
1002
}
  0
LINE
  5
5FD
330
18
100
AcDbEntity
  8
HASEN
100
AcDbLine
 10
80.53229955375234
 20
215.6676795065857
 30
0.0
 11
88.03229955375234
 21
215.6676795065856
 31
0.0
  0
LINE
  5
5FE
330
18
100
AcDbEntity
  8
HASEN
100
AcDbLine
 10
80.53229955375234
 20
212.1676795065856
 30
0.0
 11
88.03229955375234
 21
212.1676795065856
 31
0.0
  0
LINE
  5
5FF
330
18
100
AcDbEntity
  8
HASEN
100
AcDbLine
 10
80.53229955375234
 20
215.6676795065856
 30
0.0
 11
80.53229955375234
 21
212.1676795065856
 31
0.0
  0
LINE
  5
600
330
18
100
AcDbEntity
  8
HASEN
100
AcDbLine
 10
88.03229955375234
 20
215.6676795065856
 30
0.0
 11
88.03229955375234
 21
212.1676795065856
 31
0.0
  0
LINE
  5
601
330
18
100
AcDbEntity
  8
CENTER
100
AcDbLine
 10
87.28229955375235
 20
213.1676795065857
 30
0.0
 11
87.28229955375235
 21
214.6676795065857
 31
0.0
  0
LINE
  5
602
330
18
100
AcDbEntity
  8
CENTER
100
AcDbLine
 10
86.53229955375236
 20
213.9176795065857
 30
0.0
 11
88.03229955375234
 21
213.9176795065857
 31
0.0
  0
LINE
  5
603
330
18
100
AcDbEntity
  8
CENTER
100
AcDbLine
 10
82.03229955375235
 20
213.9176795065857
 30
0.0
 11
80.53229955375234
 21
213.9176795065857
 31
0.0
  0
LINE
  5
604
330
18
100
AcDbEntity
  8
CENTER
100
AcDbLine
 10
81.28229955375235
 20
213.1676795065857
 30
0.0
 11
81.28229955375235
 21
214.6676795065857
 31
0.0
  0
LINE
  5
605
330
18
100
AcDbEntity
  8
CENTER
100
AcDbLine
 10
181.2822995537523
 20
213.1676795065857
 30
0.0
 11
181.2822995537523
 21
214.6676795065857
 31
0.0
  0
LINE
  5
606
330
18
100
AcDbEntity
  8
CENTER
100
AcDbLine
 10
182.0322995537523
 20
213.9176795065857
 30
0.0
 11
180.5322995537523
 21
213.9176795065857
 31
0.0
  0
LINE
  5
607
330
18
100
AcDbEntity
  8
CENTER
100
AcDbLine
 10
186.5322995537523
 20
213.9176795065857
 30
0.0
 11
188.0322995537523
 21
213.9176795065857
 31
0.0
  0
LINE
  5
608
330
18
100
AcDbEntity
  8
CENTER
100
AcDbLine
 10
187.2822995537523
 20
213.1676795065857
 30
0.0
 11
187.2822995537523
 21
214.6676795065857
 31
0.0
  0
LINE
  5
609
330
18
100
AcDbEntity
  8
HASEN
100
AcDbLine
 10
188.0322995537523
 20
215.6676795065856
 30
0.0
 11
188.0322995537523
 21
212.1676795065856
 31
0.0
  0
LINE
  5
60A
330
18
100
AcDbEntity
  8
HASEN
100
AcDbLine
 10
180.5322995537523
 20
215.6676795065856
 30
0.0
 11
180.5322995537523
 21
212.1676795065856
 31
0.0
  0
LINE
  5
60B
330
18
100
AcDbEntity
  8
HASEN
100
AcDbLine
 10
180.5322995537523
 20
212.1676795065856
 30
0.0
 11
188.0322995537523
 21
212.1676795065856
 31
0.0
  0
LINE
  5
60C
330
18
100
AcDbEntity
  8
HASEN
100
AcDbLine
 10
180.5322995537523
 20
215.6676795065857
 30
0.0
 11
188.0322995537523
 21
215.6676795065856
 31
0.0
  0
TEXT
  5
611
330
18
100
AcDbEntity
  8
SUNPOU
100
AcDbText
 10
263.7987520384434
 20
28.77367850711163
 30
0.0
 40
3.0
  1
 １０
 41
0.8
  7
EXT08
100
AcDbText
  0
LINE
  5
612
330
18
100
AcDbEntity
  8
SUNPOU
100
AcDbLine
 10
261.811575070502
 20
27.66854135464687
 30
0.0
 11
358.8273580006066
 21
27.66854135464689
 31
0.0
  0
LINE
  5
651
330
18
100
AcDbEntity
  8
KEN
100
AcDbLine
 10
97.23128416682079
 20
35.70955049833799
 30
0.0
 11
103.2174379090451
 21
32.35909330946743
 31
0.0
  0
LINE
  5
652
330
18
100
AcDbEntity
  8
KEN
100
AcDbLine
 10
97.38757371498969
 20
35.98878799068663
 30
0.0
 11
103.3650012855781
 21
32.64321485019636
 31
0.0
  0
LINE
  5
653
330
18
100
AcDbEntity
  8
KEN
100
AcDbLine
 10
102.1877504354793
 20
29.86418976287857
 30
0.0
 11
102.4669879278279
 21
29.70790021470967
 31
0.0
  0
LINE
  5
654
330
18
100
AcDbEntity
  8
KEN
100
AcDbLine
 10
103.6147392971932
 20
31.7585505491451
 30
0.0
 11
102.4669879278279
 21
29.70790021470967
 31
0.0
  0
LINE
  5
655
330
18
100
AcDbEntity
  8
KEN
100
AcDbLine
 10
103.3403858532248
 20
31.92356626894989
 30
0.0
 11
102.1877504354793
 21
29.86418976287857
 31
0.0
  0
ARC
  5
656
330
18
100
AcDbEntity
  8
KEN
100
AcDbCircle
 10
103.0611483608762
 20
32.07985581711878
 30
0.0
 40
0.32
100
AcDbArc
 50
330.7642099728554
 51
60.76420997285541
  0
LINE
  5
657
330
18
100
AcDbEntity
  8
CENTER
100
AcDbLine
 10
98.38343912554485
 20
30.84550269550039
 30
0.0
 11
101.0682100459678
 21
35.98670927614382
 31
0.0
  0
ARC
  5
658
330
18
100
AcDbEntity
  8
KEN
100
AcDbCircle
 10
100.9231293108685
 20
33.00106245590809
 30
0.0
 40
2.0
100
AcDbArc
 50
71.15244395007524
 51
81.49562626716905
  0
LINE
  5
659
330
18
100
AcDbEntity
  8
KEN
100
AcDbLine
 10
100.8886734800808
 20
34.34670545290868
 30
0.0
 11
101.2188991273731
 21
34.9790716104983
 31
0.0
  0
LINE
  5
65A
330
18
100
AcDbEntity
  8
KEN
100
AcDbLine
 10
99.82497556684434
 20
34.90217529851341
 30
0.0
 11
100.1552012141365
 21
35.53454145610303
 31
0.0
  0
ARC
  5
65B
330
18
100
AcDbEntity
  8
KEN
100
AcDbCircle
 10
98.7010131012213
 20
34.16146573632142
 30
0.0
 40
2.0
100
AcDbArc
 50
43.35667145413671
 51
53.69985377123056
  0
ARC
  5
65C
330
18
100
AcDbEntity
  8
KEN
100
AcDbCircle
 10
99.74499196765027
 20
33.45281059595365
 30
0.0
 40
2.121762239272342
100
AcDbArc
 50
45.99972745718038
 51
78.85257026412539
  0
LINE
  5
65D
330
18
100
AcDbEntity
  8
KEN
100
AcDbLine
 10
101.3140573829582
 20
33.86509509673596
 30
0.0
 11
101.4205224366991
 21
34.0689705301063
 31
0.0
  0
LINE
  5
65E
330
18
100
AcDbEntity
  8
KEN
100
AcDbLine
 10
101.569231935178
 20
34.89382535676498
 30
0.0
 11
101.6621065912217
 21
34.74762584149647
 31
0.0
  0
LINE
  5
65F
330
18
100
AcDbEntity
  8
KEN
100
AcDbLine
 10
101.3318809439294
 20
34.11525968390669
 30
0.0
 11
101.6621065912217
 21
34.74762584149647
 31
0.0
  0
LINE
  5
660
330
18
100
AcDbEntity
  8
KEN
100
AcDbLine
 10
99.38176810299575
 20
35.13362106751541
 30
0.0
 11
99.71199375028806
 21
35.76598722510516
 31
0.0
  0
LINE
  5
661
330
18
100
AcDbEntity
  8
KEN
100
AcDbLine
 10
99.88504357255346
 20
35.77331927897254
 30
0.0
 11
99.71199375028806
 21
35.76598722510516
 31
0.0
  0
LINE
  5
662
330
18
100
AcDbEntity
  8
KEN
100
AcDbLine
 10
99.18666155648509
 20
34.97603478794545
 30
0.0
 11
99.29312661022601
 21
35.17991022131579
 31
0.0
  0
LINE
  5
663
330
18
100
AcDbEntity
  8
KEN
100
AcDbLine
 10
99.88504357255346
 20
35.77331927897254
 30
0.0
 11
101.5692319351756
 21
34.89382535676623
 31
0.0
  0
LINE
  5
664
330
18
100
AcDbEntity
  8
KEN
100
AcDbLine
 10
99.29312661022601
 20
35.17991022131579
 30
0.0
 11
101.4205224366991
 21
34.0689705301063
 31
0.0
  0
LINE
  5
665
330
18
100
AcDbEntity
  8
KEN
100
AcDbLine
 10
98.38986799016357
 20
32.00279030519869
 30
0.0
 11
99.32946781352251
 21
31.5121252749145
 31
0.0
  0
LINE
  5
666
330
18
100
AcDbEntity
  8
KEN
100
AcDbLine
 10
99.42391926612163
 20
31.54177191219301
 30
0.0
 11
99.72479876582418
 21
32.11794161519615
 31
0.0
  0
LINE
  5
667
330
18
100
AcDbEntity
  8
KEN
100
AcDbLine
 10
99.32946781352251
 20
31.5121252749145
 30
0.0
 11
99.42391926612163
 21
31.54177191219301
 31
0.0
  0
ARC
  5
668
330
18
100
AcDbEntity
  8
KEN
100
AcDbCircle
 10
98.99695825220318
 20
34.72818639995921
 30
0.0
 40
2.0
100
AcDbArc
 50
251.1524439500752
 51
261.4956262671691
  0
LINE
  5
669
330
18
100
AcDbEntity
  8
KEN
100
AcDbLine
 10
98.58820661914222
 20
33.61398917196058
 30
0.0
 11
98.25798097184993
 21
32.9816230143708
 31
0.0
  0
LINE
  5
66A
330
18
100
AcDbEntity
  8
KEN
100
AcDbLine
 10
98.35085562789362
 20
32.83542349910226
 30
0.0
 11
100.0350439905158
 21
31.95592957689598
 31
0.0
  0
LINE
  5
66B
330
18
100
AcDbEntity
  8
KEN
100
AcDbLine
 10
98.36022135288505
 20
32.09724175779775
 30
0.0
 11
98.6611008525876
 21
32.67341146080088
 31
0.0
  0
LINE
  5
66C
330
18
100
AcDbEntity
  8
KEN
100
AcDbLine
 10
98.35085562789362
 20
32.83542349910226
 30
0.0
 11
98.25798097184993
 21
32.98162301437083
 31
0.0
  0
LINE
  5
66D
330
18
100
AcDbEntity
  8
KEN
100
AcDbLine
 10
98.38986799016357
 20
32.00279030519869
 30
0.0
 11
98.36022135288505
 21
32.09724175779775
 31
0.0
  0
LINE
  5
66E
330
18
100
AcDbEntity
  8
KEN
100
AcDbLine
 10
98.74489764151457
 20
34.13007823744047
 30
0.0
 11
98.63843258777365
 21
33.9262028040701
 31
0.0
  0
LINE
  5
66F
330
18
100
AcDbEntity
  8
KEN
100
AcDbLine
 10
98.63843258777365
 20
33.9262028040701
 30
0.0
 11
100.7658284142468
 21
32.81526311286063
 31
0.0
  0
LINE
  5
670
330
18
100
AcDbEntity
  8
KEN
100
AcDbLine
 10
98.58820661914222
 20
33.61398917196058
 30
0.0
 11
100.5383194600759
 21
32.59562778835186
 31
0.0
  0
LINE
  5
671
330
18
100
AcDbEntity
  8
KEN
100
AcDbLine
 10
98.61036699233466
 20
33.6024168835105
 30
0.0
 11
98.74923445373582
 21
33.8683413618196
 31
0.0
  0
ARC
  5
672
330
18
100
AcDbEntity
  8
KEN
100
AcDbCircle
 10
101.2190744618503
 20
33.56778311954588
 30
0.0
 40
2.0
100
AcDbArc
 50
223.3566714541368
 51
233.6998537712306
  0
LINE
  5
673
330
18
100
AcDbEntity
  8
KEN
100
AcDbLine
 10
100.0951119962273
 20
32.82707355735386
 30
0.0
 11
99.76488634893513
 21
32.19470739976424
 31
0.0
  0
LINE
  5
674
330
18
100
AcDbEntity
  8
KEN
100
AcDbLine
 10
99.03141408299081
 20
33.38254340295859
 30
0.0
 11
98.70118843569855
 21
32.750177245369
 31
0.0
  0
ARC
  5
675
330
18
100
AcDbEntity
  8
KEN
100
AcDbCircle
 10
100.1750955954214
 20
34.27643825991365
 30
0.0
 40
2.121762239272342
100
AcDbArc
 50
225.9997274571803
 51
258.8525702641254
  0
LINE
  5
676
330
18
100
AcDbEntity
  8
KEN
100
AcDbLine
 10
100.0350439905182
 20
31.95592957689476
 30
0.0
 11
100.2080938127836
 21
31.96326163076211
 31
0.0
  0
LINE
  5
677
330
18
100
AcDbEntity
  8
KEN
100
AcDbLine
 10
100.5383194600759
 20
32.59562778835186
 30
0.0
 11
100.2080938127836
 21
31.96326163076211
 31
0.0
  0
LINE
  5
678
330
18
100
AcDbEntity
  8
KEN
100
AcDbLine
 10
100.8722934679877
 20
33.01913854623098
 30
0.0
 11
100.7658284142468
 21
32.81526311286063
 31
0.0
  0
LINE
  5
679
330
18
100
AcDbEntity
  8
KEN
100
AcDbLine
 10
100.9851074430387
 20
33.27027275737618
 30
0.0
 11
100.8567762013742
 21
32.97713270140827
 31
0.0
  0
LINE
  5
67A
330
18
100
AcDbEntity
  8
KEN
100
AcDbLine
 10
98.74530387221273
 20
85.1821960237889
 30
0.0
 11
102.8118771331492
 21
82.96432819701101
 31
0.0
  0
LINE
  5
67B
330
18
100
AcDbEntity
  8
KEN
100
AcDbLine
 10
98.49279755618425
 20
84.71921287367456
 30
0.0
 11
98.74530387221273
 21
85.1821960237889
 31
0.0
  0
ARC
  5
67C
330
18
100
AcDbEntity
  8
KEN
100
AcDbCircle
 10
103.04753814086
 20
32.07601369386316
 30
0.0
 40
0.65
100
AcDbArc
 50
330.7642099728553
 51
60.76420997285533
  0
LINE
  5
67D
330
18
100
AcDbEntity
  8
KEN
100
AcDbLine
 10
144.0693812051893
 20
29.86418976287857
 30
0.0
 11
193.8193812051893
 21
29.86418976287857
 31
0.0
  0
LINE
  5
67E
330
18
100
AcDbEntity
  8
KEN
100
AcDbLine
 10
194.3193812051894
 20
29.86418976287857
 30
0.0
 11
244.0693812051893
 21
29.86418976287857
 31
0.0
  0
LINE
  5
67F
330
18
100
AcDbEntity
  8
KEN
100
AcDbLine
 10
24.28229955375235
 20
169.7283864377523
 30
0.0
 11
240.9238658802055
 21
169.7283864377523
 31
0.0
  0
LINE
  5
684
330
18
100
AcDbEntity
  8
KEN
100
AcDbLine
 10
240.9238658802054
 20
165.9176795065865
 30
0.0
 11
24.28229955375235
 21
165.9176795065856
 31
0.0
  0
LINE
  5
685
330
18
100
AcDbEntity
  8
SUNPOU
100
AcDbLine
 10
261.811575070502
 20
16.86854135464689
 30
0.0
 11
358.8273580006066
 21
16.86854135464689
 31
0.0
  0
LINE
  5
686
330
18
100
AcDbEntity
  8
SUNPOU
100
AcDbLine
 10
261.811575070502
 20
22.2685413546469
 30
0.0
 11
358.8273580006066
 21
22.2685413546469
 31
0.0
  0
TEXT
  5
687
330
18
100
AcDbEntity
  8
SUNPOU
100
AcDbText
 10
263.7987520384434
 20
23.37367850711159
 30
0.0
 40
3.0
  1
 １１
 41
0.8
  7
EXT08
100
AcDbText
  0
TEXT
  5
688
330
18
100
AcDbEntity
  8
SUNPOU
100
AcDbText
 10
263.7987520384434
 20
17.97367850711163
 30
0.0
 40
3.0
  1
 １２
 41
0.8
  7
EXT08
100
AcDbText
  0
TEXT
  5
689
330
18
100
AcDbEntity
  8
SUNPOU
100
AcDbText
 10
273.7783150914276
 20
28.77367850711158
 30
0.0
 40
3.0
  1
大レールアングル
 41
0.8
  7
EXT08
100
AcDbText
  0
TEXT
  5
68A
330
18
100
AcDbEntity
  8
SUNPOU
100
AcDbText
 10
273.7783150914276
 20
23.37367850711162
 30
0.0
 40
3.0
  1
小レールアングル
 41
0.8
  7
EXT08
100
AcDbText
  0
TEXT
  5
68D
330
18
100
AcDbEntity
  8
SUNPOU
100
AcDbText
 10
297.2433914750615
 20
28.77367850711158
 30
0.0
 40
3.0
  1
 SS400
 41
0.8
  7
EXT08
100
AcDbText
  0
TEXT
  5
68E
330
18
100
AcDbEntity
  8
SUNPOU
100
AcDbText
 10
297.2433914750615
 20
23.37367850711162
 30
0.0
 40
3.0
  1
 SS400
 41
0.8
  7
EXT08
100
AcDbText
  0
TEXT
  5
68F
330
18
100
AcDbEntity
  8
SUNPOU
100
AcDbText
 10
349.9352994835879
 20
28.77367850711158
 30
0.0
 40
3.0
  1
　１
 41
0.8
  7
EXT08
100
AcDbText
  0
TEXT
  5
690
330
18
100
AcDbEntity
  8
SUNPOU
100
AcDbText
 10
349.9352994835879
 20
23.37367850711162
 30
0.0
 40
3.0
  1
　１
 41
0.8
  7
EXT08
100
AcDbText
  0
LINE
  5
691
330
18
100
AcDbEntity
  8
KEN
100
AcDbLine
 10
97.38757371498969
 20
35.98878799068663
 30
0.0
 11
97.23128416682079
 21
35.70955049833799
 31
0.0
  0
LINE
  5
692
330
18
100
AcDbEntity
  8
KEN
100
AcDbLine
 10
100.5161590868834
 20
32.60720007680197
 30
0.0
 11
100.6550265482846
 21
32.87312455511108
 31
0.0
  0
ARC
  5
693
330
18
100
AcDbEntity
  8
KEN
100
AcDbCircle
 10
102.8292367200134
 20
82.95486045433873
 30
0.0
 40
0.35
100
AcDbArc
 50
244.2337473184005
 51
337.2555613038323
  0
LINE
  5
694
330
18
100
AcDbEntity
  8
KEN
100
AcDbLine
 10
144.0693812051893
 20
85.1821960237889
 30
0.0
 11
193.8193812051893
 21
85.1821960237889
 31
0.0
  0
LINE
  5
695
330
18
100
AcDbEntity
  8
KEN
100
AcDbLine
 10
244.0693812051893
 20
85.1821960237889
 30
0.0
 11
194.3193812051893
 21
85.1821960237889
 31
0.0
  0
LINE
  5
696
330
18
100
AcDbEntity
  8
CENTER
100
AcDbLine
 10
186.5693812051893
 20
34.11041966467096
 30
0.0
 11
189.5693812051893
 21
34.11041966467096
 31
0.0
  0
LINE
  5
697
330
18
100
AcDbEntity
  8
CENTER
100
AcDbLine
 10
188.0693812051893
 20
32.61041966467096
 30
0.0
 11
188.0693812051893
 21
35.61041966467096
 31
0.0
  0
LINE
  5
698
330
18
100
AcDbEntity
  8
KEN
100
AcDbLine
 10
193.8193812051893
 20
34.76890888008376
 30
0.0
 11
194.3193812051893
 21
34.76890888008376
 31
0.0
  0
LINE
  5
699
330
18
100
AcDbEntity
  8
CENTER
100
AcDbLine
 10
200.0693812051893
 20
32.61041966467096
 30
0.0
 11
200.0693812051893
 21
35.61041966467096
 31
0.0
  0
LINE
  5
69A
330
18
100
AcDbEntity
  8
CENTER
100
AcDbLine
 10
198.5693812051893
 20
34.11041966467096
 30
0.0
 11
201.5693812051893
 21
34.11041966467096
 31
0.0
  0
LINE
  5
69B
330
18
100
AcDbEntity
  8
CENTER
100
AcDbLine
 10
230.5322995537523
 20
171.9933874619372
 30
0.0
 11
232.0322995537523
 21
171.9933874619372
 31
0.0
  0
LINE
  5
69C
330
18
100
AcDbEntity
  8
CENTER
100
AcDbLine
 10
231.2822995537524
 20
171.2433874619372
 30
0.0
 11
231.2822995537524
 21
172.7433874619372
 31
0.0
  0
LINE
  5
69D
330
18
100
AcDbEntity
  8
CENTER
100
AcDbLine
 10
237.2822995537524
 20
171.2433874619372
 30
0.0
 11
237.2822995537524
 21
172.7433874619372
 31
0.0
  0
LINE
  5
69E
330
18
100
AcDbEntity
  8
CENTER
100
AcDbLine
 10
236.5322995537523
 20
171.9933874619372
 30
0.0
 11
238.0322995537524
 21
171.9933874619372
 31
0.0
  0
LINE
  5
6AB
330
18
100
AcDbEntity
  8
CENTER
100
AcDbLine
 10
83.53229955375232
 20
171.9933874619372
 30
0.0
 11
85.03229955375232
 21
171.9933874619372
 31
0.0
  0
LINE
  5
6AC
330
18
100
AcDbEntity
  8
CENTER
100
AcDbLine
 10
84.28229955375233
 20
171.2433874619372
 30
0.0
 11
84.28229955375233
 21
172.7433874619372
 31
0.0
  0
LINE
  5
6AD
330
18
100
AcDbEntity
  8
CENTER
100
AcDbLine
 10
85.03229955375232
 20
196.6721027473409
 30
0.0
 11
83.53229955375232
 21
196.6721027473409
 31
0.0
  0
LINE
  5
6AE
330
18
100
AcDbEntity
  8
CENTER
100
AcDbLine
 10
84.28229955375233
 20
195.9221027473409
 30
0.0
 11
84.28229955375233
 21
197.4221027473409
 31
0.0
  0
LINE
  5
6AF
330
18
100
AcDbEntity
  8
CENTER
100
AcDbLine
 10
130.5322995537523
 20
171.9933874619372
 30
0.0
 11
132.0322995537523
 21
171.9933874619372
 31
0.0
  0
LINE
  5
6B0
330
18
100
AcDbEntity
  8
CENTER
100
AcDbLine
 10
131.2822995537523
 20
171.2433874619372
 30
0.0
 11
131.2822995537523
 21
172.7433874619372
 31
0.0
  0
LINE
  5
6B1
330
18
100
AcDbEntity
  8
CENTER
100
AcDbLine
 10
137.2822995537523
 20
171.2433874619372
 30
0.0
 11
137.2822995537523
 21
172.7433874619372
 31
0.0
  0
LINE
  5
6B2
330
18
100
AcDbEntity
  8
CENTER
100
AcDbLine
 10
136.5322995537523
 20
171.9933874619372
 30
0.0
 11
138.0322995537523
 21
171.9933874619372
 31
0.0
  0
LINE
  5
6B3
330
18
100
AcDbEntity
  8
CENTER
100
AcDbLine
 10
31.28229955375235
 20
171.2433874619372
 30
0.0
 11
31.28229955375235
 21
172.7433874619372
 31
0.0
  0
LINE
  5
6B4
330
18
100
AcDbEntity
  8
CENTER
100
AcDbLine
 10
30.53229955375235
 20
171.9933874619372
 30
0.0
 11
32.03229955375235
 21
171.9933874619372
 31
0.0
  0
LINE
  5
6B5
330
18
100
AcDbEntity
  8
CENTER
100
AcDbLine
 10
37.28229955375236
 20
171.2433874619372
 30
0.0
 11
37.28229955375236
 21
172.7433874619372
 31
0.0
  0
LINE
  5
6B6
330
18
100
AcDbEntity
  8
CENTER
100
AcDbLine
 10
36.53229955375235
 20
171.9933874619372
 30
0.0
 11
38.03229955375235
 21
171.9933874619372
 31
0.0
  0
LINE
  5
6B7
330
18
100
AcDbEntity
  8
KEN
100
AcDbLine
 10
240.9238658802055
 20
172.9248147430413
 30
0.0
 11
24.28229955375235
 21
172.9248147430413
 31
0.0
  0
LINE
  5
6B8
330
18
100
AcDbEntity
  8
KEN
100
AcDbLine
 10
144.0693812051893
 20
35.98878799068666
 30
0.0
 11
193.8193812051893
 21
35.98878799068666
 31
0.0
  0
LINE
  5
6B9
330
18
100
AcDbEntity
  8
KEN
100
AcDbLine
 10
194.3193812051893
 20
35.98878799068666
 30
0.0
 11
244.0693812051893
 21
35.98878799068663
 31
0.0
  0
LINE
  5
6BA
330
18
100
AcDbEntity
  8
KEN
100
AcDbLine
 10
188.0693812051893
 20
48.95334765440987
 30
0.0
 11
187.1193812051894
 21
49.50183041014003
 31
0.0
  0
LINE
  5
6BB
330
18
100
AcDbEntity
  8
KEN
100
AcDbLine
 10
188.0644886024309
 20
49.25484244872541
 30
0.0
 11
187.1144886024309
 21
49.80332520445552
 31
0.0
  0
LINE
  5
6BC
330
18
100
AcDbEntity
  8
KEN
100
AcDbLine
 10
187.1193812051893
 20
50.79086760317955
 30
0.0
 11
188.0693812051893
 21
51.33935035890968
 31
0.0
  0
LINE
  5
6BD
330
18
100
AcDbEntity
  8
KEN
100
AcDbLine
 10
187.1193812051893
 20
49.50183041014003
 30
0.0
 11
187.1193812051893
 21
50.79086760317955
 31
0.0
  0
LINE
  5
6BE
330
18
100
AcDbEntity
  8
KEN
100
AcDbLine
 10
188.0693812051893
 20
49.25766719424498
 30
0.0
 11
188.0693812051894
 21
48.95334765440989
 31
0.0
  0
LINE
  5
6BF
330
18
100
AcDbEntity
  8
KEN
100
AcDbLine
 10
189.0193812051893
 20
50.79086760317955
 30
0.0
 11
189.0193812051893
 21
49.50183041013997
 31
0.0
  0
LINE
  5
6C0
330
18
100
AcDbEntity
  8
KEN
100
AcDbLine
 10
189.0193812051894
 20
49.50183041014003
 30
0.0
 11
188.0693812051893
 21
48.95334765440987
 31
0.0
  0
LINE
  5
6C1
330
18
100
AcDbEntity
  8
KEN
100
AcDbLine
 10
189.0144886024309
 20
49.80332520445552
 30
0.0
 11
188.0644886024309
 21
49.25484244872541
 31
0.0
  0
LINE
  5
6C2
330
18
100
AcDbEntity
  8
KEN
100
AcDbLine
 10
188.0693812051893
 20
51.33935035890968
 30
0.0
 11
189.0193812051893
 21
50.79086760317955
 31
0.0
  0
LINE
  5
6C3
330
18
100
AcDbEntity
  8
KEN
100
AcDbLine
 10
200.0693812051893
 20
51.33935035890968
 30
0.0
 11
199.1193812051893
 21
50.79086760317955
 31
0.0
  0
LINE
  5
6C4
330
18
100
AcDbEntity
  8
KEN
100
AcDbLine
 10
199.1242738079477
 20
49.80332520445552
 30
0.0
 11
200.0742738079477
 21
49.25484244872541
 31
0.0
  0
LINE
  5
6C5
330
18
100
AcDbEntity
  8
KEN
100
AcDbLine
 10
199.1193812051893
 20
50.79086760317955
 30
0.0
 11
199.1193812051893
 21
49.50183041013997
 31
0.0
  0
LINE
  5
6C6
330
18
100
AcDbEntity
  8
KEN
100
AcDbLine
 10
201.0193812051893
 20
50.79086760317955
 30
0.0
 11
200.0693812051893
 21
51.33935035890968
 31
0.0
  0
LINE
  5
6C7
330
18
100
AcDbEntity
  8
KEN
100
AcDbLine
 10
200.0742738079477
 20
49.25484244872541
 30
0.0
 11
201.0242738079477
 21
49.80332520445552
 31
0.0
  0
LINE
  5
6C8
330
18
100
AcDbEntity
  8
KEN
100
AcDbLine
 10
201.0193812051893
 20
49.50183041014003
 30
0.0
 11
201.0193812051894
 21
50.79086760317955
 31
0.0
  0
LINE
  5
6C9
330
18
100
AcDbEntity
  8
KEN
100
AcDbLine
 10
199.1193812051893
 20
49.50183041014003
 30
0.0
 11
200.0693812051893
 21
48.95334765440987
 31
0.0
  0
LINE
  5
6CA
330
18
100
AcDbEntity
  8
KEN
100
AcDbLine
 10
200.0693812051893
 20
49.25766719424501
 30
0.0
 11
200.0693812051893
 21
48.95334765440989
 31
0.0
  0
LINE
  5
6CB
330
18
100
AcDbEntity
  8
KEN
100
AcDbLine
 10
200.0693812051893
 20
48.95334765440987
 30
0.0
 11
201.0193812051893
 21
49.50183041014003
 31
0.0
  0
LINE
  5
6CC
330
18
100
AcDbEntity
  8
KEN
100
AcDbLine
 10
188.0693812051893
 20
36.28982863598228
 30
0.0
 11
187.1193812051892
 21
36.44566693052894
 31
0.0
  0
LINE
  5
6CD
330
18
100
AcDbEntity
  8
KEN
100
AcDbLine
 10
188.0693812051893
 20
36.79770235476974
 30
0.0
 11
187.1193812051892
 21
36.95354064931644
 31
0.0
  0
LINE
  5
6CE
330
18
100
AcDbEntity
  8
KEN
100
AcDbLine
 10
188.0693812051893
 20
37.93331437979992
 30
0.0
 11
187.1193812051892
 21
37.77747608525323
 31
0.0
  0
LINE
  5
6CF
330
18
100
AcDbEntity
  8
KEN
100
AcDbLine
 10
187.1193812051893
 20
36.44566693052894
 30
0.0
 11
187.1193812051893
 21
37.77747608525323
 31
0.0
  0
LINE
  5
6D0
330
18
100
AcDbEntity
  8
KEN
100
AcDbLine
 10
188.0693812051893
 20
36.79770235476974
 30
0.0
 11
188.0693812051893
 21
36.28982863598228
 31
0.0
  0
LINE
  5
6D1
330
18
100
AcDbEntity
  8
KEN
100
AcDbLine
 10
188.0693812051893
 20
36.28982863598228
 30
0.0
 11
189.0193812051893
 21
36.44566693052894
 31
0.0
  0
LINE
  5
6D2
330
18
100
AcDbEntity
  8
KEN
100
AcDbLine
 10
188.0693812051893
 20
36.79770235476974
 30
0.0
 11
189.0193812051893
 21
36.95354064931644
 31
0.0
  0
LINE
  5
6D3
330
18
100
AcDbEntity
  8
KEN
100
AcDbLine
 10
188.0693812051893
 20
37.93331437979992
 30
0.0
 11
189.0193812051893
 21
37.77747608525323
 31
0.0
  0
LINE
  5
6D4
330
18
100
AcDbEntity
  8
KEN
100
AcDbLine
 10
189.0193812051893
 20
37.77747608525323
 30
0.0
 11
189.0193812051893
 21
36.44566693052894
 31
0.0
  0
LINE
  5
6D5
330
18
100
AcDbEntity
  8
KEN
100
AcDbLine
 10
188.0693812051893
 20
36.79770235476974
 30
0.0
 11
188.0693812051893
 21
36.2898286359823
 31
0.0
  0
LINE
  5
6D6
330
18
100
AcDbEntity
  8
KEN
100
AcDbLine
 10
200.0693812051893
 20
37.93331437979992
 30
0.0
 11
199.1193812051892
 21
37.77747608525323
 31
0.0
  0
LINE
  5
6D7
330
18
100
AcDbEntity
  8
KEN
100
AcDbLine
 10
200.0693812051893
 20
36.79770235476974
 30
0.0
 11
199.1193812051892
 21
36.95354064931644
 31
0.0
  0
LINE
  5
6D8
330
18
100
AcDbEntity
  8
KEN
100
AcDbLine
 10
200.0693812051893
 20
36.28982863598228
 30
0.0
 11
199.1193812051892
 21
36.44566693052894
 31
0.0
  0
LINE
  5
6D9
330
18
100
AcDbEntity
  8
KEN
100
AcDbLine
 10
199.1193812051893
 20
37.77747608525323
 30
0.0
 11
199.1193812051893
 21
36.44566693052894
 31
0.0
  0
LINE
  5
6DA
330
18
100
AcDbEntity
  8
KEN
100
AcDbLine
 10
200.0693812051893
 20
36.79770235476974
 30
0.0
 11
200.0693812051893
 21
36.2898286359823
 31
0.0
  0
LINE
  5
6DB
330
18
100
AcDbEntity
  8
KEN
100
AcDbLine
 10
201.0193812051893
 20
36.44566693052894
 30
0.0
 11
201.0193812051893
 21
37.77747608525323
 31
0.0
  0
LINE
  5
6DC
330
18
100
AcDbEntity
  8
KEN
100
AcDbLine
 10
200.0693812051893
 20
37.93331437979992
 30
0.0
 11
201.0193812051893
 21
37.77747608525323
 31
0.0
  0
LINE
  5
6DD
330
18
100
AcDbEntity
  8
KEN
100
AcDbLine
 10
200.0693812051893
 20
36.79770235476974
 30
0.0
 11
201.0193812051893
 21
36.95354064931644
 31
0.0
  0
LINE
  5
6DE
330
18
100
AcDbEntity
  8
KEN
100
AcDbLine
 10
200.0693812051893
 20
36.28982863598228
 30
0.0
 11
201.0193812051893
 21
36.44566693052894
 31
0.0
  0
LINE
  5
6DF
330
18
100
AcDbEntity
  8
KEN
100
AcDbLine
 10
200.0693812051894
 20
33.81596161552077
 30
0.0
 11
199.1193812051893
 21
33.97179991006743
 31
0.0
  0
LINE
  5
6E0
330
18
100
AcDbEntity
  8
KEN
100
AcDbLine
 10
200.0693812051894
 20
34.32383533430823
 30
0.0
 11
199.1193812051893
 21
34.47967362885492
 31
0.0
  0
LINE
  5
6E1
330
18
100
AcDbEntity
  8
KEN
100
AcDbLine
 10
200.0693812051894
 20
35.45944735933839
 30
0.0
 11
199.1193812051893
 21
35.30360906479172
 31
0.0
  0
LINE
  5
6E2
330
18
100
AcDbEntity
  8
KEN
100
AcDbLine
 10
199.1193812051893
 20
35.30360906479172
 30
0.0
 11
199.1193812051893
 21
33.97179991006743
 31
0.0
  0
LINE
  5
6E3
330
18
100
AcDbEntity
  8
KEN
100
AcDbLine
 10
200.0693812051894
 20
33.81596161552077
 30
0.0
 11
201.0193812051894
 21
33.97179991006743
 31
0.0
  0
LINE
  5
6E4
330
18
100
AcDbEntity
  8
KEN
100
AcDbLine
 10
200.0693812051894
 20
34.32383533430823
 30
0.0
 11
201.0193812051894
 21
34.47967362885492
 31
0.0
  0
LINE
  5
6E5
330
18
100
AcDbEntity
  8
KEN
100
AcDbLine
 10
200.0693812051894
 20
35.45944735933839
 30
0.0
 11
201.0193812051894
 21
35.30360906479172
 31
0.0
  0
LINE
  5
6E6
330
18
100
AcDbEntity
  8
KEN
100
AcDbLine
 10
201.0193812051894
 20
33.97179991006743
 30
0.0
 11
201.0193812051894
 21
35.30360906479172
 31
0.0
  0
LINE
  5
6E7
330
18
100
AcDbEntity
  8
KEN
100
AcDbLine
 10
200.0693812051894
 20
34.32383533430823
 30
0.0
 11
200.0693812051894
 21
33.81596161552077
 31
0.0
  0
LINE
  5
6E8
330
18
100
AcDbEntity
  8
KEN
100
AcDbLine
 10
188.0693812051893
 20
35.45944735933839
 30
0.0
 11
187.1193812051893
 21
35.30360906479172
 31
0.0
  0
LINE
  5
6E9
330
18
100
AcDbEntity
  8
KEN
100
AcDbLine
 10
188.0693812051893
 20
34.32383533430823
 30
0.0
 11
187.1193812051893
 21
34.47967362885492
 31
0.0
  0
LINE
  5
6EA
330
18
100
AcDbEntity
  8
KEN
100
AcDbLine
 10
188.0693812051893
 20
33.81596161552077
 30
0.0
 11
187.1193812051893
 21
33.97179991006743
 31
0.0
  0
LINE
  5
6EB
330
18
100
AcDbEntity
  8
KEN
100
AcDbLine
 10
187.1193812051893
 20
33.97179991006743
 30
0.0
 11
187.1193812051893
 21
35.30360906479172
 31
0.0
  0
LINE
  5
6EC
330
18
100
AcDbEntity
  8
KEN
100
AcDbLine
 10
188.0693812051893
 20
34.32383533430823
 30
0.0
 11
188.0693812051893
 21
33.81596161552077
 31
0.0
  0
LINE
  5
6ED
330
18
100
AcDbEntity
  8
KEN
100
AcDbLine
 10
189.0193812051893
 20
35.30360906479172
 30
0.0
 11
189.0193812051893
 21
33.97179991006743
 31
0.0
  0
LINE
  5
6EE
330
18
100
AcDbEntity
  8
KEN
100
AcDbLine
 10
188.0693812051893
 20
35.45944735933839
 30
0.0
 11
189.0193812051894
 21
35.30360906479172
 31
0.0
  0
LINE
  5
6EF
330
18
100
AcDbEntity
  8
KEN
100
AcDbLine
 10
188.0693812051893
 20
34.32383533430823
 30
0.0
 11
189.0193812051894
 21
34.47967362885492
 31
0.0
  0
LINE
  5
6F0
330
18
100
AcDbEntity
  8
KEN
100
AcDbLine
 10
188.0693812051893
 20
33.81596161552077
 30
0.0
 11
189.0193812051894
 21
33.97179991006743
 31
0.0
  0
LINE
  5
6F1
330
18
100
AcDbEntity
  8
KEN
100
AcDbLine
 10
188.0693812051894
 20
34.32383533430823
 30
0.0
 11
188.0693812051893
 21
33.81596161552077
 31
0.0
  0
LINE
  5
6F2
330
18
100
AcDbEntity
  8
KEN
100
AcDbLine
 10
304.8680878278659
 20
216.4176795065857
 30
0.0
 11
304.868087827866
 21
140.9176795065856
 31
0.0
  0
LINE
  5
6F3
330
18
100
AcDbEntity
  8
KEN
100
AcDbLine
 10
304.6430878278659
 20
215.9176795065857
 30
0.0
 11
304.6430878278659
 21
195.4176795065857
 31
0.0
  0
LINE
  5
6F4
330
18
100
AcDbEntity
  8
KEN
100
AcDbLine
 10
304.4430878278658
 20
215.9176795065857
 30
0.0
 11
304.4430878278658
 21
195.4176795065857
 31
0.0
  0
ARC
  5
6F5
330
18
100
AcDbEntity
  8
KEN
100
AcDbCircle
 10
282.132577023097
 20
211.9176795065857
 30
0.0
 40
17.11051080476896
100
AcDbArc
 50
292.5456823752585
 51
0.000000000000007
  0
ARC
  5
6F6
330
18
100
AcDbEntity
  8
KEN
100
AcDbCircle
 10
282.132577023097
 20
211.9176795065857
 30
0.0
 40
17.31051080476896
100
AcDbArc
 50
292.5456823752585
 51
0.000000000000007
  0
LINE
  5
6F8
330
18
100
AcDbEntity
  8
SUNPOU
100
AcDbLine
 10
304.2830878278659
 20
203.0976795065857
 30
0.0
 11
304.2830878278659
 21
197.2376795065856
 31
0.0
  0
LINE
  5
702
330
18
100
AcDbEntity
  8
KEN
100
AcDbLine
 10
319.275587827866
 20
165.9176795065856
 30
0.0
 11
319.275587827866
 21
140.9176795065856
 31
0.0
  0
LINE
  5
703
330
18
100
AcDbEntity
  8
KEN
100
AcDbLine
 10
294.275587827866
 20
165.9176795065856
 30
0.0
 11
294.275587827866
 21
140.9176795065856
 31
0.0
  0
LINE
  5
704
330
18
100
AcDbEntity
  8
KEN
100
AcDbLine
 10
321.775587827866
 20
138.4176795065856
 30
0.0
 11
291.775587827866
 21
138.4176795065856
 31
0.0
  0
LINE
  5
705
330
18
100
AcDbEntity
  8
KEN
100
AcDbLine
 10
321.775587827866
 20
140.9176795065856
 30
0.0
 11
291.775587827866
 21
140.9176795065856
 31
0.0
  0
LINE
  5
709
330
18
100
AcDbEntity
  8
KEN
100
AcDbLine
 10
293.4543361387117
 20
140.5494863846803
 30
0.0
 11
293.011513054575
 21
140.9001810107846
 31
0.0
  0
LINE
  5
70A
330
18
100
AcDbEntity
  8
KEN
100
AcDbLine
 10
292.9192582453799
 20
138.666809970857
 30
0.0
 11
293.5834928715848
 21
139.958842803873
 31
0.0
  0
LINE
  5
70B
330
18
100
AcDbEntity
  8
KEN
100
AcDbLine
 10
292.3103765046921
 20
138.4084034042538
 30
0.0
 11
292.9192582453799
 21
138.666809970857
 31
0.0
  0
LINE
  5
70C
330
18
100
AcDbEntity
  8
KEN
100
AcDbLine
 10
292.1627688099799
 20
138.5191490756552
 30
0.0
 11
292.3103765046921
 21
138.4084034042538
 31
0.0
  0
LINE
  5
70D
330
18
100
AcDbEntity
  8
KEN
100
AcDbLine
 10
291.8122005350385
 20
139.0359622088616
 30
0.0
 11
292.1627688099799
 21
138.5191490756552
 31
0.0
  0
LINE
  5
70E
330
18
100
AcDbEntity
  8
KEN
100
AcDbLine
 10
291.7752986113604
 20
139.8665547443718
 30
0.0
 11
291.8122005350385
 21
139.0359622088616
 31
0.0
  0
LINE
  5
70F
330
18
100
AcDbEntity
  8
KEN
100
AcDbLine
 10
291.9598082297507
 20
140.3095374299773
 30
0.0
 11
291.7752986113604
 21
139.8665547443718
 31
0.0
  0
LINE
  5
710
330
18
100
AcDbEntity
  8
KEN
100
AcDbLine
 10
292.4579841994043
 20
140.6602320560816
 30
0.0
 11
291.9598082297507
 21
140.3095374299773
 31
0.0
  0
LINE
  5
711
330
18
100
AcDbEntity
  8
KEN
100
AcDbLine
 10
292.956160169058
 20
140.9001810107846
 30
0.0
 11
292.4579841994043
 21
140.6602320560816
 31
0.0
  0
LINE
  5
712
330
18
100
AcDbEntity
  8
KEN
100
AcDbLine
 10
291.775587827866
 20
140.9176795065856
 30
0.0
 11
291.775587827866
 21
138.4176795065856
 31
0.0
  0
LINE
  5
713
330
18
100
AcDbEntity
  8
KEN
100
AcDbLine
 10
296.9969208118045
 20
140.5494863846803
 30
0.0
 11
296.5540977276678
 21
140.9001810107846
 31
0.0
  0
LINE
  5
714
330
18
100
AcDbEntity
  8
KEN
100
AcDbLine
 10
297.1260775446777
 20
139.958842803873
 30
0.0
 11
296.9969208118045
 21
140.5494863846803
 31
0.0
  0
LINE
  5
715
330
18
100
AcDbEntity
  8
KEN
100
AcDbLine
 10
296.4618429184728
 20
138.666809970857
 30
0.0
 11
297.1260775446777
 21
139.958842803873
 31
0.0
  0
LINE
  5
716
330
18
100
AcDbEntity
  8
KEN
100
AcDbLine
 10
295.852961177785
 20
138.4084034042538
 30
0.0
 11
296.4618429184728
 21
138.666809970857
 31
0.0
  0
LINE
  5
717
330
18
100
AcDbEntity
  8
KEN
100
AcDbLine
 10
295.7053534830728
 20
138.5191490756552
 30
0.0
 11
295.852961177785
 21
138.4084034042538
 31
0.0
  0
LINE
  5
718
330
18
100
AcDbEntity
  8
KEN
100
AcDbLine
 10
295.3547852081312
 20
139.0359622088616
 30
0.0
 11
295.7053534830728
 21
138.5191490756552
 31
0.0
  0
LINE
  5
719
330
18
100
AcDbEntity
  8
KEN
100
AcDbLine
 10
295.3178832844532
 20
139.8665547443718
 30
0.0
 11
295.3547852081312
 21
139.0359622088616
 31
0.0
  0
LINE
  5
71A
330
18
100
AcDbEntity
  8
KEN
100
AcDbLine
 10
295.5023929028435
 20
140.3095374299773
 30
0.0
 11
295.3178832844532
 21
139.8665547443718
 31
0.0
  0
LINE
  5
71B
330
18
100
AcDbEntity
  8
KEN
100
AcDbLine
 10
296.0005688724971
 20
140.6602320560816
 30
0.0
 11
295.5023929028435
 21
140.3095374299773
 31
0.0
  0
LINE
  5
71C
330
18
100
AcDbEntity
  8
KEN
100
AcDbLine
 10
296.4987448421508
 20
140.9001810107846
 30
0.0
 11
296.0005688724971
 21
140.6602320560816
 31
0.0
  0
LINE
  5
71D
330
18
100
AcDbEntity
  8
KEN
100
AcDbLine
 10
294.7090015437654
 20
140.9001810107846
 30
0.0
 11
294.2108255741117
 21
140.6602320560816
 31
0.0
  0
LINE
  5
71E
330
18
100
AcDbEntity
  8
KEN
100
AcDbLine
 10
294.2108255741117
 20
140.6602320560816
 30
0.0
 11
293.712649604458
 21
140.3095374299773
 31
0.0
  0
LINE
  5
71F
330
18
100
AcDbEntity
  8
KEN
100
AcDbLine
 10
293.712649604458
 20
140.3095374299773
 30
0.0
 11
293.5281399860678
 21
139.8665547443718
 31
0.0
  0
LINE
  5
720
330
18
100
AcDbEntity
  8
KEN
100
AcDbLine
 10
293.5281399860678
 20
139.8665547443718
 30
0.0
 11
293.5650419097458
 21
139.0359622088616
 31
0.0
  0
LINE
  5
721
330
18
100
AcDbEntity
  8
KEN
100
AcDbLine
 10
293.5650419097458
 20
139.0359622088616
 30
0.0
 11
293.9156101846873
 21
138.5191490756552
 31
0.0
  0
LINE
  5
722
330
18
100
AcDbEntity
  8
KEN
100
AcDbLine
 10
293.9156101846873
 20
138.5191490756552
 30
0.0
 11
294.0632178793995
 21
138.4084034042538
 31
0.0
  0
LINE
  5
723
330
18
100
AcDbEntity
  8
KEN
100
AcDbLine
 10
294.0632178793995
 20
138.4084034042538
 30
0.0
 11
294.6720996200873
 21
138.666809970857
 31
0.0
  0
LINE
  5
724
330
18
100
AcDbEntity
  8
KEN
100
AcDbLine
 10
294.6720996200873
 20
138.666809970857
 30
0.0
 11
295.3363342462923
 21
139.958842803873
 31
0.0
  0
LINE
  5
725
330
18
100
AcDbEntity
  8
KEN
100
AcDbLine
 10
295.3363342462923
 20
139.958842803873
 30
0.0
 11
295.2071775134191
 21
140.5494863846803
 31
0.0
  0
LINE
  5
726
330
18
100
AcDbEntity
  8
KEN
100
AcDbLine
 10
295.2071775134191
 20
140.5494863846803
 30
0.0
 11
294.7643544292825
 21
140.9001810107846
 31
0.0
  0
LINE
  5
727
330
18
100
AcDbEntity
  8
KEN
100
AcDbLine
 10
293.5834928715848
 20
139.958842803873
 30
0.0
 11
293.4543361387117
 21
140.5494863846803
 31
0.0
  0
LINE
  5
72D
330
18
100
AcDbEntity
  8
KEN
100
AcDbLine
 10
317.4781438455056
 20
138.666809970857
 30
0.0
 11
318.1423784717105
 21
139.958842803873
 31
0.0
  0
LINE
  5
72E
330
18
100
AcDbEntity
  8
KEN
100
AcDbLine
 10
318.0132217388373
 20
140.5494863846803
 30
0.0
 11
317.5703986547007
 21
140.9001810107846
 31
0.0
  0
LINE
  5
72F
330
18
100
AcDbEntity
  8
KEN
100
AcDbLine
 10
317.5150457691836
 20
140.9001810107846
 30
0.0
 11
317.01686979953
 21
140.6602320560816
 31
0.0
  0
LINE
  5
730
330
18
100
AcDbEntity
  8
KEN
100
AcDbLine
 10
317.01686979953
 20
140.6602320560816
 30
0.0
 11
316.5186938298763
 21
140.3095374299773
 31
0.0
  0
LINE
  5
731
330
18
100
AcDbEntity
  8
KEN
100
AcDbLine
 10
316.5186938298763
 20
140.3095374299773
 30
0.0
 11
316.334184211486
 21
139.8665547443718
 31
0.0
  0
LINE
  5
732
330
18
100
AcDbEntity
  8
KEN
100
AcDbLine
 10
316.334184211486
 20
139.8665547443718
 30
0.0
 11
316.371086135164
 21
139.0359622088616
 31
0.0
  0
LINE
  5
733
330
18
100
AcDbEntity
  8
KEN
100
AcDbLine
 10
316.371086135164
 20
139.0359622088616
 30
0.0
 11
316.7216544101056
 21
138.5191490756552
 31
0.0
  0
LINE
  5
734
330
18
100
AcDbEntity
  8
KEN
100
AcDbLine
 10
316.7216544101056
 20
138.5191490756552
 30
0.0
 11
316.8692621048177
 21
138.4084034042538
 31
0.0
  0
LINE
  5
735
330
18
100
AcDbEntity
  8
KEN
100
AcDbLine
 10
316.8692621048177
 20
138.4084034042538
 30
0.0
 11
317.4781438455056
 21
138.666809970857
 31
0.0
  0
LINE
  5
736
330
18
100
AcDbEntity
  8
KEN
100
AcDbLine
 10
318.1423784717105
 20
139.958842803873
 30
0.0
 11
318.0132217388373
 21
140.5494863846803
 31
0.0
  0
LINE
  5
737
330
18
100
AcDbEntity
  8
KEN
100
AcDbLine
 10
319.7660631135447
 20
140.5494863846803
 30
0.0
 11
319.3232400294081
 21
140.9001810107846
 31
0.0
  0
LINE
  5
738
330
18
100
AcDbEntity
  8
KEN
100
AcDbLine
 10
319.8952198464179
 20
139.958842803873
 30
0.0
 11
319.7660631135447
 21
140.5494863846803
 31
0.0
  0
LINE
  5
739
330
18
100
AcDbEntity
  8
KEN
100
AcDbLine
 10
319.230985220213
 20
138.666809970857
 30
0.0
 11
319.8952198464179
 21
139.958842803873
 31
0.0
  0
LINE
  5
73A
330
18
100
AcDbEntity
  8
KEN
100
AcDbLine
 10
318.6221034795252
 20
138.4084034042538
 30
0.0
 11
319.230985220213
 21
138.666809970857
 31
0.0
  0
LINE
  5
73B
330
18
100
AcDbEntity
  8
KEN
100
AcDbLine
 10
318.474495784813
 20
138.5191490756552
 30
0.0
 11
318.6221034795252
 21
138.4084034042538
 31
0.0
  0
LINE
  5
73C
330
18
100
AcDbEntity
  8
KEN
100
AcDbLine
 10
318.1239275098715
 20
139.0359622088616
 30
0.0
 11
318.474495784813
 21
138.5191490756552
 31
0.0
  0
LINE
  5
73D
330
18
100
AcDbEntity
  8
KEN
100
AcDbLine
 10
318.0870255861934
 20
139.8665547443718
 30
0.0
 11
318.1239275098715
 21
139.0359622088616
 31
0.0
  0
LINE
  5
73E
330
18
100
AcDbEntity
  8
KEN
100
AcDbLine
 10
318.2715352045837
 20
140.3095374299773
 30
0.0
 11
318.0870255861934
 21
139.8665547443718
 31
0.0
  0
LINE
  5
73F
330
18
100
AcDbEntity
  8
KEN
100
AcDbLine
 10
318.7697111742374
 20
140.6602320560816
 30
0.0
 11
318.2715352045837
 21
140.3095374299773
 31
0.0
  0
LINE
  5
740
330
18
100
AcDbEntity
  8
KEN
100
AcDbLine
 10
319.267887143891
 20
140.9001810107846
 30
0.0
 11
318.7697111742374
 21
140.6602320560816
 31
0.0
  0
LINE
  5
741
330
18
100
AcDbEntity
  8
KEN
100
AcDbLine
 10
321.0576304422764
 20
140.9001810107846
 30
0.0
 11
320.5594544726228
 21
140.6602320560816
 31
0.0
  0
LINE
  5
742
330
18
100
AcDbEntity
  8
KEN
100
AcDbLine
 10
320.5594544726228
 20
140.6602320560816
 30
0.0
 11
320.0612785029691
 21
140.3095374299773
 31
0.0
  0
LINE
  5
743
330
18
100
AcDbEntity
  8
KEN
100
AcDbLine
 10
320.0612785029691
 20
140.3095374299773
 30
0.0
 11
319.8767688845788
 21
139.8665547443718
 31
0.0
  0
LINE
  5
744
330
18
100
AcDbEntity
  8
KEN
100
AcDbLine
 10
319.8767688845788
 20
139.8665547443718
 30
0.0
 11
319.9136708082569
 21
139.0359622088616
 31
0.0
  0
LINE
  5
745
330
18
100
AcDbEntity
  8
KEN
100
AcDbLine
 10
319.9136708082569
 20
139.0359622088616
 30
0.0
 11
320.2642390831983
 21
138.5191490756552
 31
0.0
  0
LINE
  5
746
330
18
100
AcDbEntity
  8
KEN
100
AcDbLine
 10
320.2642390831983
 20
138.5191490756552
 30
0.0
 11
320.4118467779105
 21
138.4084034042538
 31
0.0
  0
LINE
  5
747
330
18
100
AcDbEntity
  8
KEN
100
AcDbLine
 10
320.4118467779105
 20
138.4084034042538
 30
0.0
 11
321.0207285185984
 21
138.666809970857
 31
0.0
  0
LINE
  5
748
330
18
100
AcDbEntity
  8
KEN
100
AcDbLine
 10
321.0207285185984
 20
138.666809970857
 30
0.0
 11
321.6849631448033
 21
139.958842803873
 31
0.0
  0
LINE
  5
749
330
18
100
AcDbEntity
  8
KEN
100
AcDbLine
 10
321.6849631448033
 20
139.958842803873
 30
0.0
 11
321.5558064119301
 21
140.5494863846803
 31
0.0
  0
LINE
  5
74A
330
18
100
AcDbEntity
  8
KEN
100
AcDbLine
 10
321.5558064119301
 20
140.5494863846803
 30
0.0
 11
321.1129833277935
 21
140.9001810107846
 31
0.0
  0
LINE
  5
74B
330
18
100
AcDbEntity
  8
KEN
100
AcDbLine
 10
321.775587827866
 20
140.9176795065856
 30
0.0
 11
321.775587827866
 21
138.4176795065856
 31
0.0
  0
ARC
  5
74C
330
18
100
AcDbEntity
  8
KEN
100
AcDbCircle
 10
277.8185162008817
 20
195.4176795065857
 30
0.0
 40
26.62457162698412
100
AcDbArc
 50
294.1069501285452
 51
0.000000000000007
  0
ARC
  5
74D
330
18
100
AcDbEntity
  8
KEN
100
AcDbCircle
 10
277.8185162008817
 20
195.4176795065857
 30
0.0
 40
26.82457162698412
100
AcDbArc
 50
294.1069501285452
 51
0.000000000000007
  0
LINE
  5
750
330
18
100
AcDbEntity
  8
SUNPOU
100
AcDbLine
 10
304.7080878278658
 20
178.0976795065857
 30
0.0
 11
304.7080878278658
 21
173.7376795065856
 31
0.0
  0
LINE
  5
751
330
18
100
AcDbEntity
  8
KEN
100
AcDbLine
 10
304.868087827866
 20
165.9176795065856
 30
0.0
 11
287.7430878278661
 21
165.9176795065856
 31
0.0
  0
LINE
  5
752
330
18
100
AcDbEntity
  8
SUNPOU
100
AcDbLine
 10
294.275587827866
 20
160.7750101285864
 30
0.0
 11
299.4182572058652
 21
165.9176795065856
 31
0.0
  0
LINE
  5
753
330
18
100
AcDbEntity
  8
SUNPOU
100
AcDbLine
 10
294.275587827866
 20
161.8356703003662
 30
0.0
 11
298.3575970340854
 21
165.9176795065856
 31
0.0
  0
LINE
  5
754
330
18
100
AcDbEntity
  8
SUNPOU
100
AcDbLine
 10
294.275587827866
 20
162.8963304721461
 30
0.0
 11
297.2969368623056
 21
165.9176795065856
 31
0.0
  0
LINE
  5
755
330
18
100
AcDbEntity
  8
SUNPOU
100
AcDbLine
 10
304.5480878278659
 20
173.4176795065856
 30
0.0
 11
293.495319727509
 21
173.4176795065856
 31
0.0
  0
LINE
  5
756
330
18
100
AcDbEntity
  8
SUNPOU
100
AcDbLine
 10
304.5480878278659
 20
173.5776795065857
 30
0.0
 11
293.495319727509
 21
173.5776795065857
 31
0.0
  0
ARC
  5
757
330
18
100
AcDbEntity
  8
SUNPOU
100
AcDbCircle
 10
304.5480878278659
 20
173.7376795065856
 30
0.0
 40
0.16
100
AcDbArc
 50
270.0000000000001
 51
0.000000000000007
  0
ARC
  5
758
330
18
100
AcDbEntity
  8
SUNPOU
100
AcDbCircle
 10
304.5480878278659
 20
173.7376795065856
 30
0.0
 40
0.32
100
AcDbArc
 50
270.0000000000001
 51
0.000000000000007
  0
LINE
  5
759
330
18
100
AcDbEntity
  8
SUNPOU
100
AcDbLine
 10
304.5480878278659
 20
178.4176795065856
 30
0.0
 11
299.1080011362312
 21
178.4176795065856
 31
0.0
  0
LINE
  5
75A
330
18
100
AcDbEntity
  8
SUNPOU
100
AcDbLine
 10
304.5480878278659
 20
178.2576795065856
 30
0.0
 11
299.1080011362312
 21
178.2576795065856
 31
0.0
  0
ARC
  5
75B
330
18
100
AcDbEntity
  8
SUNPOU
100
AcDbCircle
 10
277.8185162008817
 20
195.4176795065857
 30
0.0
 40
26.98457162698412
100
AcDbArc
 50
321.6559742769057
 51
326.2664643624788
  0
LINE
  5
75C
330
18
100
AcDbEntity
  8
SUNPOU
100
AcDbLine
 10
300.1266139180823
 20
180.521155777506
 30
0.0
 11
300.2596745941068
 21
180.4323027725151
 31
0.0
  0
ARC
  5
75D
330
18
100
AcDbEntity
  8
SUNPOU
100
AcDbCircle
 10
299.1080011362312
 20
178.5776795065857
 30
0.0
 40
0.16
100
AcDbArc
 50
141.6559742769078
 51
270.0000000000001
  0
ARC
  5
75E
330
18
100
AcDbEntity
  8
SUNPOU
100
AcDbCircle
 10
299.1080011362312
 20
178.5776795065857
 30
0.0
 40
0.32
100
AcDbArc
 50
141.6559742769078
 51
270.0000000000001
  0
ARC
  5
75F
330
18
100
AcDbEntity
  8
SUNPOU
100
AcDbCircle
 10
299.37288195408
 20
178.9828544481311
 30
0.0
 40
1.0
100
AcDbArc
 50
124.9305225934838
 51
135.2737049105776
  0
LINE
  5
760
330
18
100
AcDbEntity
  8
SUNPOU
100
AcDbLine
 10
299.0888745850241
 20
179.5930391613409
 30
0.0
 11
298.8002992507353
 21
179.8027014142351
 31
0.0
  0
LINE
  5
761
330
18
100
AcDbEntity
  8
SUNPOU
100
AcDbLine
 10
299.4415457363995
 20
180.0784493579659
 30
0.0
 11
299.1529704021108
 21
180.2881116108601
 31
0.0
  0
ARC
  5
762
330
18
100
AcDbEntity
  8
SUNPOU
100
AcDbCircle
 10
300.1096289876075
 20
179.996899745039
 30
0.0
 40
1.0
100
AcDbArc
 50
152.7262950894223
 51
163.0694774065161
  0
ARC
  5
763
330
18
100
AcDbEntity
  8
SUNPOU
100
AcDbCircle
 10
299.799874217759
 20
179.4472880840127
 30
0.0
 40
1.060881119636171
100
AcDbArc
 50
127.5735785965275
 51
160.4264214034724
  0
LINE
  5
764
330
18
100
AcDbEntity
  8
SUNPOU
100
AcDbLine
 10
299.0055759636895
 20
179.2827387590148
 30
0.0
 11
298.9125390093363
 21
179.3503340630284
 31
0.0
  0
LINE
  5
765
330
18
100
AcDbEntity
  8
SUNPOU
100
AcDbLine
 10
298.6624053681229
 20
179.6865752882423
 30
0.0
 11
298.6533529376621
 21
179.6004471656414
 31
0.0
  0
LINE
  5
766
330
18
100
AcDbEntity
  8
SUNPOU
100
AcDbLine
 10
298.9419282719509
 20
179.3907849127471
 30
0.0
 11
298.6533529376621
 21
179.6004471656414
 31
0.0
  0
LINE
  5
767
330
18
100
AcDbEntity
  8
SUNPOU
100
AcDbLine
 10
299.5884920494727
 20
180.2807036065596
 30
0.0
 11
299.2999167151838
 21
180.4903658594538
 31
0.0
  0
LINE
  5
768
330
18
100
AcDbEntity
  8
SUNPOU
100
AcDbLine
 10
299.2208013578007
 20
180.4551414328985
 30
0.0
 11
299.2999167151838
 21
180.4903658594538
 31
0.0
  0
LINE
  5
769
330
18
100
AcDbEntity
  8
SUNPOU
100
AcDbLine
 10
299.7109182664404
 20
180.2535591522647
 30
0.0
 11
299.6178813120873
 21
180.3211544562784
 31
0.0
  0
LINE
  5
76A
330
18
100
AcDbEntity
  8
SUNPOU
100
AcDbLine
 10
299.2208013578007
 20
180.4551414328985
 30
0.0
 11
298.6624053681237
 21
179.6865752882434
 31
0.0
  0
LINE
  5
76B
330
18
100
AcDbEntity
  8
SUNPOU
100
AcDbLine
 10
299.6178813120873
 20
180.3211544562784
 30
0.0
 11
298.9125390093363
 21
179.3503340630284
 31
0.0
  0
LINE
  5
76C
330
18
100
AcDbEntity
  8
CENTER
100
AcDbLine
 10
300.8832441494617
 20
178.6601737550684
 30
0.0
 11
298.5370948657744
 21
180.3647509867166
 31
0.0
  0
ARC
  5
76D
330
18
100
AcDbEntity
  8
SUNPOU
100
AcDbCircle
 10
304.5480878278659
 20
178.0976795065857
 30
0.0
 40
0.16
100
AcDbArc
 50
0.000000000000007
 51
90.0
  0
ARC
  5
76E
330
18
100
AcDbEntity
  8
SUNPOU
100
AcDbCircle
 10
304.5480878278659
 20
178.0976795065857
 30
0.0
 40
0.32
100
AcDbArc
 50
0.000000000000007
 51
90.0
  0
LINE
  5
76F
330
18
100
AcDbEntity
  8
SUNPOU
100
AcDbLine
 10
304.1230878278659
 20
196.9176795065856
 30
0.0
 11
291.1330942991802
 21
196.9176795065856
 31
0.0
  0
LINE
  5
770
330
18
100
AcDbEntity
  8
SUNPOU
100
AcDbLine
 10
304.1230878278659
 20
197.0776795065856
 30
0.0
 11
291.1330942991802
 21
197.0776795065856
 31
0.0
  0
LINE
  5
771
330
18
100
AcDbEntity
  8
SUNPOU
100
AcDbLine
 10
304.8680878278659
 20
195.4176795065857
 30
0.0
 11
304.6430878278659
 21
195.4176795065857
 31
0.0
  0
ARC
  5
772
330
18
100
AcDbEntity
  8
SUNPOU
100
AcDbCircle
 10
304.1230878278659
 20
197.2376795065856
 30
0.0
 40
0.16
100
AcDbArc
 50
270.0000000000001
 51
0.000000000000007
  0
ARC
  5
773
330
18
100
AcDbEntity
  8
SUNPOU
100
AcDbCircle
 10
304.1230878278659
 20
197.2376795065856
 30
0.0
 40
0.32
100
AcDbArc
 50
270.0000000000001
 51
0.000000000000007
  0
LINE
  5
774
330
18
100
AcDbEntity
  8
KEN
100
AcDbLine
 10
325.808087827866
 20
165.9176795065856
 30
0.0
 11
308.6830878278659
 21
165.9176795065857
 31
0.0
  0
LINE
  5
78A
330
18
100
AcDbEntity
  8
KEN
100
AcDbLine
 10
299.4430878278659
 20
215.9176795065857
 30
0.0
 11
299.4430878278659
 21
211.9176795065857
 31
0.0
  0
LINE
  5
78B
330
18
100
AcDbEntity
  8
KEN
100
AcDbLine
 10
299.2430878278659
 20
215.9176795065857
 30
0.0
 11
299.2430878278659
 21
211.9176795065857
 31
0.0
  0
LINE
  5
78C
330
18
100
AcDbEntity
  8
SUNPOU
100
AcDbLine
 10
304.1230878278659
 20
203.4176795065857
 30
0.0
 11
297.6657451235545
 21
203.4176795065857
 31
0.0
  0
ARC
  5
78D
330
18
100
AcDbEntity
  8
SUNPOU
100
AcDbCircle
 10
282.132577023097
 20
211.9176795065857
 30
0.0
 40
17.47051080476896
100
AcDbArc
 50
331.7679558376082
 51
339.1542582560165
  0
LINE
  5
78E
330
18
100
AcDbEntity
  8
SUNPOU
100
AcDbLine
 10
304.1230878278659
 20
203.2576795065856
 30
0.0
 11
297.6657451235545
 21
203.2576795065856
 31
0.0
  0
LINE
  5
78F
330
18
100
AcDbEntity
  8
SUNPOU
100
AcDbLine
 10
298.3099743515309
 20
205.7576795065857
 30
0.0
 11
298.4595010524897
 21
205.7007430007185
 31
0.0
  0
LINE
  5
790
330
18
100
AcDbEntity
  8
CENTER
100
AcDbLine
 10
299.3483563841978
 20
203.8898297493975
 30
0.0
 11
296.7200638017915
 21
205.1154227084456
 31
0.0
  0
ARC
  5
791
330
18
100
AcDbEntity
  8
SUNPOU
100
AcDbCircle
 10
297.6657451235545
 20
203.5776795065856
 30
0.0
 40
0.16
100
AcDbArc
 50
151.7679558376102
 51
270.0000000000001
  0
ARC
  5
792
330
18
100
AcDbEntity
  8
SUNPOU
100
AcDbCircle
 10
297.6657451235545
 20
203.5776795065856
 30
0.0
 40
0.32
100
AcDbArc
 50
151.7679558376102
 51
270.0000000000001
  0
ARC
  5
793
330
18
100
AcDbEntity
  8
SUNPOU
100
AcDbCircle
 10
297.8041734174888
 20
203.918391196126
 30
0.0
 40
1.0
100
AcDbArc
 50
135.9305225934838
 51
146.2737049105776
  0
LINE
  5
794
330
18
100
AcDbEntity
  8
SUNPOU
100
AcDbLine
 10
297.4089553316023
 20
204.4631739367679
 30
0.0
 11
297.0856764951488
 21
204.6139213339257
 31
0.0
  0
LINE
  5
795
330
18
100
AcDbEntity
  8
SUNPOU
100
AcDbLine
 10
297.6625262886468
 20
205.0069586089899
 30
0.0
 11
297.3392474521933
 21
205.1577060061476
 31
0.0
  0
ARC
  5
796
330
18
100
AcDbEntity
  8
SUNPOU
100
AcDbCircle
 10
298.3338953685544
 20
205.0543835861322
 30
0.0
 40
1.0
100
AcDbArc
 50
163.7262950894223
 51
174.0694774065161
  0
ARC
  5
797
330
18
100
AcDbEntity
  8
SUNPOU
100
AcDbCircle
 10
298.1347025151563
 20
204.455765842881
 30
0.0
 40
1.060881119636171
100
AcDbArc
 50
138.5735785965275
 51
171.4264214034724
  0
LINE
  5
798
330
18
100
AcDbEntity
  8
SUNPOU
100
AcDbLine
 10
297.3863952485893
 20
204.1426805005567
 30
0.0
 11
297.28216985308
 21
204.1912816006569
 31
0.0
  0
LINE
  5
799
330
18
100
AcDbEntity
  8
SUNPOU
100
AcDbLine
 10
296.972474020983
 20
204.4736173787328
 30
0.0
 11
296.9800219297135
 21
204.3873443871665
 31
0.0
  0
LINE
  5
79A
330
18
100
AcDbEntity
  8
SUNPOU
100
AcDbLine
 10
297.3033007661671
 20
204.2365969900088
 30
0.0
 11
296.9800219297135
 21
204.3873443871665
 31
0.0
  0
LINE
  5
79B
330
18
100
AcDbEntity
  8
SUNPOU
100
AcDbLine
 10
297.768180854082
 20
205.2335355557491
 30
0.0
 11
297.4449020176284
 21
205.3842829529068
 31
0.0
  0
LINE
  5
79C
330
18
100
AcDbEntity
  8
SUNPOU
100
AcDbLine
 10
297.3739613696367
 20
205.3346097764176
 30
0.0
 11
297.4449020176284
 21
205.3842829529068
 31
0.0
  0
LINE
  5
79D
330
18
100
AcDbEntity
  8
SUNPOU
100
AcDbLine
 10
297.8935371626782
 20
205.2302498450008
 30
0.0
 11
297.7893117671689
 21
205.2788509451009
 31
0.0
  0
LINE
  5
79E
330
18
100
AcDbEntity
  8
SUNPOU
100
AcDbLine
 10
297.3739613696367
 20
205.3346097764176
 30
0.0
 11
296.9724740209835
 21
204.473617378734
 31
0.0
  0
LINE
  5
79F
330
18
100
AcDbEntity
  8
SUNPOU
100
AcDbLine
 10
297.7893117671689
 20
205.2788509451009
 30
0.0
 11
297.28216985308
 21
204.1912816006569
 31
0.0
  0
ARC
  5
7A0
330
18
100
AcDbEntity
  8
SUNPOU
100
AcDbCircle
 10
304.1230878278659
 20
203.0976795065857
 30
0.0
 40
0.16
100
AcDbArc
 50
0.000000000000007
 51
90.0
  0
ARC
  5
7A1
330
18
100
AcDbEntity
  8
SUNPOU
100
AcDbCircle
 10
304.1230878278659
 20
203.0976795065857
 30
0.0
 40
0.32
100
AcDbArc
 50
0.000000000000007
 51
90.0
  0
LINE
  5
7A2
330
18
100
AcDbEntity
  8
CENTER
100
AcDbLine
 10
301.1280878278659
 20
213.9176795065857
 30
0.0
 11
298.2280878278659
 21
213.9176795065857
 31
0.0
  0
LINE
  5
7A3
330
18
100
AcDbEntity
  8
KEN
100
AcDbLine
 10
304.4430878278658
 20
215.6676795065857
 30
0.0
 11
299.4430878278659
 21
215.6676795065857
 31
0.0
  0
LINE
  5
7A4
330
18
100
AcDbEntity
  8
KEN
100
AcDbLine
 10
304.4430878278658
 20
212.1676795065857
 30
0.0
 11
299.4430878278659
 21
212.1676795065857
 31
0.0
  0
LINE
  5
7A5
330
18
100
AcDbEntity
  8
KEN
100
AcDbLine
 10
299.4430878278659
 20
215.9176795065857
 30
0.0
 11
299.2430878278659
 21
215.9176795065857
 31
0.0
  0
LINE
  5
7A6
330
18
100
AcDbEntity
  8
SUNPOU
100
AcDbLine
 10
299.1280878278659
 20
214.5176795065857
 30
0.0
 11
299.1280878278659
 21
213.3176795065856
 31
0.0
  0
LINE
  5
7A7
330
18
100
AcDbEntity
  8
SUNPOU
100
AcDbLine
 10
298.7280878278659
 20
214.3926795065857
 30
0.0
 11
298.7280878278659
 21
213.442679506587
 31
0.0
  0
LINE
  5
7A8
330
18
100
AcDbEntity
  8
SUNPOU
100
AcDbLine
 10
299.2430878278659
 20
214.5176795065857
 30
0.0
 11
299.1280878278659
 21
214.5176795065857
 31
0.0
  0
LINE
  5
7A9
330
18
100
AcDbEntity
  8
SUNPOU
100
AcDbLine
 10
298.7280878278659
 20
214.3926795065857
 30
0.0
 11
298.7713890980551
 21
214.4676795065857
 31
0.0
  0
LINE
  5
7AA
330
18
100
AcDbEntity
  8
SUNPOU
100
AcDbLine
 10
299.1280878278659
 20
214.4676795065857
 30
0.0
 11
298.7713890980551
 21
214.4676795065857
 31
0.0
  0
LINE
  5
7AB
330
18
100
AcDbEntity
  8
SUNPOU
100
AcDbLine
 10
299.1280878278659
 20
213.3676795065857
 30
0.0
 11
298.7713890980551
 21
213.3676795065857
 31
0.0
  0
LINE
  5
7AC
330
18
100
AcDbEntity
  8
SUNPOU
100
AcDbLine
 10
298.7280878278659
 20
213.4426795065857
 30
0.0
 11
298.7713890980551
 21
213.3676795065857
 31
0.0
  0
LINE
  5
7AD
330
18
100
AcDbEntity
  8
SUNPOU
100
AcDbLine
 10
299.2430878278659
 20
213.3176795065856
 30
0.0
 11
299.1280878278659
 21
213.3176795065856
 31
0.0
  0
ARC
  5
7AE
330
18
100
AcDbEntity
  8
SUNPOU
100
AcDbCircle
 10
299.788968947502
 20
213.9176795065857
 30
0.0
 40
1.060881119636171
100
AcDbArc
 50
163.5735785965275
 51
196.4264214034725
  0
ARC
  5
7AF
330
18
100
AcDbEntity
  8
SUNPOU
100
AcDbCircle
 10
299.7165121915589
 20
214.5443939662068
 30
0.0
 40
1.0
100
AcDbArc
 50
188.7262950894224
 51
199.0694774065162
  0
LINE
  5
7B0
330
18
100
AcDbEntity
  8
SUNPOU
100
AcDbLine
 10
299.1280878278659
 20
214.2176795065857
 30
0.0
 11
298.7713890980551
 21
214.2176795065857
 31
0.0
  0
LINE
  5
7B1
330
18
100
AcDbEntity
  8
SUNPOU
100
AcDbLine
 10
299.1280878278659
 20
213.6176795065857
 30
0.0
 11
298.7713890980551
 21
213.6176795065857
 31
0.0
  0
ARC
  5
7B2
330
18
100
AcDbEntity
  8
SUNPOU
100
AcDbCircle
 10
299.7165121915589
 20
213.2909650469646
 30
0.0
 40
1.0
100
AcDbArc
 50
160.9305225934838
 51
171.2737049105776
  0
LINE
  5
7B3
330
18
100
AcDbEntity
  8
KEN
100
AcDbLine
 10
304.6430878278659
 20
215.9176795065857
 30
0.0
 11
304.4430878278658
 21
215.9176795065857
 31
0.0
  0
LINE
  5
7B4
330
18
100
AcDbEntity
  8
SUNPOU
100
AcDbLine
 10
304.8680878278659
 20
215.4176795065857
 30
0.0
 11
304.6430878278659
 21
215.4176795065857
 31
0.0
  0
LINE
  5
7B5
330
18
100
AcDbEntity
  8
KEN
100
AcDbLine
 10
304.6680878278658
 20
216.9176795065857
 30
0.0
 11
304.6680878278658
 21
216.4176795065857
 31
0.0
  0
ARC
  5
7CB
330
18
100
AcDbEntity
  8
SUNPOU
100
AcDbCircle
 10
282.132577023097
 20
211.9176795065857
 30
0.0
 40
17.47051080476896
100
AcDbArc
 50
292.9333504256888
 51
300.6976750541808
  0
LINE
  5
7CC
330
18
100
AcDbEntity
  8
SUNPOU
100
AcDbLine
 10
290.1498485027672
 20
197.3943773706185
 30
0.0
 11
289.987910668164
 21
197.7121982660497
 31
0.0
  0
LINE
  5
7CD
330
18
100
AcDbEntity
  8
SUNPOU
100
AcDbLine
 10
290.1943988289767
 20
197.4170768956055
 30
0.0
 11
289.1251909999506
 21
196.8722882959181
 31
0.0
  0
LINE
  5
7CE
330
18
100
AcDbEntity
  8
CENTER
100
AcDbLine
 10
290.756358466162
 20
194.9925554492459
 30
0.0
 11
289.4397860169172
 21
197.5764743693921
 31
0.0
  0
LINE
  5
7CF
330
18
100
AcDbEntity
  8
KEN
100
AcDbLine
 10
288.6930878278659
 20
196.1148545065857
 30
0.0
 11
288.7697718132785
 21
195.9301396821095
 31
0.0
  0
LINE
  5
7D0
330
18
100
AcDbEntity
  8
SUNPOU
100
AcDbLine
 10
288.8777920990381
 20
195.9754131086948
 30
0.0
 11
288.9401377123087
 21
195.8280597086461
 31
0.0
  0
ARC
  5
7D1
330
18
100
AcDbEntity
  8
SUNPOU
100
AcDbCircle
 10
289.3685273130699
 20
196.3358702380026
 30
0.0
 40
1.0
100
AcDbArc
 50
97.93052259348385
 51
108.2737049105776
  0
LINE
  5
7D2
330
18
100
AcDbEntity
  8
SUNPOU
100
AcDbLine
 10
289.3924929572071
 20
197.0084854458399
 30
0.0
 11
289.2305551226039
 21
197.326306341271
 31
0.0
  0
LINE
  5
7D3
330
18
100
AcDbEntity
  8
SUNPOU
100
AcDbLine
 10
289.9270968717201
 20
197.2808797456837
 30
0.0
 11
289.7651590371169
 21
197.5987006411147
 31
0.0
  0
ARC
  5
7D4
330
18
100
AcDbEntity
  8
SUNPOU
100
AcDbCircle
 10
290.4853406577211
 20
196.9049150594374
 30
0.0
 40
1.0
100
AcDbArc
 50
125.7262950894223
 51
136.0694774065161
  0
ARC
  5
7D5
330
18
100
AcDbEntity
  8
SUNPOU
100
AcDbCircle
 10
289.9598286642356
 20
196.5558332064531
 30
0.0
 40
1.060881119636171
100
AcDbArc
 50
100.5735785965275
 51
133.4264214034724
  0
LINE
  5
7D6
330
18
100
AcDbEntity
  8
SUNPOU
100
AcDbLine
 10
289.1773999074207
 20
196.7698225456364
 30
0.0
 11
289.1251909999506
 21
196.8722882959181
 31
0.0
  0
LINE
  5
7D7
330
18
100
AcDbEntity
  8
SUNPOU
100
AcDbLine
 10
289.0549706155783
 20
197.2854397180609
 30
0.0
 11
289.0078034915568
 21
197.2128087163362
 31
0.0
  0
LINE
  5
7D8
330
18
100
AcDbEntity
  8
SUNPOU
100
AcDbLine
 10
289.16974132616
 20
196.8949878209051
 30
0.0
 11
289.0078034915568
 21
197.2128087163362
 31
0.0
  0
LINE
  5
7D9
330
18
100
AcDbEntity
  8
SUNPOU
100
AcDbLine
 10
289.9014268135573
 20
197.7167306928134
 30
0.0
 11
289.987910668164
 21
197.7121982660497
 31
0.0
  0
LINE
  5
7DA
330
18
100
AcDbEntity
  8
SUNPOU
100
AcDbLine
 10
289.9014268135573
 20
197.7167306928134
 30
0.0
 11
289.0549706155795
 21
197.2854397180615
 31
0.0
  0
ARC
  5
7DB
330
18
100
AcDbEntity
  8
SUNPOU
100
AcDbCircle
 10
291.1330942991802
 20
196.7576795065856
 30
0.0
 40
0.16
100
AcDbArc
 50
90.0
 51
120.6976750541819
  0
ARC
  5
7DC
330
18
100
AcDbEntity
  8
SUNPOU
100
AcDbCircle
 10
291.1330942991802
 20
196.7576795065856
 30
0.0
 40
0.32
100
AcDbArc
 50
90.0
 51
120.6976750541819
  0
LINE
  5
7DD
330
18
100
AcDbEntity
  8
SUNPOU
100
AcDbLine
 10
290.2466077364467
 20
197.3146111453239
 30
0.0
 11
290.1943988289767
 21
197.4170768956055
 31
0.0
  0
LINE
  5
7DE
330
18
100
AcDbEntity
  8
SUNPOU
100
AcDbLine
 10
290.7091141008854
 20
171.7080379262113
 30
0.0
 11
289.7616125830804
 21
171.1492527494597
 31
0.0
  0
LINE
  5
7DF
330
18
100
AcDbEntity
  8
SUNPOU
100
AcDbLine
 10
290.6759843730467
 20
171.8626420048552
 30
0.0
 11
289.6423463536232
 21
171.2530581756716
 31
0.0
  0
LINE
  5
7E0
330
18
100
AcDbEntity
  8
SUNPOU
100
AcDbLine
 10
290.7091141008854
 20
171.7080379262113
 30
0.0
 11
290.8903122488712
 21
171.4007901190342
 31
0.0
  0
LINE
  5
7E1
330
18
100
AcDbEntity
  8
CENTER
100
AcDbLine
 10
293.3459417804942
 20
171.5075408783022
 30
0.0
 11
291.7664885789506
 21
173.9396855253438
 31
0.0
  0
LINE
  5
7E2
330
18
100
AcDbEntity
  8
KEN
100
AcDbLine
 10
291.3326403886205
 20
172.7894115536218
 30
0.0
 11
288.4299345154395
 21
170.9620641280345
 31
0.0
  0
LINE
  5
7E3
330
18
100
AcDbEntity
  8
KEN
100
AcDbLine
 10
291.2473996923832
 20
172.9248147430413
 30
0.0
 11
288.3489251688715
 21
171.1001310892115
 31
0.0
  0
LINE
  5
7E4
330
18
100
AcDbEntity
  8
CENTER
100
AcDbLine
 10
290.8827446399854
 20
170.3309162140573
 30
0.0
 11
289.4095837194582
 21
172.8288747609975
 31
0.0
  0
LINE
  5
7E5
330
18
100
AcDbEntity
  8
SUNPOU
100
AcDbLine
 10
289.976953837127
 20
171.2762493805396
 30
0.0
 11
290.1581519851127
 21
170.9690015733626
 31
0.0
  0
ARC
  5
7E6
330
18
100
AcDbEntity
  8
SUNPOU
100
AcDbCircle
 10
289.3966217839897
 20
171.6171309993085
 30
0.0
 40
1.0
100
AcDbArc
 50
309.2561010564768
 51
319.5992833735705
  0
LINE
  5
7E7
330
18
100
AcDbEntity
  8
SUNPOU
100
AcDbLine
 10
290.8477063343993
 20
171.3253929304128
 30
0.0
 11
290.0294095690234
 21
170.8428057323098
 31
0.0
  0
LINE
  5
7E8
330
18
100
AcDbEntity
  8
SUNPOU
100
AcDbLine
 10
289.5211206895874
 20
171.4746063773041
 30
0.0
 11
289.5927592977415
 21
171.3315402743247
 31
0.0
  0
LINE
  5
7E9
330
18
100
AcDbEntity
  8
SUNPOU
100
AcDbLine
 10
289.5839279033264
 20
171.352115152533
 30
0.0
 11
289.6423463536232
 21
171.2530581756716
 31
0.0
  0
LINE
  5
7EA
330
18
100
AcDbEntity
  8
SUNPOU
100
AcDbLine
 10
289.7723796457828
 20
171.1556025810137
 30
0.0
 11
289.6961816671348
 21
171.2848073334416
 31
0.0
  0
LINE
  5
7EB
330
18
100
AcDbEntity
  8
SUNPOU
100
AcDbLine
 10
289.7616125830804
 20
171.1492527494597
 30
0.0
 11
289.9428107310662
 21
170.8420049422826
 31
0.0
  0
LINE
  5
7EC
330
18
100
AcDbEntity
  8
SUNPOU
100
AcDbLine
 10
290.0294095690223
 20
170.8428057323091
 30
0.0
 11
289.9428107310662
 21
170.8420049422826
 31
0.0
  0
LINE
  5
7ED
330
18
100
AcDbEntity
  8
KEN
100
AcDbLine
 10
288.2470326045951
 20
170.651948196471
 30
0.0
 11
288.8730189675879
 21
169.6575810241714
 31
0.0
  0
LINE
  5
7EE
330
18
100
AcDbEntity
  8
KEN
100
AcDbLine
 10
288.3797720222574
 20
170.7414202423777
 30
0.0
 11
289.0084221570074
 21
169.7428217204087
 31
0.0
  0
ARC
  5
7EF
330
18
100
AcDbEntity
  8
KEN
100
AcDbCircle
 10
288.5151752116768
 20
170.826660938615
 30
0.0
 40
0.16
100
AcDbArc
 50
122.1917448548519
 51
212.1917448548519
  0
ARC
  5
7F0
330
18
100
AcDbEntity
  8
KEN
100
AcDbCircle
 10
288.5220703331036
 20
170.8250933607031
 30
0.0
 40
0.325
100
AcDbArc
 50
122.1917448548519
 51
212.1917448548521
  0
LINE
  5
7F1
330
18
100
AcDbEntity
  8
KEN
100
AcDbLine
 10
289.0084221570074
 20
169.7428217204087
 30
0.0
 11
288.8730189675879
 21
169.6575810241714
 31
0.0
  0
LINE
  5
7F2
330
18
100
AcDbEntity
  8
KEN
100
AcDbLine
 10
288.6930878278659
 20
171.1151795065856
 30
0.0
 11
288.7747760651779
 21
170.9326225787936
 31
0.0
  0
LINE
  5
7F3
330
18
100
AcDbEntity
  8
SUNPOU
100
AcDbLine
 10
290.8477063343993
 20
171.3253929304128
 30
0.0
 11
290.8903122488712
 21
171.4007901190342
 31
0.0
  0
LINE
  5
7F4
330
18
100
AcDbEntity
  8
SUNPOU
100
AcDbLine
 10
290.4937728468387
 20
171.5810412951314
 30
0.0
 11
290.6749709948245
 21
171.2737934879544
 31
0.0
  0
LINE
  5
7F5
330
18
100
AcDbEntity
  8
SUNPOU
100
AcDbLine
 10
290.3931713711765
 20
170.6393914965892
 30
0.0
 11
290.3452440672587
 21
170.6517597438045
 31
0.0
  0
LINE
  5
7F6
330
18
100
AcDbEntity
  8
SUNPOU
100
AcDbLine
 10
290.3452440672587
 20
170.6517597438045
 30
0.0
 11
290.1801484468549
 21
170.9317033740651
 31
0.0
  0
LINE
  5
7F7
330
18
100
AcDbEntity
  8
SUNPOU
100
AcDbLine
 10
290.8496948297552
 20
170.9086243544787
 30
0.0
 11
290.8620630769706
 21
170.9565516583964
 31
0.0
  0
LINE
  5
7F8
330
18
100
AcDbEntity
  8
SUNPOU
100
AcDbLine
 10
290.8620630769706
 20
170.9565516583964
 30
0.0
 11
290.6969674565667
 21
171.2364952886569
 31
0.0
  0
ARC
  5
7F9
330
18
100
AcDbEntity
  8
SUNPOU
100
AcDbCircle
 10
290.4762816053012
 20
172.2538559994761
 30
0.0
 40
1.0
100
AcDbArc
 50
281.4603285605382
 51
291.8035108776321
  0
ARC
  5
7FA
330
18
100
AcDbEntity
  8
SUNPOU
100
AcDbCircle
 10
289.8996446390304
 20
171.9979052141481
 30
0.0
 40
1.060881119636171
100
AcDbArc
 50
284.103384563582
 51
316.9562273705269
  0
LINE
  5
7FB
330
18
100
AcDbEntity
  8
SUNPOU
100
AcDbLine
 10
290.8496948297552
 20
170.9086243544787
 30
0.0
 11
290.3931713711765
 21
170.6393914965892
 31
0.0
  0
LINE
  5
7FC
330
18
100
AcDbEntity
  8
SUNPOU
100
AcDbLine
 10
290.3167471504432
 20
172.4717809509661
 30
0.0
 11
289.2831091310197
 21
171.8621971217825
 31
0.0
  0
LINE
  5
7FD
330
18
100
AcDbEntity
  8
SUNPOU
100
AcDbLine
 10
290.005881913692
 20
172.7528286419006
 30
0.0
 11
290.0924807516481
 21
172.7536294319272
 31
0.0
  0
LINE
  5
7FE
330
18
100
AcDbEntity
  8
SUNPOU
100
AcDbLine
 10
289.326177381829
 20
171.8875964479984
 30
0.0
 11
289.1449792338431
 21
172.1948442551755
 31
0.0
  0
LINE
  5
7FF
330
18
100
AcDbEntity
  8
SUNPOU
100
AcDbLine
 10
289.3415275813164
 20
171.763140144921
 30
0.0
 11
289.2831091310197
 21
171.8621971217825
 31
0.0
  0
LINE
  5
800
330
18
100
AcDbEntity
  8
SUNPOU
100
AcDbLine
 10
290.005881913692
 20
172.7528286419006
 30
0.0
 11
289.1875851483162
 21
172.2702414437976
 31
0.0
  0
LINE
  5
801
330
18
100
AcDbEntity
  8
SUNPOU
100
AcDbLine
 10
289.1875851483151
 20
172.2702414437969
 30
0.0
 11
289.1449792338431
 21
172.1948442551755
 31
0.0
  0
ARC
  5
802
330
18
100
AcDbEntity
  8
SUNPOU
100
AcDbCircle
 10
290.135646843684
 20
171.5977291600617
 30
0.0
 40
1.060881119636171
100
AcDbArc
 50
104.1033845635819
 51
136.9562273705269
  0
ARC
  5
803
330
18
100
AcDbEntity
  8
SUNPOU
100
AcDbCircle
 10
290.6386696987246
 20
171.9785033749012
 30
0.0
 40
1.0
100
AcDbArc
 50
129.2561010564767
 51
139.5992833735706
  0
LINE
  5
804
330
18
100
AcDbEntity
  8
SUNPOU
100
AcDbLine
 10
290.0583376455874
 20
172.3193849936702
 30
0.0
 11
289.8771394976015
 21
172.6266328008472
 31
0.0
  0
LINE
  5
805
330
18
100
AcDbEntity
  8
SUNPOU
100
AcDbLine
 10
289.5415186358755
 20
172.0145930790783
 30
0.0
 11
289.3603204878898
 21
172.3218408862554
 31
0.0
  0
ARC
  5
806
330
18
100
AcDbEntity
  8
SUNPOU
100
AcDbCircle
 10
289.5590098774131
 20
171.3417783747336
 30
0.0
 40
1.0
100
AcDbArc
 50
101.4603285605383
 51
111.803510877632
  0
LINE
  5
807
330
18
100
AcDbEntity
  8
SUNPOU
100
AcDbLine
 10
290.6983470381831
 20
171.7016880946574
 30
0.0
 11
290.6221490595351
 21
171.8308928470853
 31
0.0
  0
LINE
  5
808
330
18
100
AcDbEntity
  8
SUNPOU
100
AcDbLine
 10
290.61756592275
 20
171.9616989817167
 30
0.0
 11
290.6759843730467
 21
171.8626420048552
 31
0.0
  0
LINE
  5
809
330
18
100
AcDbEntity
  8
SUNPOU
100
AcDbLine
 10
290.37516560074
 20
172.3727239741046
 30
0.0
 11
290.3167471504432
 21
172.4717809509661
 31
0.0
  0
LINE
  5
80A
330
18
100
AcDbEntity
  8
SUNPOU
100
AcDbLine
 10
290.2736788996339
 20
172.4463816247501
 30
0.0
 11
290.0924807516481
 21
172.7536294319272
 31
0.0
  0
ARC
  5
80B
330
18
100
AcDbEntity
  8
SUNPOU
100
AcDbCircle
 10
277.8185162008817
 20
195.4176795065857
 30
0.0
 40
26.98457162698412
100
AcDbArc
 50
300.0690542879965
 51
305.277000471072
  0
LINE
  5
80C
330
18
100
AcDbEntity
  8
SUNPOU
100
AcDbLine
 10
292.6509382442284
 20
173.6793995487911
 30
0.0
 11
291.6445335626939
 21
173.025832706773
 31
0.0
  0
LINE
  5
80D
330
18
100
AcDbEntity
  8
KEN
100
AcDbLine
 10
291.2473996923832
 20
172.9248147430413
 30
0.0
 11
291.3326403886205
 21
172.7894115536218
 31
0.0
  0
LINE
  5
80E
330
18
100
AcDbEntity
  8
SUNPOU
100
AcDbLine
 10
291.2587905525267
 20
172.2031007181665
 30
0.0
 11
291.3389574952152
 21
172.0646331721495
 31
0.0
  0
ARC
  5
80F
330
18
100
AcDbEntity
  8
SUNPOU
100
AcDbCircle
 10
291.9426078092921
 20
172.5177887739727
 30
0.0
 40
1.0
100
AcDbArc
 50
103.9305225934838
 51
114.2737049105776
  0
LINE
  5
810
330
18
100
AcDbEntity
  8
SUNPOU
100
AcDbLine
 10
291.8961347330775
 20
173.1892244172776
 30
0.0
 11
291.7018626810823
 21
173.4883771435933
 31
0.0
  0
LINE
  5
811
330
18
100
AcDbEntity
  8
SUNPOU
100
AcDbLine
 10
292.3993370738447
 20
173.5160078382866
 30
0.0
 11
292.2050650218496
 21
173.8151605646023
 31
0.0
  0
ARC
  5
812
330
18
100
AcDbEntity
  8
SUNPOU
100
AcDbCircle
 10
292.9938217528723
 20
173.2004550910087
 30
0.0
 40
1.0
100
AcDbArc
 50
131.7262950894223
 51
142.0694774065161
  0
ARC
  5
813
330
18
100
AcDbEntity
  8
SUNPOU
100
AcDbCircle
 10
292.5076775587194
 20
172.7983545838324
 30
0.0
 40
1.060881119636171
100
AcDbArc
 50
106.5735785965275
 51
139.4264214034725
  0
LINE
  5
814
330
18
100
AcDbEntity
  8
SUNPOU
100
AcDbLine
 10
291.7071670517207
 20
172.9293855914593
 30
0.0
 11
291.6445335626939
 21
173.025832706773
 31
0.0
  0
LINE
  5
815
330
18
100
AcDbEntity
  8
SUNPOU
100
AcDbLine
 10
291.531511769681
 20
173.4293808133281
 30
0.0
 11
291.492195039096
 21
173.3522173848396
 31
0.0
  0
LINE
  5
816
330
18
100
AcDbEntity
  8
SUNPOU
100
AcDbLine
 10
291.6864670910912
 20
173.0530646585238
 30
0.0
 11
291.492195039096
 21
173.3522173848396
 31
0.0
  0
LINE
  5
817
330
18
100
AcDbEntity
  8
SUNPOU
100
AcDbLine
 10
292.6090047158311
 20
173.6521675970403
 30
0.0
 11
292.4147326638358
 21
173.9513203233561
 31
0.0
  0
LINE
  5
818
330
18
100
AcDbEntity
  8
SUNPOU
100
AcDbLine
 10
292.3282488092293
 20
173.9467878965924
 30
0.0
 11
292.4147326638358
 21
173.9513203233561
 31
0.0
  0
LINE
  5
819
330
18
100
AcDbEntity
  8
SUNPOU
100
AcDbLine
 10
292.3282488092293
 20
173.9467878965924
 30
0.0
 11
291.5315117696821
 21
173.4293808133288
 31
0.0
  0
ARC
  5
81A
330
18
100
AcDbEntity
  8
SUNPOU
100
AcDbCircle
 10
293.495319727509
 20
173.2576795065856
 30
0.0
 40
0.16
100
AcDbArc
 50
90.0
 51
125.2770004710703
  0
ARC
  5
81B
330
18
100
AcDbEntity
  8
SUNPOU
100
AcDbCircle
 10
293.495319727509
 20
173.2576795065856
 30
0.0
 40
0.32
100
AcDbArc
 50
90.0
 51
125.2770004710703
  0
LINE
  5
81C
330
18
100
AcDbEntity
  8
SUNPOU
100
AcDbLine
 10
292.7135717332551
 20
173.5829524334774
 30
0.0
 11
292.6509382442284
 21
173.6793995487911
 31
0.0
  0
TEXT
  5
8EF
330
18
100
AcDbEntity
  8
SUNPOU
100
AcDbText
 10
108.1552683223273
 20
89.66029514150903
 30
0.0
 40
3.0
  1
11   小レールアングル
 41
0.8
  7
EXT08
100
AcDbText
  0
CIRCLE
  5
8F0
330
18
100
AcDbEntity
  8
SUNPOU
100
AcDbCircle
 10
109.2070429457049
 20
90.95765879637431
 30
0.0
 40
2.167682756202585
  0
LINE
  5
8F1
330
18
100
AcDbEntity
  8
SUNPOU
100
AcDbLine
 10
104.4357367348051
 20
85.0971774237899
 30
0.0
 11
106.2042285736898
 21
88.16029514150903
 31
0.0
  0
SOLID
  5
8F3
330
18
100
AcDbEntity
  8
SUNPOU
100
AcDbTrace
 10
104.485977208386
 20
85.93419647662821
 30
0.0
 11
105.1354962612243
 21
85.55919647662824
 31
0.0
 12
103.6857367348051
 22
83.79813931811325
 32
0.0
 13
103.6857367348051
 23
83.79813931811325
 33
0.0
  0
LINE
  5
8F4
330
18
100
AcDbEntity
  8
SUNPOU
100
AcDbLine
 10
106.2042285736898
 20
88.16029514150903
 30
0.0
 11
127.3463365089797
 21
88.16029514150903
 31
0.0
  0
TEXT
  5
8F5
330
18
100
AcDbEntity
  8
SUNPOU
100
AcDbText
 10
108.0053092463397
 20
25.49803207192861
 30
0.0
 40
3.0
  1
10   大レールアングル
 41
0.8
  7
EXT08
100
AcDbText
  0
LINE
  5
8F6
330
18
100
AcDbEntity
  8
SUNPOU
100
AcDbLine
 10
107.0349822790941
 20
23.9980320719286
 30
0.0
 11
127.1647209377664
 21
23.9980320719286
 31
0.0
  0
CIRCLE
  5
8F7
330
18
100
AcDbEntity
  8
SUNPOU
100
AcDbCircle
 10
108.9199841601107
 20
27.06664760039968
 30
0.0
 40
2.167682756202585
  0
LINE
  5
8F8
330
18
100
AcDbEntity
  8
SUNPOU
100
AcDbLine
 10
103.8428209231048
 20
29.52701772646003
 30
0.0
 11
107.0349822790941
 21
23.9980320719286
 31
0.0
  0
SOLID
  5
8F9
330
18
100
AcDbEntity
  8
SUNPOU
100
AcDbTrace
 10
103.8930613966857
 20
28.68999867362172
 30
0.0
 11
104.542580449524
 21
29.06499867362169
 31
0.0
 12
103.0928209231048
 22
30.82605583213669
 32
0.0
 13
103.0928209231048
 23
30.82605583213669
 33
0.0
  0
LINE
  5
8FC
330
18
100
AcDbEntity
  8
CENTER
100
AcDbLine
 10
26.82271655363155
 20
171.2433874619372
 30
0.0
 11
26.82271655363155
 21
172.7433874619372
 31
0.0
  0
LINE
  5
8FD
330
18
100
AcDbEntity
  8
CENTER
100
AcDbLine
 10
26.07271655363155
 20
171.9933874619372
 30
0.0
 11
27.57271655363155
 21
171.9933874619372
 31
0.0
  0
LINE
  5
8FE
330
18
100
AcDbEntity
  8
CENTER
100
AcDbLine
 10
26.82271655363155
 20
195.9221027473409
 30
0.0
 11
26.82271655363155
 21
197.4221027473409
 31
0.0
  0
LINE
  5
8FF
330
18
100
AcDbEntity
  8
CENTER
100
AcDbLine
 10
27.57271655363155
 20
196.6721027473409
 30
0.0
 11
26.07271655363155
 21
196.6721027473409
 31
0.0
  0
LINE
  5
906
330
18
100
AcDbEntity
  8
SUNPOU
100
AcDbLine
 10
84.76886501102745
 20
163.17859935284
 30
0.0
 11
87.50794516477304
 21
165.9176795065856
 31
0.0
  0
LINE
  5
907
330
18
100
AcDbEntity
  8
SUNPOU
100
AcDbLine
 10
85.82952518280723
 20
163.17859935284
 30
0.0
 11
88.56860533655293
 21
165.9176795065856
 31
0.0
  0
LINE
  5
908
330
18
100
AcDbEntity
  8
SUNPOU
100
AcDbLine
 10
80.35136487531548
 20
163.17859935284
 30
0.0
 11
83.09044502906113
 21
165.9176795065856
 31
0.0
  0
LINE
  5
909
330
18
100
AcDbEntity
  8
SUNPOU
100
AcDbLine
 10
81.4120250470953
 20
163.17859935284
 30
0.0
 11
84.15110520084096
 21
165.9176795065856
 31
0.0
  0
LINE
  5
90A
330
18
100
AcDbEntity
  8
SUNPOU
100
AcDbLine
 10
79.29070470353565
 20
163.17859935284
 30
0.0
 11
82.02978485728129
 21
165.9176795065856
 31
0.0
  0
LINE
  5
90B
330
18
100
AcDbEntity
  8
SUNPOU
100
AcDbLine
 10
86.89018535458705
 20
163.17859935284
 30
0.0
 11
89.62926550833271
 21
165.9176795065856
 31
0.0
  0
LINE
  5
90C
330
18
100
AcDbEntity
  8
KEN
100
AcDbLine
 10
103.1177819911085
 20
82.75676546063948
 30
0.0
 11
103.6857367348051
 21
83.79813931811325
 31
0.0
  0
LINE
  5
90D
330
18
100
AcDbEntity
  8
KEN
100
AcDbLine
 10
103.3953040088527
 20
83.9565383822395
 30
0.0
 11
103.6857367348051
 21
83.79813931811325
 31
0.0
  0
LINE
  5
90E
330
18
100
AcDbEntity
  8
KEN
100
AcDbLine
 10
102.8490255095072
 20
82.93231264268507
 30
0.0
 11
103.4048025126409
 21
83.95135799457589
 31
0.0
  0
ARC
  5
90F
330
18
100
AcDbEntity
  8
KEN
100
AcDbCircle
 10
102.8292367200134
 20
82.95486045433873
 30
0.0
 40
0.03
100
AcDbArc
 50
244.2337473184005
 51
337.2555613038323
  0
LINE
  5
917
330
18
100
AcDbEntity
  8
KEN
100
AcDbLine
 10
290.6584557728677
 20
197.3873895682074
 30
0.0
 11
288.6251691423995
 21
196.2784556548185
 31
0.0
  0
LINE
  5
918
330
18
100
AcDbEntity
  8
KEN
100
AcDbLine
 10
288.4722167134199
 20
196.1746742866328
 30
0.0
 11
288.1882393415716
 21
196.6953612153696
 31
0.0
  0
LINE
  5
919
330
18
100
AcDbEntity
  8
KEN
100
AcDbLine
 10
288.6065949542205
 20
196.2624478776556
 30
0.0
 11
288.3287064526537
 21
196.771970553601
 31
0.0
  0
ARC
  5
91A
330
18
100
AcDbEntity
  8
KEN
100
AcDbCircle
 10
288.6164893489674
 20
196.2737217834824
 30
0.0
 40
0.175
100
AcDbArc
 50
202.7444386961672
 51
295.7662526815995
  0
ARC
  5
91B
330
18
100
AcDbEntity
  8
KEN
100
AcDbCircle
 10
288.6164893489674
 20
196.2737217834824
 30
0.0
 40
0.015
100
AcDbArc
 50
202.7444386961672
 51
295.7662526815995
  0
LINE
  5
91C
330
18
100
AcDbEntity
  8
KEN
100
AcDbLine
 10
288.3334557045477
 20
196.7745607474327
 30
0.0
 11
288.1882393415716
 21
196.6953612153696
 31
0.0
  0
LINE
  5
91D
330
18
100
AcDbEntity
  8
KEN
100
AcDbLine
 10
290.784708930882
 20
197.1558979931503
 30
0.0
 11
290.6584557728677
 21
197.3873895682074
 31
0.0
  0
LINE
  5
91E
330
18
100
AcDbEntity
  8
KEN
100
AcDbLine
 10
240.9238658802055
 20
197.3873895682075
 30
0.0
 11
24.28229955375235
 21
197.3873895682074
 31
0.0
  0
LINE
  5
91F
330
18
100
AcDbEntity
  8
KEN
100
AcDbLine
 10
240.9238658802055
 20
196.6953612153696
 30
0.0
 11
24.28229955375235
 21
196.6953612153696
 31
0.0
  0
LINE
  5
920
330
18
100
AcDbEntity
  8
SUNPOU
100
AcDbLine
 10
84.7688650110274
 20
163.17859935284
 30
0.0
 11
83.09044502906136
 21
164.857019334806
 31
0.0
  0
LINE
  5
921
330
18
100
AcDbEntity
  8
SUNPOU
100
AcDbLine
 10
85.82952518280723
 20
164.2392595246198
 30
0.0
 11
84.15110520084141
 21
165.9176795065856
 31
0.0
  0
LINE
  5
922
330
18
100
AcDbEntity
  8
SUNPOU
100
AcDbLine
 10
85.29919509691735
 20
163.7089294387299
 30
0.0
 11
83.62077511495124
 21
165.387349420696
 31
0.0
  0
LINE
  5
923
330
18
100
AcDbEntity
  8
SUNPOU
100
AcDbLine
 10
90.24702531851932
 20
163.17859935284
 30
0.0
 11
88.56860533655316
 21
164.8570193348061
 31
0.0
  0
LINE
  5
924
330
18
100
AcDbEntity
  8
SUNPOU
100
AcDbLine
 10
91.30768549029909
 20
163.17859935284
 30
0.0
 11
89.09893542244304
 21
165.387349420696
 31
0.0
  0
LINE
  5
925
330
18
100
AcDbEntity
  8
SUNPOU
100
AcDbLine
 10
92.36834566207893
 20
163.17859935284
 30
0.0
 11
89.62926550833328
 21
165.9176795065856
 31
0.0
  0
TEXT
  5
926
330
18
100
AcDbEntity
  8
SUNPOU
100
AcDbText
 10
300.2530555972698
 20
256.4546793971179
 30
0.0
 40
5.0
  1
二枚羽根防風柵　＜７７ＢＳ－２Ｃ＞
 41
0.8
  7
EXT08
100
AcDbText
  0
TEXT
  5
941
330
18
100
AcDbEntity
  8
INFORMATION
100
AcDbText
 10
1.0
 20
2.0
 30
0.0
 40
0.8
  1
PLOTTER=CANON_LBP-A309G2
 41
0.8
  7
EXT08
100
AcDbText
  0
TEXT
  5
942
330
18
100
AcDbEntity
  8
INFORMATION
100
AcDbText
 10
1.0
 20
3.0
 30
0.0
 40
0.8
  1
PAPER=A3
 41
0.8
  7
EXT08
100
AcDbText
  0
LWPOLYLINE
  5
99D
330
18
100
AcDbEntity
  8
WAKU
100
AcDbPolyline
 90
        4
 70
     1
 43
0.0
 10
0.0
 20
0.0
 10
0.0
 20
273.3213346019399
 10
394.4729918274958
 20
273.3213346019399
 10
394.4729918274958
 20
0.0
  0
LINE
  5
9B5
330
18
100
AcDbEntity
  8
KEN
100
AcDbLine
 10
308.6830878278659
 20
216.4176795065857
 30
0.0
 11
308.6830878278659
 21
140.9176795065856
 31
0.0
  0
LINE
  5
9B6
330
18
100
AcDbEntity
  8
CENTER
100
AcDbLine
 10
311.7430878278658
 20
175.9176795065856
 30
0.0
 11
302.7430878278658
 21
175.9176795065856
 31
0.0
  0
ARC
  5
9B7
330
18
100
AcDbEntity
  8
SUNPOU
100
AcDbCircle
 10
307.7061667088575
 20
175.9176795065856
 30
0.0
 40
1.636921119008355
100
AcDbArc
 50
334.9726828393518
 51
25.0273171606482
  0
ARC
  5
9B8
330
18
100
AcDbEntity
  8
SUNPOU
100
AcDbCircle
 10
308.7457340051703
 20
175.9176795065856
 30
0.0
 40
0.5973538226954959
100
AcDbArc
 50
317.9622656271827
 51
42.03773437281729
  0
ARC
  5
9B9
330
18
100
AcDbEntity
  8
SUNPOU
100
AcDbCircle
 10
309.0371378439588
 20
176.4639295065856
 30
0.0
 40
0.2111163346638915
100
AcDbArc
 50
316.1521250632135
 51
0.7800510895963602
  0
ARC
  5
9BA
330
18
100
AcDbEntity
  8
SUNPOU
100
AcDbCircle
 10
309.0371378439588
 20
175.3714295065856
 30
0.0
 40
0.2111163346638915
100
AcDbArc
 50
359.2199489104037
 51
43.8478749367865
  0
LINE
  5
9BB
330
18
100
AcDbEntity
  8
SUNPOU
100
AcDbLine
 10
308.8430878278659
 20
176.6676795065856
 30
0.0
 11
308.6830878278659
 21
176.6676795065856
 31
0.0
  0
LINE
  5
9BC
330
18
100
AcDbEntity
  8
SUNPOU
100
AcDbLine
 10
308.8430878278659
 20
175.1676795065856
 30
0.0
 11
308.6830878278659
 21
175.1676795065856
 31
0.0
  0
LINE
  5
9BD
330
18
100
AcDbEntity
  8
SUNPOU
100
AcDbLine
 10
309.1893910681018
 20
176.3176795065856
 30
0.0
 11
308.8430878278659
 21
176.3176795065856
 31
0.0
  0
LINE
  5
9BE
330
18
100
AcDbEntity
  8
SUNPOU
100
AcDbLine
 10
309.1893910681018
 20
175.5176795065857
 30
0.0
 11
308.8430878278659
 21
175.5176795065857
 31
0.0
  0
LINE
  5
9BF
330
18
100
AcDbEntity
  8
SUNPOU
100
AcDbLine
 10
308.8430878278659
 20
176.6676795065856
 30
0.0
 11
308.8430878278659
 21
175.1676795065856
 31
0.0
  0
LINE
  5
9C0
330
18
100
AcDbEntity
  8
SUNPOU
100
AcDbLine
 10
309.1893910681018
 20
176.6101795065856
 30
0.0
 11
308.8430878278659
 21
176.6101795065856
 31
0.0
  0
LINE
  5
9C1
330
18
100
AcDbEntity
  8
SUNPOU
100
AcDbLine
 10
309.1893910681018
 20
175.2251795065856
 30
0.0
 11
308.8430878278659
 21
175.2251795065856
 31
0.0
  0
LINE
  5
9C2
330
18
100
AcDbEntity
  8
CENTER
100
AcDbLine
 10
311.7430878278658
 20
200.1676795065856
 30
0.0
 11
302.7430878278658
 21
200.1676795065856
 31
0.0
  0
ARC
  5
9C3
330
18
100
AcDbEntity
  8
SUNPOU
100
AcDbCircle
 10
309.0371378439588
 20
200.7139295065856
 30
0.0
 40
0.2111163346638915
100
AcDbArc
 50
316.1521250632135
 51
0.7800510895963602
  0
ARC
  5
9C4
330
18
100
AcDbEntity
  8
SUNPOU
100
AcDbCircle
 10
307.7061667088575
 20
200.1676795065856
 30
0.0
 40
1.636921119008355
100
AcDbArc
 50
334.9726828393518
 51
25.0273171606482
  0
LINE
  5
9C5
330
18
100
AcDbEntity
  8
SUNPOU
100
AcDbLine
 10
308.8430878278659
 20
200.9176795065856
 30
0.0
 11
308.8430878278659
 21
199.4176795065856
 31
0.0
  0
ARC
  5
9C6
330
18
100
AcDbEntity
  8
SUNPOU
100
AcDbCircle
 10
309.0371378439588
 20
199.6214295065856
 30
0.0
 40
0.2111163346638915
100
AcDbArc
 50
359.2199489104037
 51
43.8478749367865
  0
ARC
  5
9C7
330
18
100
AcDbEntity
  8
SUNPOU
100
AcDbCircle
 10
308.7457340051703
 20
200.1676795065856
 30
0.0
 40
0.5973538226954959
100
AcDbArc
 50
317.9622656271827
 51
42.03773437281729
  0
LINE
  5
9C8
330
18
100
AcDbEntity
  8
SUNPOU
100
AcDbLine
 10
308.8430878278659
 20
199.4176795065856
 30
0.0
 11
308.6830878278659
 21
199.4176795065856
 31
0.0
  0
LINE
  5
9C9
330
18
100
AcDbEntity
  8
SUNPOU
100
AcDbLine
 10
309.1893910681018
 20
200.5676795065856
 30
0.0
 11
308.8430878278659
 21
200.5676795065856
 31
0.0
  0
LINE
  5
9CA
330
18
100
AcDbEntity
  8
SUNPOU
100
AcDbLine
 10
309.1893910681018
 20
199.4751795065856
 30
0.0
 11
308.8430878278659
 21
199.4751795065856
 31
0.0
  0
LINE
  5
9CB
330
18
100
AcDbEntity
  8
SUNPOU
100
AcDbLine
 10
309.1893910681018
 20
199.7676795065856
 30
0.0
 11
308.8430878278659
 21
199.7676795065856
 31
0.0
  0
LINE
  5
9CC
330
18
100
AcDbEntity
  8
SUNPOU
100
AcDbLine
 10
308.8430878278659
 20
200.9176795065856
 30
0.0
 11
308.6830878278659
 21
200.9176795065856
 31
0.0
  0
LINE
  5
9CD
330
18
100
AcDbEntity
  8
SUNPOU
100
AcDbLine
 10
309.1893910681018
 20
200.8601795065856
 30
0.0
 11
308.8430878278659
 21
200.8601795065856
 31
0.0
  0
ARC
  5
9CE
330
18
100
AcDbEntity
  8
KEN
100
AcDbCircle
 10
306.7755878278618
 20
212.8812522835071
 30
0.0
 40
4.553493271894971
100
AcDbArc
 50
62.43003122899807
 51
117.5699687709127
  0
LINE
  5
9CF
330
18
100
AcDbEntity
  8
KEN
100
AcDbLine
 10
308.8830878278659
 20
216.4176795065857
 30
0.0
 11
304.6680878278658
 21
216.4176795065857
 31
0.0
  0
LINE
  5
9D0
330
18
100
AcDbEntity
  8
CENTER
100
AcDbLine
 10
311.7430878278658
 20
213.9176795065857
 30
0.0
 11
302.7430878278658
 21
213.9176795065857
 31
0.0
  0
ARC
  5
9D1
330
18
100
AcDbEntity
  8
SUNPOU
100
AcDbCircle
 10
307.7061667088575
 20
213.9176795065857
 30
0.0
 40
1.636921119008355
100
AcDbArc
 50
334.9726828393518
 51
25.0273171606482
  0
ARC
  5
9D2
330
18
100
AcDbEntity
  8
SUNPOU
100
AcDbCircle
 10
308.7457340051703
 20
213.9176795065857
 30
0.0
 40
0.5973538226954959
100
AcDbArc
 50
317.9622656271827
 51
42.03773437281729
  0
ARC
  5
9D3
330
18
100
AcDbEntity
  8
SUNPOU
100
AcDbCircle
 10
309.0371378439588
 20
214.4639295065856
 30
0.0
 40
0.2111163346638915
100
AcDbArc
 50
316.1521250632135
 51
0.7800510895963602
  0
ARC
  5
9D4
330
18
100
AcDbEntity
  8
SUNPOU
100
AcDbCircle
 10
309.0371378439588
 20
213.3714295065856
 30
0.0
 40
0.2111163346638915
100
AcDbArc
 50
359.2199489104037
 51
43.8478749367865
  0
LINE
  5
9D5
330
18
100
AcDbEntity
  8
KEN
100
AcDbLine
 10
308.8830878278659
 20
216.9176795065857
 30
0.0
 11
308.8830878278659
 21
216.4176795065857
 31
0.0
  0
LINE
  5
9D6
330
18
100
AcDbEntity
  8
SUNPOU
100
AcDbLine
 10
308.8430878278659
 20
214.6676795065856
 30
0.0
 11
308.6830878278659
 21
214.6676795065856
 31
0.0
  0
LINE
  5
9D7
330
18
100
AcDbEntity
  8
SUNPOU
100
AcDbLine
 10
308.8430878278659
 20
213.1676795065856
 30
0.0
 11
308.6830878278659
 21
213.1676795065856
 31
0.0
  0
LINE
  5
9D8
330
18
100
AcDbEntity
  8
SUNPOU
100
AcDbLine
 10
309.1893910681018
 20
214.3176795065856
 30
0.0
 11
308.8430878278659
 21
214.3176795065856
 31
0.0
  0
LINE
  5
9D9
330
18
100
AcDbEntity
  8
SUNPOU
100
AcDbLine
 10
309.1893910681018
 20
213.5176795065857
 30
0.0
 11
308.8430878278659
 21
213.5176795065857
 31
0.0
  0
LINE
  5
9DA
330
18
100
AcDbEntity
  8
SUNPOU
100
AcDbLine
 10
308.8430878278659
 20
214.6676795065856
 30
0.0
 11
308.8430878278659
 21
213.1676795065856
 31
0.0
  0
LINE
  5
9DB
330
18
100
AcDbEntity
  8
SUNPOU
100
AcDbLine
 10
309.1893910681018
 20
214.6101795065856
 30
0.0
 11
308.8430878278659
 21
214.6101795065856
 31
0.0
  0
LINE
  5
9DC
330
18
100
AcDbEntity
  8
SUNPOU
100
AcDbLine
 10
309.1893910681018
 20
213.2251795065856
 30
0.0
 11
308.8430878278659
 21
213.2251795065856
 31
0.0
  0
LINE
  5
9DD
330
18
100
AcDbEntity
  8
KEN
100
AcDbLine
 10
308.6830878278659
 20
140.9176795065856
 30
0.0
 11
304.868087827866
 21
140.9176795065856
 31
0.0
  0
LINE
  5
9DF
330
18
100
AcDbEntity
  8
KEN
100
AcDbLine
 10
236.1897995537522
 20
169.7283864377523
 30
0.0
 11
236.1897995537523
 21
165.9176795065865
 31
0.0
  0
LINE
  5
9E0
330
18
100
AcDbEntity
  8
KEN
100
AcDbLine
 10
232.3747995537523
 20
169.7283864377523
 30
0.0
 11
232.3747995537523
 21
165.9176795065865
 31
0.0
  0
LINE
  5
9E1
330
18
100
AcDbEntity
  8
KEN
100
AcDbLine
 10
136.1897995537523
 20
169.7283864377523
 30
0.0
 11
136.1897995537523
 21
165.9176795065865
 31
0.0
  0
LINE
  5
9E2
330
18
100
AcDbEntity
  8
KEN
100
AcDbLine
 10
132.3747995537523
 20
169.7283864377523
 30
0.0
 11
132.3747995537523
 21
165.9176795065865
 31
0.0
  0
LINE
  5
9E3
330
18
100
AcDbEntity
  8
KEN
100
AcDbLine
 10
36.18979955375233
 20
169.7283864377523
 30
0.0
 11
36.18979955375233
 21
165.9176795065865
 31
0.0
  0
LINE
  5
9E4
330
18
100
AcDbEntity
  8
KEN
100
AcDbLine
 10
32.37479955375238
 20
169.7283864377523
 30
0.0
 11
32.37479955375238
 21
165.9176795065865
 31
0.0
  0
LINE
  5
9E5
330
18
100
AcDbEntity
  8
KEN
100
AcDbLine
 10
236.3897995537522
 20
216.4176795065865
 30
0.0
 11
232.1747995537521
 21
216.4176795065865
 31
0.0
  0
ARC
  5
9E6
330
18
100
AcDbEntity
  8
KEN
100
AcDbCircle
 10
234.2822995537482
 20
212.8812522835079
 30
0.0
 40
4.553493271894971
100
AcDbArc
 50
62.43003122899807
 51
117.5699687709127
  0
LINE
  5
9E7
330
18
100
AcDbEntity
  8
KEN
100
AcDbLine
 10
232.1747995537522
 20
216.9176795065865
 30
0.0
 11
232.1747995537522
 21
216.4176795065865
 31
0.0
  0
LINE
  5
9E8
330
18
100
AcDbEntity
  8
KEN
100
AcDbLine
 10
236.3897995537522
 20
216.9176795065865
 30
0.0
 11
236.3897995537522
 21
216.4176795065865
 31
0.0
  0
LINE
  5
9E9
330
18
100
AcDbEntity
  8
KEN
100
AcDbLine
 10
232.3747995537523
 20
216.4176795065865
 30
0.0
 11
232.3747995537523
 21
215.9176795065857
 31
0.0
  0
LINE
  5
9EA
330
18
100
AcDbEntity
  8
KEN
100
AcDbLine
 10
236.1897995537522
 20
216.4176795065865
 30
0.0
 11
236.1897995537522
 21
215.9176795065857
 31
0.0
  0
ARC
  5
9EB
330
18
100
AcDbEntity
  8
KEN
100
AcDbCircle
 10
134.2822995537482
 20
212.8812522835076
 30
0.0
 40
4.553493271894971
100
AcDbArc
 50
62.43003122899807
 51
117.5699687709127
  0
LINE
  5
9EC
330
18
100
AcDbEntity
  8
KEN
100
AcDbLine
 10
136.3897995537523
 20
216.4176795065861
 30
0.0
 11
132.1747995537522
 21
216.4176795065861
 31
0.0
  0
LINE
  5
9ED
330
18
100
AcDbEntity
  8
KEN
100
AcDbLine
 10
132.3747995537523
 20
216.4176795065861
 30
0.0
 11
132.3747995537523
 21
215.9176795065853
 31
0.0
  0
LINE
  5
9EE
330
18
100
AcDbEntity
  8
KEN
100
AcDbLine
 10
132.1747995537523
 20
216.9176795065861
 30
0.0
 11
132.1747995537523
 21
216.4176795065861
 31
0.0
  0
LINE
  5
9EF
330
18
100
AcDbEntity
  8
KEN
100
AcDbLine
 10
136.1897995537522
 20
216.4176795065861
 30
0.0
 11
136.1897995537522
 21
215.9176795065853
 31
0.0
  0
LINE
  5
9F0
330
18
100
AcDbEntity
  8
KEN
100
AcDbLine
 10
136.3897995537523
 20
216.9176795065861
 30
0.0
 11
136.3897995537523
 21
216.4176795065861
 31
0.0
  0
LINE
  5
9F1
330
18
100
AcDbEntity
  8
KEN
100
AcDbLine
 10
36.38979955375226
 20
216.4176795065857
 30
0.0
 11
32.17479955375222
 21
216.4176795065857
 31
0.0
  0
ARC
  5
9F2
330
18
100
AcDbEntity
  8
KEN
100
AcDbCircle
 10
34.28229955374821
 20
212.8812522835072
 30
0.0
 40
4.553493271894971
100
AcDbArc
 50
62.43003122899807
 51
117.5699687709127
  0
LINE
  5
9F3
330
18
100
AcDbEntity
  8
KEN
100
AcDbLine
 10
32.17479955375222
 20
216.9176795065857
 30
0.0
 11
32.17479955375222
 21
216.4176795065857
 31
0.0
  0
LINE
  5
9F4
330
18
100
AcDbEntity
  8
KEN
100
AcDbLine
 10
32.37479955375227
 20
216.4176795065857
 30
0.0
 11
32.37479955375227
 21
215.9176795065849
 31
0.0
  0
LINE
  5
9F5
330
18
100
AcDbEntity
  8
KEN
100
AcDbLine
 10
36.38979955375226
 20
216.9176795065857
 30
0.0
 11
36.38979955375226
 21
216.4176795065857
 31
0.0
  0
LINE
  5
9F6
330
18
100
AcDbEntity
  8
KEN
100
AcDbLine
 10
36.18979955375221
 20
216.4176795065857
 30
0.0
 11
36.18979955375221
 21
215.9176795065849
 31
0.0
  0
LINE
  5
9F9
330
18
100
AcDbEntity
  8
CENTER
100
AcDbLine
 10
184.2822995537523
 20
171.2433874619372
 30
0.0
 11
184.2822995537523
 21
172.7433874619372
 31
0.0
  0
LINE
  5
9FA
330
18
100
AcDbEntity
  8
CENTER
100
AcDbLine
 10
183.5322995537523
 20
171.9933874619372
 30
0.0
 11
185.0322995537523
 21
171.9933874619372
 31
0.0
  0
LINE
  5
9FB
330
18
100
AcDbEntity
  8
CENTER
100
AcDbLine
 10
184.2822995537523
 20
195.9221027473409
 30
0.0
 11
184.2822995537523
 21
197.4221027473409
 31
0.0
  0
LINE
  5
9FC
330
18
100
AcDbEntity
  8
CENTER
100
AcDbLine
 10
185.0322995537523
 20
196.6721027473409
 30
0.0
 11
183.5322995537523
 21
196.6721027473409
 31
0.0
  0
LINE
  5
A1C
330
18
100
AcDbEntity
  8
KEN
100
AcDbLine
 10
62.29603976221671
 20
123.2427759005453
 30
0.0
 11
70.72603976221689
 21
123.2427759005453
 31
0.0
  0
ARC
  5
A1D
330
18
100
AcDbEntity
  8
KEN
100
AcDbCircle
 10
66.51103976222481
 20
116.1699214543882
 30
0.0
 40
9.106986543789943
100
AcDbArc
 50
62.43003122908727
 51
117.5699687710019
  0
LINE
  5
A1E
330
18
100
AcDbEntity
  8
KEN
100
AcDbLine
 10
70.72603976221677
 20
124.2427759005453
 30
0.0
 11
70.72603976221677
 21
123.2427759005453
 31
0.0
  0
LINE
  5
A1F
330
18
100
AcDbEntity
  8
KEN
100
AcDbLine
 10
62.29603976221671
 20
124.2427759005453
 30
0.0
 11
62.29603976221671
 21
123.2427759005453
 31
0.0
  0
LINE
  5
A20
330
18
100
AcDbEntity
  8
KEN
100
AcDbLine
 10
62.6960397622168
 20
123.2427759005453
 30
0.0
 11
62.69603976221663
 21
22.2427759005453
 31
0.0
  0
LINE
  5
A21
330
18
100
AcDbEntity
  8
CENTER
100
AcDbLine
 10
56.57603976221679
 20
42.24277590054524
 30
0.0
 11
74.5760397622168
 21
42.24277590054524
 31
0.0
  0
LINE
  5
A22
330
18
100
AcDbEntity
  8
SUNPOU
100
AcDbLine
 10
61.68343328174484
 20
40.85777590054525
 30
0.0
 11
62.37603976221663
 21
40.85777590054525
 31
0.0
  0
LINE
  5
A23
330
18
100
AcDbEntity
  8
SUNPOU
100
AcDbLine
 10
61.68343328174484
 20
43.62777590054522
 30
0.0
 11
62.37603976221663
 21
43.62777590054522
 31
0.0
  0
LINE
  5
A24
330
18
100
AcDbEntity
  8
SUNPOU
100
AcDbLine
 10
62.37603976221663
 20
43.74277590054524
 30
0.0
 11
62.37603976221663
 21
40.74277590054523
 31
0.0
  0
LINE
  5
A25
330
18
100
AcDbEntity
  8
SUNPOU
100
AcDbLine
 10
61.68343328174484
 20
41.44277590054528
 30
0.0
 11
62.37603976221663
 21
41.44277590054528
 31
0.0
  0
LINE
  5
A26
330
18
100
AcDbEntity
  8
SUNPOU
100
AcDbLine
 10
61.68343328174484
 20
43.04277590054519
 30
0.0
 11
62.37603976221663
 21
43.04277590054519
 31
0.0
  0
LINE
  5
A27
330
18
100
AcDbEntity
  8
SUNPOU
100
AcDbLine
 10
62.37603976221663
 20
40.74277590054523
 30
0.0
 11
62.6960397622168
 21
40.74277590054523
 31
0.0
  0
LINE
  5
A28
330
18
100
AcDbEntity
  8
SUNPOU
100
AcDbLine
 10
62.37603976221663
 20
43.74277590054524
 30
0.0
 11
62.6960397622168
 21
43.74277590054524
 31
0.0
  0
ARC
  5
A29
330
18
100
AcDbEntity
  8
SUNPOU
100
AcDbCircle
 10
61.98793973003086
 20
41.15027590054526
 30
0.0
 40
0.422232669327783
100
AcDbArc
 50
136.1521250632135
 51
180.7800510895963
  0
ARC
  5
A2A
330
18
100
AcDbEntity
  8
SUNPOU
100
AcDbCircle
 10
61.98793973003086
 20
43.33527590054521
 30
0.0
 40
0.422232669327783
100
AcDbArc
 50
179.2199489104036
 51
223.8478749367865
  0
ARC
  5
A2B
330
18
100
AcDbEntity
  8
SUNPOU
100
AcDbCircle
 10
62.57074740760782
 20
42.24277590054524
 30
0.0
 40
1.194707645390991
100
AcDbArc
 50
137.9622656271827
 51
222.0377343728173
  0
ARC
  5
A2C
330
18
100
AcDbEntity
  8
SUNPOU
100
AcDbCircle
 10
64.6498820002335
 20
42.24277590054524
 30
0.0
 40
3.273842238016711
100
AcDbArc
 50
154.972682839355
 51
205.0273171606449
  0
LINE
  5
A2D
330
18
100
AcDbEntity
  8
SUNPOU
100
AcDbLine
 10
62.37603976221663
 20
92.24277590054525
 30
0.0
 11
62.37603976221663
 21
89.24277590054524
 31
0.0
  0
ARC
  5
A2E
330
18
100
AcDbEntity
  8
SUNPOU
100
AcDbCircle
 10
64.6498820002335
 20
90.74277590054524
 30
0.0
 40
3.273842238016711
100
AcDbArc
 50
154.972682839355
 51
205.0273171606449
  0
ARC
  5
A2F
330
18
100
AcDbEntity
  8
SUNPOU
100
AcDbCircle
 10
61.98793973003086
 20
91.83527590054522
 30
0.0
 40
0.422232669327783
100
AcDbArc
 50
179.2199489104036
 51
223.8478749367865
  0
LINE
  5
A30
330
18
100
AcDbEntity
  8
CENTER
100
AcDbLine
 10
56.57603976221679
 20
90.74277590054524
 30
0.0
 11
74.5760397622168
 21
90.74277590054524
 31
0.0
  0
LINE
  5
A31
330
18
100
AcDbEntity
  8
SUNPOU
100
AcDbLine
 10
61.68343328174484
 20
89.94277590054517
 30
0.0
 11
62.37603976221663
 21
89.94277590054517
 31
0.0
  0
LINE
  5
A32
330
18
100
AcDbEntity
  8
SUNPOU
100
AcDbLine
 10
61.68343328174484
 20
89.35777590054525
 30
0.0
 11
62.37603976221663
 21
89.35777590054525
 31
0.0
  0
LINE
  5
A33
330
18
100
AcDbEntity
  8
SUNPOU
100
AcDbLine
 10
61.68343328174484
 20
91.54277590054519
 30
0.0
 11
62.37603976221663
 21
91.54277590054519
 31
0.0
  0
LINE
  5
A34
330
18
100
AcDbEntity
  8
SUNPOU
100
AcDbLine
 10
62.37603976221663
 20
89.24277590054524
 30
0.0
 11
62.6960397622168
 21
89.24277590054524
 31
0.0
  0
ARC
  5
A35
330
18
100
AcDbEntity
  8
SUNPOU
100
AcDbCircle
 10
62.57074740760782
 20
90.74277590054524
 30
0.0
 40
1.194707645390991
100
AcDbArc
 50
137.9622656271827
 51
222.0377343728173
  0
ARC
  5
A36
330
18
100
AcDbEntity
  8
SUNPOU
100
AcDbCircle
 10
61.98793973003086
 20
89.65027590054527
 30
0.0
 40
0.422232669327783
100
AcDbArc
 50
136.1521250632135
 51
180.7800510895963
  0
LINE
  5
A37
330
18
100
AcDbEntity
  8
SUNPOU
100
AcDbLine
 10
61.68343328174484
 20
92.12777590054523
 30
0.0
 11
62.37603976221663
 21
92.12777590054523
 31
0.0
  0
LINE
  5
A38
330
18
100
AcDbEntity
  8
SUNPOU
100
AcDbLine
 10
62.37603976221663
 20
92.24277590054525
 30
0.0
 11
62.6960397622168
 21
92.24277590054525
 31
0.0
  0
LINE
  5
A39
330
18
100
AcDbEntity
  8
CENTER
100
AcDbLine
 10
56.57603976221679
 20
118.2427759005452
 30
0.0
 11
74.5760397622168
 21
118.2427759005452
 31
0.0
  0
LINE
  5
A3A
330
18
100
AcDbEntity
  8
SUNPOU
100
AcDbLine
 10
61.68343328174484
 20
116.8577759005452
 30
0.0
 11
62.37603976221663
 21
116.8577759005452
 31
0.0
  0
LINE
  5
A3B
330
18
100
AcDbEntity
  8
SUNPOU
100
AcDbLine
 10
61.68343328174484
 20
119.6277759005452
 30
0.0
 11
62.37603976221663
 21
119.6277759005452
 31
0.0
  0
LINE
  5
A3C
330
18
100
AcDbEntity
  8
SUNPOU
100
AcDbLine
 10
62.37603976221663
 20
119.7427759005452
 30
0.0
 11
62.37603976221663
 21
116.7427759005452
 31
0.0
  0
LINE
  5
A3D
330
18
100
AcDbEntity
  8
SUNPOU
100
AcDbLine
 10
61.68343328174484
 20
117.4427759005453
 30
0.0
 11
62.37603976221663
 21
117.4427759005453
 31
0.0
  0
LINE
  5
A3E
330
18
100
AcDbEntity
  8
SUNPOU
100
AcDbLine
 10
61.68343328174484
 20
119.0427759005452
 30
0.0
 11
62.37603976221663
 21
119.0427759005452
 31
0.0
  0
LINE
  5
A3F
330
18
100
AcDbEntity
  8
SUNPOU
100
AcDbLine
 10
62.37603976221663
 20
116.7427759005452
 30
0.0
 11
62.6960397622168
 21
116.7427759005452
 31
0.0
  0
LINE
  5
A40
330
18
100
AcDbEntity
  8
SUNPOU
100
AcDbLine
 10
62.37603976221663
 20
119.7427759005452
 30
0.0
 11
62.6960397622168
 21
119.7427759005452
 31
0.0
  0
ARC
  5
A41
330
18
100
AcDbEntity
  8
SUNPOU
100
AcDbCircle
 10
61.98793973003086
 20
117.1502759005452
 30
0.0
 40
0.422232669327783
100
AcDbArc
 50
136.1521250632135
 51
180.7800510895963
  0
ARC
  5
A42
330
18
100
AcDbEntity
  8
SUNPOU
100
AcDbCircle
 10
61.98793973003086
 20
119.3352759005452
 30
0.0
 40
0.422232669327783
100
AcDbArc
 50
179.2199489104036
 51
223.8478749367865
  0
ARC
  5
A43
330
18
100
AcDbEntity
  8
SUNPOU
100
AcDbCircle
 10
62.57074740760782
 20
118.2427759005452
 30
0.0
 40
1.194707645390991
100
AcDbArc
 50
137.9622656271827
 51
222.0377343728173
  0
ARC
  5
A44
330
18
100
AcDbEntity
  8
SUNPOU
100
AcDbCircle
 10
64.6498820002335
 20
118.2427759005452
 30
0.0
 40
3.273842238016711
100
AcDbArc
 50
154.972682839355
 51
205.0273171606449
  0
LINE
  5
A4E
330
18
100
AcDbEntity
  8
KEN
100
AcDbLine
 10
198.2843812051892
 20
123.2427759005461
 30
0.0
 11
189.854381205189
 21
123.2427759005461
 31
0.0
  0
ARC
  5
A4F
330
18
100
AcDbEntity
  8
KEN
100
AcDbCircle
 10
194.0693812051811
 20
116.169921454389
 30
0.0
 40
9.106986543789943
100
AcDbArc
 50
62.43003122899807
 51
117.5699687709127
  0
LINE
  5
A50
330
18
100
AcDbEntity
  8
KEN
100
AcDbLine
 10
189.8543812051891
 20
124.2427759005462
 30
0.0
 11
189.8543812051891
 21
123.2427759005462
 31
0.0
  0
LINE
  5
A51
330
18
100
AcDbEntity
  8
KEN
100
AcDbLine
 10
190.2543812051892
 20
123.2427759005462
 30
0.0
 11
190.2543812051892
 21
122.2427759005445
 31
0.0
  0
LINE
  5
A52
330
18
100
AcDbEntity
  8
KEN
100
AcDbLine
 10
198.2843812051892
 20
124.2427759005461
 30
0.0
 11
198.2843812051892
 21
123.2427759005461
 31
0.0
  0
LINE
  5
A53
330
18
100
AcDbEntity
  8
KEN
100
AcDbLine
 10
197.8843812051891
 20
123.2427759005461
 30
0.0
 11
197.8843812051891
 21
122.2427759005446
 31
0.0
  0
LINE
  5
A54
330
18
100
AcDbEntity
  8
KEN
100
AcDbLine
 10
197.8843812051892
 20
29.86418976287865
 30
0.0
 11
197.8843812051893
 21
22.24277590054703
 31
0.0
  0
LINE
  5
A55
330
18
100
AcDbEntity
  8
KEN
100
AcDbLine
 10
190.2543812051893
 20
29.86418976287865
 30
0.0
 11
190.2543812051893
 21
22.24277590054703
 31
0.0
  0
LINE
  5
A78
330
18
100
AcDbEntity
  8
SUNPOU
100
AcDbLine
 10
261.811575070502
 20
76.26854135464689
 30
0.0
 11
358.8273580006068
 21
76.26854135464689
 31
0.0
  0
DIMENSION
  5
14C1
330
18
100
AcDbEntity
  8
SUNPOU
100
AcDbDimension
  2
*D6
 10
250.28486326918
 20
196.1148545065859
 30
0.0
 11
247.58486326918
 21
206.0162670065858
 31
0.0
 70
    32
  1
400
 71
     5
 42
19.80282499999978
  3
SJC
100
AcDbAlignedDimension
 13
240.9238658802055
 23
215.9176795065857
 33
0.0
 14
240.9238658802055
 24
196.1148545065859
 34
0.0
 50
90.0
100
AcDbRotatedDimension
1001
ACAD
1000
DSTYLE
1002
{
1070
    40
1040
1.0
1070
    41
1040
2.0
1070
    42
1040
1.0
1070
    43
1040
6.0
1070
    44
1040
1.0
1070
    73
1070
     0
1070
    74
1070
     0
1070
    77
1070
     3
1070
   140
1040
3.0
1070
   147
1040
1.199999999999999
1070
   172
1070
     1
1070
   176
1070
   256
1070
   177
1070
   256
1070
   340
1005
97C
1002
}
  0
DIMENSION
  5
14CE
330
18
100
AcDbEntity
  8
SUNPOU
100
AcDbDimension
  2
*D7
 10
250.28486326918
 20
170.9326225787937
 30
0.0
 11
247.58486326918
 21
183.5237385426898
 31
0.0
 70
    32
  1
500
 71
     5
 42
25.1822319277922
  3
SJC
100
AcDbAlignedDimension
 13
240.9238658802055
 23
196.1148545065859
 33
0.0
 14
240.9238658802054
 24
170.9326225787937
 34
0.0
 50
90.0
100
AcDbRotatedDimension
1001
ACAD
1000
DSTYLE
1002
{
1070
    40
1040
1.0
1070
    41
1040
2.0
1070
    42
1040
1.0
1070
    43
1040
6.0
1070
    44
1040
1.0
1070
    73
1070
     0
1070
    74
1070
     0
1070
    77
1070
     3
1070
   140
1040
3.0
1070
   147
1040
1.199999999999999
1070
   172
1070
     1
1070
   176
1070
   256
1070
   177
1070
   256
1070
   340
1005
97C
1002
}
  0
DIMENSION
  5
15B6
330
18
100
AcDbEntity
  8
SUNPOU
100
AcDbDimension
  2
*D8
 10
331.3359818894528
 20
217.4347455554021
 30
0.0
 11
328.6359818894528
 21
191.6762125309939
 31
0.0
 70
    32
  1
1030
 71
     5
 42
51.51706604881638
  3
SJC
100
AcDbAlignedDimension
 13
325.808087827866
 23
165.9176795065856
 33
0.0
 14
306.7755878278654
 24
217.4347455554021
 34
0.0
 50
90.0
100
AcDbRotatedDimension
1001
ACAD
1000
DSTYLE
1002
{
1070
    40
1040
1.0
1070
    41
1040
2.0
1070
    42
1040
1.0
1070
    43
1040
6.0
1070
    44
1040
1.0
1070
    73
1070
     0
1070
    74
1070
     0
1070
    77
1070
     3
1070
   140
1040
3.0
1070
   147
1040
1.199999999999999
1070
   172
1070
     1
1070
   176
1070
   256
1070
   177
1070
   256
1070
   340
1005
97C
1002
}
  0
DIMENSION
  5
15CE
330
18
100
AcDbEntity
  8
SUNPOU
100
AcDbDimension
  2
*D9
 10
331.3359818894528
 20
140.9176795065856
 30
0.0
 11
328.6359818894528
 21
153.4176795065857
 31
0.0
 70
    32
  1
500
 71
     5
 42
25.0
  3
SJC
100
AcDbAlignedDimension
 13
325.808087827866
 23
165.9176795065856
 33
0.0
 14
321.775587827866
 24
140.9176795065856
 34
0.0
 50
90.0
100
AcDbRotatedDimension
1001
ACAD
1000
DSTYLE
1002
{
1070
    40
1040
1.0
1070
    41
1040
2.0
1070
    42
1040
1.0
1070
    43
1040
6.0
1070
    44
1040
1.0
1070
    73
1070
     0
1070
    74
1070
     0
1070
    77
1070
     3
1070
   140
1040
3.0
1070
   147
1040
1.199999999999999
1070
   172
1070
     1
1070
   176
1070
   256
1070
   177
1070
   256
1070
   340
1005
97C
1002
}
  0
DIMENSION
  5
15DB
330
18
100
AcDbEntity
  8
SUNPOU
100
AcDbDimension
  2
*D10
 10
337.2998392673492
 20
217.4347455554021
 30
0.0
 11
334.5998392673491
 21
179.1762125309939
 31
0.0
 70
    32
  1
1530
 71
     5
 42
76.51706604881638
  3
SJC
100
AcDbAlignedDimension
 13
321.775587827866
 23
140.9176795065856
 33
0.0
 14
306.7755878278654
 24
217.4347455554021
 34
0.0
 50
90.0
100
AcDbRotatedDimension
1001
ACAD
1000
DSTYLE
1002
{
1070
    40
1040
1.0
1070
    41
1040
2.0
1070
    42
1040
1.0
1070
    43
1040
6.0
1070
    44
1040
1.0
1070
    73
1070
     0
1070
    74
1070
     0
1070
    77
1070
     3
1070
   140
1040
3.0
1070
   147
1040
1.199999999999999
1070
   172
1070
     1
1070
   176
1070
   256
1070
   177
1070
   256
1070
   340
1005
97C
1002
}
  0
DIMENSION
  5
15E8
330
18
100
AcDbEntity
  8
SUNPOU
100
AcDbDimension
  2
*D11
 10
319.275587827866
 20
128.0275436808844
 30
0.0
 11
306.775587827866
 21
130.7275436808843
 31
0.0
 70
    32
  1
500
 71
     5
 42
25.00000000000006
  3
SJC
100
AcDbAlignedDimension
 13
294.275587827866
 23
140.9176795065856
 33
0.0
 14
319.275587827866
 24
140.9176795065856
 34
0.0
100
AcDbRotatedDimension
1001
ACAD
1000
DSTYLE
1002
{
1070
    40
1040
1.0
1070
    41
1040
2.0
1070
    42
1040
1.0
1070
    43
1040
6.0
1070
    44
1040
1.0
1070
    73
1070
     0
1070
    74
1070
     0
1070
    77
1070
     3
1070
   140
1040
3.0
1070
   147
1040
1.199999999999999
1070
   172
1070
     1
1070
   176
1070
   256
1070
   177
1070
   256
1070
   340
1005
97C
1002
}
  0
DIMENSION
  5
163B
330
18
100
AcDbEntity
  8
SUNPOU
100
AcDbDimension
  2
*D12
 10
81.17603976221653
 20
137.7131374344119
 30
0.0
 11
76.17603976221653
 21
140.4131374344119
 31
0.0
 70
    32
  1
100
 71
     5
 42
10.0
  3
SJC
100
AcDbAlignedDimension
 13
71.17603976221653
 23
122.2427759005452
 33
0.0
 14
81.17603976221653
 24
122.2427759005452
 34
0.0
100
AcDbRotatedDimension
1001
ACAD
1000
DSTYLE
1002
{
1070
    40
1040
1.0
1070
    41
1040
2.0
1070
    42
1040
1.0
1070
    43
1040
6.0
1070
    44
1040
1.0
1070
    73
1070
     0
1070
    74
1070
     0
1070
    77
1070
     3
1070
   140
1040
3.0
1070
   147
1040
1.199999999999999
1070
   172
1070
     1
1070
   176
1070
   256
1070
   177
1070
   256
1070
   340
1005
97C
1002
}
  0
DIMENSION
  5
1675
330
18
100
AcDbEntity
  8
SUNPOU
100
AcDbDimension
  2
*D13
 10
34.86857487674212
 20
118.2427759005452
 30
0.0
 11
32.16857487674209
 21
121.7598419493617
 31
0.0
 70
    32
  1
70
 71
     5
 42
7.034132097632877
  3
SJC
100
AcDbAlignedDimension
 13
66.51103976221773
 23
125.2769079981781
 33
0.0
 14
56.57603976221679
 24
118.2427759005452
 34
0.0
 50
90.0
100
AcDbRotatedDimension
1001
ACAD
1000
DSTYLE
1002
{
1070
    40
1040
1.0
1070
    41
1040
2.0
1070
    42
1040
1.0
1070
    43
1040
6.0
1070
    44
1040
1.0
1070
    73
1070
     0
1070
    74
1070
     0
1070
    77
1070
     3
1070
   140
1040
3.0
1070
   147
1040
1.199999999999999
1070
   172
1070
     1
1070
   176
1070
   256
1070
   177
1070
   256
1070
   340
1005
97C
1002
}
  0
DIMENSION
  5
1682
330
18
100
AcDbEntity
  8
SUNPOU
100
AcDbDimension
  2
*D14
 10
34.86857487674212
 20
90.74277590054524
 30
0.0
 11
32.1685748767421
 21
104.4927759005452
 31
0.0
 70
    32
  1
275
 71
     5
 42
27.5
  3
SJC
100
AcDbAlignedDimension
 13
56.57603976221679
 23
118.2427759005452
 33
0.0
 14
56.57603976221679
 24
90.74277590054524
 34
0.0
 50
90.0
100
AcDbRotatedDimension
1001
ACAD
1000
DSTYLE
1002
{
1070
    40
1040
1.0
1070
    41
1040
2.0
1070
    42
1040
1.0
1070
    43
1040
6.0
1070
    44
1040
1.0
1070
    73
1070
     0
1070
    74
1070
     0
1070
    77
1070
     3
1070
   140
1040
3.0
1070
   147
1040
1.199999999999999
1070
   172
1070
     1
1070
   176
1070
   256
1070
   177
1070
   256
1070
   340
1005
97C
1002
}
  0
DIMENSION
  5
16BE
330
18
100
AcDbEntity
  8
SUNPOU
100
AcDbDimension
  2
*D15
 10
34.86857487674212
 20
42.24277590054525
 30
0.0
 11
32.16857487674211
 21
66.49277590054525
 31
0.0
 70
    32
  1
485
 71
     5
 42
48.5
  3
SJC
100
AcDbAlignedDimension
 13
56.57603976221679
 23
90.74277590054524
 33
0.0
 14
56.57603976221679
 24
42.24277590054524
 34
0.0
 50
90.0
100
AcDbRotatedDimension
1001
ACAD
1000
DSTYLE
1002
{
1070
    40
1040
1.0
1070
    41
1040
2.0
1070
    42
1040
1.0
1070
    43
1040
6.0
1070
    44
1040
1.0
1070
    73
1070
     0
1070
    74
1070
     0
1070
    77
1070
     3
1070
   140
1040
3.0
1070
   147
1040
1.199999999999999
1070
   172
1070
     1
1070
   176
1070
   256
1070
   177
1070
   256
1070
   340
1005
97C
1002
}
  0
DIMENSION
  5
16CB
330
18
100
AcDbEntity
  8
SUNPOU
100
AcDbDimension
  2
*D16
 10
34.86857487674212
 20
22.2427759005453
 30
0.0
 11
32.16857487674211
 21
32.24277590054529
 31
0.0
 70
    32
  1
200
 71
     5
 42
19.99999999999994
  3
SJC
100
AcDbAlignedDimension
 13
56.57603976221679
 23
42.24277590054524
 33
0.0
 14
51.38736025166309
 24
22.2427759005453
 34
0.0
 50
90.0
100
AcDbRotatedDimension
1001
ACAD
1000
DSTYLE
1002
{
1070
    40
1040
1.0
1070
    41
1040
2.0
1070
    42
1040
1.0
1070
    43
1040
6.0
1070
    44
1040
1.0
1070
    73
1070
     0
1070
    74
1070
     0
1070
    77
1070
     3
1070
   140
1040
3.0
1070
   147
1040
1.199999999999999
1070
   172
1070
     1
1070
   176
1070
   256
1070
   177
1070
   256
1070
   340
1005
97C
1002
}
  0
DIMENSION
  5
16D8
330
18
100
AcDbEntity
  8
SUNPOU
100
AcDbDimension
  2
*D17
 10
28.35516406661395
 20
22.2427759005453
 30
0.0
 11
25.65516406661395
 21
73.75984194936171
 31
0.0
 70
    32
  1
1030
 71
     5
 42
103.0341320976328
  3
SJC
100
AcDbAlignedDimension
 13
66.51103976221773
 23
125.2769079981781
 33
0.0
 14
51.38736025166309
 24
22.2427759005453
 34
0.0
 50
90.0
100
AcDbRotatedDimension
1001
ACAD
1000
DSTYLE
1002
{
1070
    40
1040
1.0
1070
    41
1040
2.0
1070
    42
1040
1.0
1070
    43
1040
6.0
1070
    44
1040
1.0
1070
    73
1070
     0
1070
    74
1070
     0
1070
    77
1070
     3
1070
   140
1040
3.0
1070
   147
1040
1.199999999999999
1070
   172
1070
     1
1070
   176
1070
   256
1070
   177
1070
   256
1070
   340
1005
97C
1002
}
  0
DIMENSION
  5
16F6
330
18
100
AcDbEntity
  8
SUNPOU
100
AcDbDimension
  2
*D18
 10
136.827797252223
 20
22.24277590054528
 30
0.0
 11
134.127797252223
 21
27.25771897275331
 31
0.0
 70
    32
  1
100
 71
     5
 42
10.029886144416
  3
SJC
100
AcDbAlignedDimension
 13
102.5126632875925
 23
32.27266204496129
 33
0.0
 14
102.6760397622166
 24
22.2427759005453
 34
0.0
 50
90.0
100
AcDbRotatedDimension
1001
ACAD
1000
DSTYLE
1002
{
1070
    40
1040
1.0
1070
    41
1040
2.0
1070
    42
1040
1.0
1070
    43
1040
6.0
1070
    44
1040
1.0
1070
    73
1070
     0
1070
    74
1070
     0
1070
    77
1070
     3
1070
   140
1040
3.0
1070
   147
1040
1.199999999999999
1070
   172
1070
     1
1070
   176
1070
   256
1070
   177
1070
   256
1070
   340
1005
97C
1002
}
  0
DIMENSION
  5
1703
330
18
100
AcDbEntity
  8
SUNPOU
100
AcDbDimension
  2
*D19
 10
136.827797252223
 20
82.26769625159301
 30
0.0
 11
134.127797252223
 21
57.27017914827717
 31
0.0
 70
    32
  1
500
 71
     5
 42
49.99503420663172
  3
SJC
100
AcDbAlignedDimension
 13
102.5126632875925
 23
32.27266204496129
 33
0.0
 14
102.5226717913914
 24
82.26769625159301
 34
0.0
 50
90.0
100
AcDbRotatedDimension
1001
ACAD
1000
DSTYLE
1002
{
1070
    40
1040
1.0
1070
    41
1040
2.0
1070
    42
1040
1.0
1070
    43
1040
6.0
1070
    44
1040
1.0
1070
    73
1070
     0
1070
    74
1070
     0
1070
    77
1070
     3
1070
   140
1040
3.0
1070
   147
1040
1.199999999999999
1070
   172
1070
     1
1070
   176
1070
   256
1070
   177
1070
   256
1070
   340
1005
97C
1002
}
  0
DIMENSION
  5
1710
330
18
100
AcDbEntity
  8
SUNPOU
100
AcDbDimension
  2
*D20
 10
136.827797252223
 20
82.26769625159301
 30
0.0
 11
134.127797252223
 21
102.2552360760691
 31
0.0
 70
    32
  1
400
 71
     5
 42
39.97507964895225
  3
SJC
100
AcDbAlignedDimension
 13
81.57603976221656
 23
122.2427759005452
 33
0.0
 14
102.5226717913914
 24
82.26769625159301
 34
0.0
 50
90.0
100
AcDbRotatedDimension
1001
ACAD
1000
DSTYLE
1002
{
1070
    40
1040
1.0
1070
    41
1040
2.0
1070
    42
1040
1.0
1070
    43
1040
6.0
1070
    44
1040
1.0
1070
    73
1070
     0
1070
    74
1070
     0
1070
    77
1070
     3
1070
   140
1040
3.0
1070
   147
1040
1.199999999999999
1070
   172
1070
     1
1070
   176
1070
   256
1070
   177
1070
   256
1070
   340
1005
97C
1002
}
  0
TEXT
  5
171E
330
18
100
AcDbEntity
  8
SUNPOU
100
AcDbText
 10
313.4235661740103
 20
66.57367850711167
 30
0.0
 40
3.0
  1
亜鉛めっき＋静電粉体塗装 t1.2
 41
0.8
  7
EXT08
100
AcDbText
  0
TEXT
  5
171F
330
18
100
AcDbEntity
  8
SUNPOU
100
AcDbText
 10
313.4235661740103
 20
71.97367850711166
 30
0.0
 40
3.0
  1
亜鉛めっき＋静電粉体塗装 t1.6
 41
0.8
  7
EXT08
100
AcDbText
  0
TEXT
  5
1720
330
18
100
AcDbEntity
  8
SUNPOU
100
AcDbText
 10
313.4235661740103
 20
77.37367850711166
 30
0.0
 40
3.0
  1
亜鉛めっき＋静電粉体塗装
 41
0.8
  7
EXT08
100
AcDbText
  0
TEXT
  5
1721
330
18
100
AcDbEntity
  8
SUNPOU
100
AcDbText
 10
313.4235661740103
 20
61.17367850711167
 30
0.0
 40
3.0
  1
亜鉛めっき＋静電粉体塗装 t3.2
 41
0.8
  7
EXT08
100
AcDbText
  0
TEXT
  5
1724
330
18
100
AcDbEntity
  8
SUNPOU
100
AcDbText
 10
313.4235661740103
 20
44.97367850711166
 30
0.0
 40
3.0
  1
亜鉛めっき＋静電粉体塗装 t3.0
 41
0.8
  7
EXT08
100
AcDbText
  0
TEXT
  5
1727
330
18
100
AcDbEntity
  8
SUNPOU
100
AcDbText
 10
313.4235661740103
 20
55.77367850711168
 30
0.0
 40
3.0
  1
亜鉛めっき＋静電粉体塗装 t3.2
 41
0.8
  7
EXT08
100
AcDbText
  0
TEXT
  5
1728
330
18
100
AcDbEntity
  8
SUNPOU
100
AcDbText
 10
313.4235661740103
 20
50.37367850711166
 30
0.0
 40
3.0
  1
亜鉛めっき＋静電粉体塗装 t3.2
 41
0.8
  7
EXT08
100
AcDbText
  0
TEXT
  5
1729
330
18
100
AcDbEntity
  8
SUNPOU
100
AcDbText
 10
313.4235661740102
 20
28.77367850711167
 30
0.0
 40
3.0
  1
亜鉛めっき＋静電粉体塗装 t3.2
 41
0.8
  7
EXT08
100
AcDbText
  0
TEXT
  5
172A
330
18
100
AcDbEntity
  8
SUNPOU
100
AcDbText
 10
313.4235661740102
 20
23.37367850711165
 30
0.0
 40
3.0
  1
亜鉛めっき＋静電粉体塗装 t3.2
 41
0.8
  7
EXT08
100
AcDbText
  0
LINE
  5
1823
330
18
100
AcDbEntity
  8
SUNPOU
100
AcDbLine
 10
294.275587827866
 20
152.8963304721461
 30
0.0
 11
304.8680878278659
 21
163.488830472146
 31
0.0
  0
LINE
  5
1824
330
18
100
AcDbEntity
  8
SUNPOU
100
AcDbLine
 10
294.275587827866
 20
151.8356703003662
 30
0.0
 11
304.8680878278659
 21
162.4281703003662
 31
0.0
  0
LINE
  5
1825
330
18
100
AcDbEntity
  8
SUNPOU
100
AcDbLine
 10
294.275587827866
 20
150.7750101285864
 30
0.0
 11
304.8680878278659
 21
161.3675101285864
 31
0.0
  0
LINE
  5
1826
330
18
100
AcDbEntity
  8
SUNPOU
100
AcDbLine
 10
304.4182572058653
 20
140.9176795065856
 30
0.0
 11
304.868087827866
 21
141.3675101285863
 31
0.0
  0
LINE
  5
1827
330
18
100
AcDbEntity
  8
SUNPOU
100
AcDbLine
 10
303.3575970340854
 20
140.9176795065856
 30
0.0
 11
304.868087827866
 21
142.4281703003662
 31
0.0
  0
LINE
  5
1828
330
18
100
AcDbEntity
  8
SUNPOU
100
AcDbLine
 10
302.2969368623055
 20
140.9176795065856
 30
0.0
 11
304.868087827866
 21
143.488830472146
 31
0.0
  0
LINE
  5
1829
330
18
100
AcDbEntity
  8
SUNPOU
100
AcDbLine
 10
294.275587827866
 20
142.896330472146
 30
0.0
 11
304.8680878278659
 21
153.488830472146
 31
0.0
  0
LINE
  5
182A
330
18
100
AcDbEntity
  8
SUNPOU
100
AcDbLine
 10
294.275587827866
 20
141.8356703003662
 30
0.0
 11
304.8680878278659
 21
152.4281703003662
 31
0.0
  0
LINE
  5
182B
330
18
100
AcDbEntity
  8
SUNPOU
100
AcDbLine
 10
294.275587827866
 20
140.7750101285864
 30
0.0
 11
304.8680878278659
 21
151.3675101285863
 31
0.0
  0
LINE
  5
182C
330
18
100
AcDbEntity
  8
SUNPOU
100
AcDbLine
 10
312.2969368623056
 20
140.9176795065856
 30
0.0
 11
319.275587827866
 21
147.8963304721461
 31
0.0
  0
LINE
  5
182D
330
18
100
AcDbEntity
  8
SUNPOU
100
AcDbLine
 10
313.3575970340853
 20
140.9176795065856
 30
0.0
 11
319.275587827866
 21
146.8356703003663
 31
0.0
  0
LINE
  5
182E
330
18
100
AcDbEntity
  8
SUNPOU
100
AcDbLine
 10
314.4182572058653
 20
140.9176795065856
 30
0.0
 11
319.275587827866
 21
145.7750101285864
 31
0.0
  0
LINE
  5
182F
330
18
100
AcDbEntity
  8
SUNPOU
100
AcDbLine
 10
308.6830878278659
 20
157.303830472146
 30
0.0
 11
317.2969368623057
 21
165.9176795065857
 31
0.0
  0
LINE
  5
1830
330
18
100
AcDbEntity
  8
SUNPOU
100
AcDbLine
 10
308.6830878278659
 20
156.2431703003661
 30
0.0
 11
318.3575970340855
 21
165.9176795065857
 31
0.0
  0
LINE
  5
1831
330
18
100
AcDbEntity
  8
SUNPOU
100
AcDbLine
 10
308.6830878278659
 20
155.1825101285863
 30
0.0
 11
319.275587827866
 21
165.7750101285865
 31
0.0
  0
LINE
  5
1832
330
18
100
AcDbEntity
  8
SUNPOU
100
AcDbLine
 10
308.6830878278659
 20
147.303830472146
 30
0.0
 11
319.275587827866
 21
157.8963304721461
 31
0.0
  0
LINE
  5
1833
330
18
100
AcDbEntity
  8
SUNPOU
100
AcDbLine
 10
308.6830878278659
 20
146.2431703003662
 30
0.0
 11
319.275587827866
 21
156.8356703003663
 31
0.0
  0
LINE
  5
1834
330
18
100
AcDbEntity
  8
SUNPOU
100
AcDbLine
 10
308.6830878278659
 20
145.1825101285863
 30
0.0
 11
319.275587827866
 21
155.7750101285864
 31
0.0
  0
INSERT
  5
1881
330
18
100
AcDbEntity
  8
ZWAKU
100
AcDbBlockReference
  2
CALCOMP_TECHJET720A3
 10
0.0
 20
0.0
 30
0.0
  0
TEXT
  5
1882
330
18
100
AcDbEntity
  8
SUNPOU
100
AcDbText
 10
295.2433914750614
 20
17.97367850711163
 30
0.0
 40
3.0
  1
ﾎﾟﾘｶｰﾎﾞﾈｰﾄ樹脂
 41
0.8
  7
EXT08
100
AcDbText
  0
LINE
  5
1883
330
18
100
AcDbEntity
  8
SUNPOU
100
AcDbLine
 10
261.8115750705019
 20
11.4685413546469
 30
0.0
 11
358.8273580006066
 21
11.4685413546469
 31
0.0
  0
LINE
  5
1884
330
18
100
AcDbEntity
  8
SUNPOU
100
AcDbLine
 10
261.8115750705019
 20
11.4685413546469
 30
0.0
 11
261.811575070502
 21
86.46854135464689
 31
0.0
  0
LINE
  5
1885
330
18
100
AcDbEntity
  8
SUNPOU
100
AcDbLine
 10
270.8115750705017
 20
11.4685413546469
 30
0.0
 11
270.8115750705021
 21
86.46854135464689
 31
0.0
  0
LINE
  5
1886
330
18
100
AcDbEntity
  8
SUNPOU
100
AcDbLine
 10
292.8273580006069
 20
11.4685413546469
 30
0.0
 11
292.8273580006067
 21
86.46854135464685
 31
0.0
  0
TEXT
  5
1888
330
18
100
AcDbEntity
  8
SUNPOU
100
AcDbText
 10
273.7783150914276
 20
17.97367850711163
 30
0.0
 40
3.0
  1
　　反射体
 41
0.8
  7
EXT08
100
AcDbText
  0
LINE
  5
1889
330
18
100
AcDbEntity
  8
SUNPOU
100
AcDbLine
 10
310.8273580006068
 20
11.4685413546469
 30
0.0
 11
310.8273580006068
 21
86.46854135464685
 31
0.0
  0
LINE
  5
188A
330
18
100
AcDbEntity
  8
SUNPOU
100
AcDbLine
 10
346.8273580006067
 20
11.4685413546469
 30
0.0
 11
346.8273580006068
 21
86.46854135464685
 31
0.0
  0
LINE
  5
188B
330
18
100
AcDbEntity
  8
SUNPOU
100
AcDbLine
 10
358.8273580006066
 20
11.4685413546469
 30
0.0
 11
358.8273580006068
 21
86.46854135464685
 31
0.0
  0
TEXT
  5
188C
330
18
100
AcDbEntity
  8
SUNPOU
100
AcDbText
 10
349.9352994835879
 20
17.97367850711163
 30
0.0
 40
3.0
  1
　１
 41
0.8
  7
EXT08
100
AcDbText
  0
LINE
  5
18BE
330
18
100
AcDbEntity
  8
KEN
100
AcDbLine
 10
307.2755878278654
 20
212.9176795065857
 30
0.0
 11
307.2755878278654
 21
208.9176795065857
 31
0.0
  0
LINE
  5
18BF
330
18
100
AcDbEntity
  8
KEN
100
AcDbLine
 10
306.2755878278654
 20
212.9176795065857
 30
0.0
 11
306.2755878278654
 21
208.9176795065857
 31
0.0
  0
LINE
  5
18C0
330
18
100
AcDbEntity
  8
KEN
100
AcDbLine
 10
307.5255878278654
 20
213.4176795065857
 30
0.0
 11
307.5255878278654
 21
208.4176795065857
 31
0.0
  0
LINE
  5
18C1
330
18
100
AcDbEntity
  8
KEN
100
AcDbLine
 10
306.0255878278653
 20
213.4176795065857
 30
0.0
 11
306.0255878278653
 21
208.4176795065857
 31
0.0
  0
LINE
  5
18C2
330
18
100
AcDbEntity
  8
KEN
100
AcDbLine
 10
307.5255878278654
 20
208.4176795065857
 30
0.0
 11
306.0255878278653
 21
208.4176795065857
 31
0.0
  0
ARC
  5
18C3
330
18
100
AcDbEntity
  8
KEN
100
AcDbCircle
 10
307.0255878278654
 20
208.9176795065857
 30
0.0
 40
0.25
100
AcDbArc
 50
270.0000000000017
 51
359.9999999999989
  0
LINE
  5
18C4
330
18
100
AcDbEntity
  8
KEN
100
AcDbLine
 10
307.0255878278654
 20
208.6676795065857
 30
0.0
 11
306.5255878278654
 21
208.6676795065857
 31
0.0
  0
ARC
  5
18C5
330
18
100
AcDbEntity
  8
KEN
100
AcDbCircle
 10
306.5255878278654
 20
208.9176795065857
 30
0.0
 40
0.25
100
AcDbArc
 50
179.9999999999996
 51
270.0
  0
LINE
  5
18C6
330
18
100
AcDbEntity
  8
KEN
100
AcDbLine
 10
307.5255878278654
 20
213.4176795065857
 30
0.0
 11
306.0255878278653
 21
213.4176795065857
 31
0.0
  0
ARC
  5
18C7
330
18
100
AcDbEntity
  8
KEN
100
AcDbCircle
 10
306.5255878278654
 20
212.9176795065857
 30
0.0
 40
0.25
100
AcDbArc
 50
90.0
 51
180.0
  0
LINE
  5
18C8
330
18
100
AcDbEntity
  8
KEN
100
AcDbLine
 10
307.0255878278654
 20
213.1676795065857
 30
0.0
 11
306.5255878278654
 21
213.1676795065857
 31
0.0
  0
ARC
  5
18C9
330
18
100
AcDbEntity
  8
KEN
100
AcDbCircle
 10
307.0255878278654
 20
212.9176795065857
 30
0.0
 40
0.25
100
AcDbArc
 50
359.999999999999
 51
89.99999999999891
  0
MTEXT
  5
18CA
330
18
100
AcDbEntity
  8
SUNPOU
100
AcDbMText
 10
321.3183596713973
 20
217.0200173992387
 30
0.0
 40
3.0
 41
0.8
 71
     7
 72
     5
  1
（後付け）
  7
EXT08
 73
     1
 44
1.0
  0
MTEXT
  5
18CB
330
18
100
AcDbEntity
  8
SUNPOU
100
AcDbMText
 10
321.3183596713973
 20
222.7737084101177
 30
0.0
 40
3.0
 41
0.8
 71
     7
 72
     5
  1
12　反射体
  7
EXT08
 73
     1
 44
1.0
  0
LEADER
  5
18CC
330
18
100
AcDbEntity
  8
SUNPOU
100
AcDbLeader
  3
SJC
 73
     0
 74
     0
 75
     1
 40
3.0
 41
11.28
 76
     3
 10
307.5255878278654
 20
210.9176795065857
 30
0.0
 10
317.8183596713973
 20
221.7737084101177
 30
0.0
 10
320.3183596713973
 20
221.7737084101177
 30
0.0
1001
ACAD
1000
DSTYLE
1002
{
1070
   140
1040
3.0
1070
   340
1005
60
1070
    74
1070
     0
1070
   172
1070
     1
1070
    73
1070
     0
1070
    77
1070
     3
1070
   147
1040
1.0
1070
    42
1040
2.0
1070
    44
1040
2.0
1070
    43
1040
12.0
1070
   177
1070
   256
1070
   176
1070
   256
1070
    41
1040
2.5
1002
}
  0
CIRCLE
  5
18CD
330
18
100
AcDbEntity
  8
SUNPOU
100
AcDbCircle
 10
322.5119640277849
 20
224.2259015338273
 30
0.0
 40
2.167682756202585
  0
TEXT
  5
1A9D
330
18
100
AcDbEntity
  8
INFORMATION
100
AcDbText
 10
1.0
 20
1.0
 30
0.0
 40
0.8
  1
VERSION=3.0
 41
0.8
  7
EXT08
100
AcDbText
  0
ENDSEC
  0
SECTION
  2
OBJECTS
  0
DICTIONARY
  5
C
330
0
100
AcDbDictionary
281
     1
  3
ACAD_COLOR
350
19E1
  3
ACAD_GROUP
350
D
  3
ACAD_LAYOUT
350
19E4
  3
ACAD_MATERIAL
350
19E0
  3
ACAD_MLINESTYLE
350
E
  3
ACAD_PLOTSETTINGS
350
19E5
  3
ACAD_PLOTSTYLENAME
350
19DE
  3
ACAD_TABLESTYLE
350
19E2
  3
AcDbVariableDictionary
350
1B4C
  0
DICTIONARY
  5
19E1
102
{ACAD_REACTORS
330
C
102
}
330
C
100
AcDbDictionary
281
     1
  0
DICTIONARY
  5
D
102
{ACAD_REACTORS
330
C
102
}
330
C
100
AcDbDictionary
281
     1
  0
DICTIONARY
  5
19E4
102
{ACAD_REACTORS
330
C
102
}
330
C
100
AcDbDictionary
281
     1
  3
Model
350
19E6
  3
レイアウト1
350
19E7
  0
DICTIONARY
  5
19E0
102
{ACAD_REACTORS
330
C
102
}
330
C
100
AcDbDictionary
281
     1
  0
DICTIONARY
  5
E
102
{ACAD_REACTORS
330
C
102
}
330
C
100
AcDbDictionary
281
     1
  3
STANDARD
350
1B
  0
DICTIONARY
  5
19E5
102
{ACAD_REACTORS
330
C
102
}
330
C
100
AcDbDictionary
281
     1
  0
ACDBDICTIONARYWDFLT
  5
19DE
102
{ACAD_REACTORS
330
C
102
}
330
C
100
AcDbDictionary
281
     1
  3
Normal
350
19DF
100
AcDbDictionaryWithDefault
340
19DF
  0
DICTIONARY
  5
19E2
102
{ACAD_REACTORS
330
C
102
}
330
C
100
AcDbDictionary
281
     1
  3
Standard
350
19E3
  0
DICTIONARY
  5
1B4C
102
{ACAD_REACTORS
330
C
102
}
330
C
100
AcDbDictionary
281
     1
  3
CTABLESTYLE
350
1B4D
  0
LAYOUT
  5
19E6
102
{ACAD_REACTORS
330
19E4
102
}
330
19E4
100
AcDbPlotSettings
  1

  2
FX DocuColor 4055 PSS61 PS J7
  4

  6

 40
0.0
 41
0.0
 42
0.0
 43
0.0
 44
0.0
 45
0.0
 46
0.0
 47
0.0
 48
0.0
 49
0.0
140
0.0
141
0.0
142
1.0
143
1.0
 70
  1712
 72
     0
 73
     0
 74
     0
  7

 75
     0
147
1.0
 76
     0
 77
     2
 78
   300
148
0.0
149
0.0
100
AcDbLayout
  1
Model
 70
     1
 71
     0
 10
0.0
 20
0.0
 11
12.0
 21
9.0
 12
0.0
 22
0.0
 32
0.0
 14
0.0
 24
0.0
 34
0.0
 15
0.0
 25
0.0
 35
0.0
146
0.0
 13
0.0
 23
0.0
 33
0.0
 16
1.0
 26
0.0
 36
0.0
 17
0.0
 27
1.0
 37
0.0
 76
     0
330
18
  0
LAYOUT
  5
19E7
102
{ACAD_REACTORS
330
19E4
102
}
330
19E4
100
AcDbPlotSettings
  1

  2
FX DocuColor 4055 PSS61 PS J7
  4

  6

 40
0.0
 41
0.0
 42
0.0
 43
0.0
 44
0.0
 45
0.0
 46
0.0
 47
0.0
 48
0.0
 49
0.0
140
0.0
141
0.0
142
1.0
143
1.0
 70
   688
 72
     0
 73
     0
 74
     5
  7

 75
    16
147
1.0
 76
     0
 77
     2
 78
   300
148
0.0
149
0.0
100
AcDbLayout
  1
レイアウト1
 70
     0
 71
     1
 10
0.0
 20
0.0
 11
12.0
 21
9.0
 12
0.0
 22
0.0
 32
0.0
 14
1.000000000000000E+20
 24
1.000000000000000E+20
 34
1.000000000000000E+20
 15
-1.000000000000000E+20
 25
-1.000000000000000E+20
 35
-1.000000000000000E+20
146
0.0
 13
0.0
 23
0.0
 33
0.0
 16
1.0
 26
0.0
 36
0.0
 17
0.0
 27
1.0
 37
0.0
 76
     0
330
15
  0
MLINESTYLE
  5
1B
102
{ACAD_REACTORS
330
E
102
}
330
E
100
AcDbMlineStyle
  2
STANDARD
 70
     0
  3

 62
     0
 51
90.0
 52
90.0
 71
     2
 49
0.5
 62
   256
  6
BYLAYER
 49
-0.5
 62
   256
  6
BYLAYER
  0
ACDBPLACEHOLDER
  5
19DF
102
{ACAD_REACTORS
330
19DE
102
}
330
19DE
  0
TABLESTYLE
  5
19E3
102
{ACAD_REACTORS
330
19E2
102
}
330
19E2
100
AcDbTableStyle
  3
Standard
 70
     0
 71
     0
 40
0.06
 41
0.06
280
     0
281
     0
  7
STANDARD
140
0.18
170
     2
 62
     0
 63
     7
283
     0
274
    -2
284
     1
 64
     0
275
    -2
285
     1
 65
     0
276
    -2
286
     1
 66
     0
277
    -2
287
     1
 67
     0
278
    -2
288
     1
 68
     0
279
    -2
289
     1
 69
     0
  7
STANDARD
140
0.25
170
     5
 62
     0
 63
     7
283
     0
274
    -2
284
     1
 64
     0
275
    -2
285
     1
 65
     0
276
    -2
286
     1
 66
     0
277
    -2
287
     1
 67
     0
278
    -2
288
     1
 68
     0
279
    -2
289
     1
 69
     0
  7
STANDARD
140
0.18
170
     5
 62
     0
 63
     7
283
     0
274
    -2
284
     1
 64
     0
275
    -2
285
     1
 65
     0
276
    -2
286
     1
 66
     0
277
    -2
287
     1
 67
     0
278
    -2
288
     1
 68
     0
279
    -2
289
     1
 69
     0
  0
DICTIONARYVAR
  5
1B4D
102
{ACAD_REACTORS
330
1B4C
102
}
330
1B4C
100
DictionaryVariables
280
     0
  1
STANDARD
  0
ENDSEC
  0
EOF
